  0
SECTION
  2
HEADER
  9
$ACADVER
  1
AC1032
  9
$ACADMAINTVER
 90
      232
  9
$DWGCODEPAGE
  3
ANSI_1252
  9
$LASTSAVEDBY
  1
chris.williams
  9
$REQUIREDVERSIONS
160
                 0
  9
$INSBASE
 10
0.0
 20
0.0
 30
0.0
  9
$EXTMIN
 10
6142.705669695368
 20
-1600.040582798501
 30
0.0
  9
$EXTMAX
 10
26666.63105892417
 20
10037.55685973415
 30
0.0
  9
$LIMMIN
 10
0.0
 20
0.0
  9
$LIMMAX
 10
12.0
 20
9.0
  9
$ORTHOMODE
 70
     0
  9
$REGENMODE
 70
     1
  9
$FILLMODE
 70
     1
  9
$QTEXTMODE
 70
     0
  9
$MIRRTEXT
 70
     0
  9
$LTSCALE
 40
1.0
  9
$ATTMODE
 70
     1
  9
$TEXTSIZE
 40
0.2
  9
$TRACEWID
 40
0.05
  9
$TEXTSTYLE
  7
Standard
  9
$CLAYER
  8
0
  9
$CELTYPE
  6
ByLayer
  9
$CECOLOR
 62
   256
  9
$CELTSCALE
 40
1.0
  9
$DISPSILH
 70
     0
  9
$DIMSCALE
 40
1.0
  9
$DIMASZ
 40
0.18
  9
$DIMEXO
 40
0.0625
  9
$DIMDLI
 40
0.38
  9
$DIMRND
 40
0.0
  9
$DIMDLE
 40
0.0
  9
$DIMEXE
 40
0.18
  9
$DIMTP
 40
0.0
  9
$DIMTM
 40
0.0
  9
$DIMTXT
 40
0.18
  9
$DIMCEN
 40
0.09
  9
$DIMTSZ
 40
0.0
  9
$DIMTOL
 70
     0
  9
$DIMLIM
 70
     0
  9
$DIMTIH
 70
     1
  9
$DIMTOH
 70
     1
  9
$DIMSE1
 70
     0
  9
$DIMSE2
 70
     0
  9
$DIMTAD
 70
     0
  9
$DIMZIN
 70
     0
  9
$DIMBLK
  1

  9
$DIMASO
 70
     1
  9
$DIMSHO
 70
     1
  9
$DIMPOST
  1

  9
$DIMAPOST
  1

  9
$DIMALT
 70
     0
  9
$DIMALTD
 70
     2
  9
$DIMALTF
 40
25.4
  9
$DIMLFAC
 40
1.0
  9
$DIMTOFL
 70
     0
  9
$DIMTVP
 40
0.0
  9
$DIMTIX
 70
     0
  9
$DIMSOXD
 70
     0
  9
$DIMSAH
 70
     0
  9
$DIMBLK1
  1

  9
$DIMBLK2
  1

  9
$DIMSTYLE
  2
Standard
  9
$DIMCLRD
 70
     0
  9
$DIMCLRE
 70
     0
  9
$DIMCLRT
 70
     0
  9
$DIMTFAC
 40
1.0
  9
$DIMGAP
 40
0.09
  9
$DIMJUST
 70
     0
  9
$DIMSD1
 70
     0
  9
$DIMSD2
 70
     0
  9
$DIMTOLJ
 70
     1
  9
$DIMTZIN
 70
     0
  9
$DIMALTZ
 70
     0
  9
$DIMALTTZ
 70
     0
  9
$DIMUPT
 70
     0
  9
$DIMDEC
 70
     4
  9
$DIMTDEC
 70
     4
  9
$DIMALTU
 70
     2
  9
$DIMALTTD
 70
     2
  9
$DIMTXSTY
  7
Standard
  9
$DIMAUNIT
 70
     0
  9
$DIMADEC
 70
     0
  9
$DIMALTRND
 40
0.0
  9
$DIMAZIN
 70
     0
  9
$DIMDSEP
 70
    46
  9
$DIMATFIT
 70
     3
  9
$DIMFRAC
 70
     0
  9
$DIMLDRBLK
  1

  9
$DIMLUNIT
 70
     2
  9
$DIMLWD
 70
    -2
  9
$DIMLWE
 70
    -2
  9
$DIMTMOVE
 70
     0
  9
$DIMFXL
 40
1.0
  9
$DIMFXLON
 70
     0
  9
$DIMJOGANG
 40
0.7853981633974483
  9
$DIMTFILL
 70
     0
  9
$DIMTFILLCLR
 70
     0
  9
$DIMARCSYM
 70
     0
  9
$DIMLTYPE
  6

  9
$DIMLTEX1
  6

  9
$DIMLTEX2
  6

  9
$DIMTXTDIRECTION
 70
     0
  9
$LUNITS
 70
     2
  9
$LUPREC
 70
     4
  9
$SKETCHINC
 40
0.1
  9
$FILLETRAD
 40
0.0
  9
$AUNITS
 70
     0
  9
$AUPREC
 70
     0
  9
$MENU
  1
.
  9
$ELEVATION
 40
0.0
  9
$PELEVATION
 40
0.0
  9
$THICKNESS
 40
0.0
  9
$LIMCHECK
 70
     0
  9
$CHAMFERA
 40
0.0
  9
$CHAMFERB
 40
0.0
  9
$CHAMFERC
 40
0.0
  9
$CHAMFERD
 40
0.0
  9
$SKPOLY
 70
     0
  9
$TDCREATE
 40
2459417.649328704
  9
$TDUCREATE
 40
2459417.232662037
  9
$TDUPDATE
 40
2460202.695879630
  9
$TDUUPDATE
 40
2460202.279212963
  9
$TDINDWG
 40
0.0277893519
  9
$TDUSRTIMER
 40
0.0277893519
  9
$USRTIMER
 70
     1
  9
$ANGBASE
 50
0.0
  9
$ANGDIR
 70
     0
  9
$PDMODE
 70
     0
  9
$PDSIZE
 40
0.0
  9
$PLINEWID
 40
0.0
  9
$SPLFRAME
 70
     0
  9
$SPLINETYPE
 70
     6
  9
$SPLINESEGS
 70
     8
  9
$HANDSEED
  5
EB6
  9
$SURFTAB1
 70
     6
  9
$SURFTAB2
 70
     6
  9
$SURFTYPE
 70
     6
  9
$SURFU
 70
     6
  9
$SURFV
 70
     6
  9
$UCSBASE
  2

  9
$UCSNAME
  2

  9
$UCSORG
 10
0.0
 20
0.0
 30
0.0
  9
$UCSXDIR
 10
1.0
 20
0.0
 30
0.0
  9
$UCSYDIR
 10
0.0
 20
1.0
 30
0.0
  9
$UCSORTHOREF
  2

  9
$UCSORTHOVIEW
 70
     0
  9
$UCSORGTOP
 10
0.0
 20
0.0
 30
0.0
  9
$UCSORGBOTTOM
 10
0.0
 20
0.0
 30
0.0
  9
$UCSORGLEFT
 10
0.0
 20
0.0
 30
0.0
  9
$UCSORGRIGHT
 10
0.0
 20
0.0
 30
0.0
  9
$UCSORGFRONT
 10
0.0
 20
0.0
 30
0.0
  9
$UCSORGBACK
 10
0.0
 20
0.0
 30
0.0
  9
$PUCSBASE
  2

  9
$PUCSNAME
  2

  9
$PUCSORG
 10
0.0
 20
0.0
 30
0.0
  9
$PUCSXDIR
 10
1.0
 20
0.0
 30
0.0
  9
$PUCSYDIR
 10
0.0
 20
1.0
 30
0.0
  9
$PUCSORTHOREF
  2

  9
$PUCSORTHOVIEW
 70
     0
  9
$PUCSORGTOP
 10
0.0
 20
0.0
 30
0.0
  9
$PUCSORGBOTTOM
 10
0.0
 20
0.0
 30
0.0
  9
$PUCSORGLEFT
 10
0.0
 20
0.0
 30
0.0
  9
$PUCSORGRIGHT
 10
0.0
 20
0.0
 30
0.0
  9
$PUCSORGFRONT
 10
0.0
 20
0.0
 30
0.0
  9
$PUCSORGBACK
 10
0.0
 20
0.0
 30
0.0
  9
$USERI1
 70
     0
  9
$USERI2
 70
     0
  9
$USERI3
 70
     0
  9
$USERI4
 70
     0
  9
$USERI5
 70
     0
  9
$USERR1
 40
0.0
  9
$USERR2
 40
0.0
  9
$USERR3
 40
0.0
  9
$USERR4
 40
0.0
  9
$USERR5
 40
0.0
  9
$WORLDVIEW
 70
     1
  9
$SHADEDGE
 70
     3
  9
$SHADEDIF
 70
    70
  9
$TILEMODE
 70
     1
  9
$MAXACTVP
 70
    64
  9
$PINSBASE
 10
0.0
 20
0.0
 30
0.0
  9
$PLIMCHECK
 70
     0
  9
$PEXTMIN
 10
0.0
 20
0.0
 30
0.0
  9
$PEXTMAX
 10
0.0
 20
0.0
 30
0.0
  9
$PLIMMIN
 10
0.0
 20
0.0
  9
$PLIMMAX
 10
12.0
 20
9.0
  9
$UNITMODE
 70
     0
  9
$VISRETAIN
 70
     1
  9
$PLINEGEN
 70
     0
  9
$PSLTSCALE
 70
     1
  9
$TREEDEPTH
 70
  3020
  9
$CMLSTYLE
  2
Standard
  9
$CMLJUST
 70
     0
  9
$CMLSCALE
 40
1.0
  9
$PROXYGRAPHICS
 70
     1
  9
$MEASUREMENT
 70
     0
  9
$CELWEIGHT
370
    -1
  9
$ENDCAPS
280
     0
  9
$JOINSTYLE
280
     0
  9
$LWDISPLAY
290
     0
  9
$INSUNITS
 70
     1
  9
$HYPERLINKBASE
  1

  9
$STYLESHEET
  1

  9
$XEDIT
290
     1
  9
$CEPSNTYPE
380
     0
  9
$PSTYLEMODE
290
     1
  9
$FINGERPRINTGUID
  2
{E22CEA6C-5B7C-3F47-A635-F90BE1B973BF}
  9
$VERSIONGUID
  2
{D7C46354-7EA3-D04D-BDF9-C06E67EBE0BF}
  9
$EXTNAMES
290
     1
  9
$PSVPSCALE
 40
0.0
  9
$OLESTARTUP
290
     0
  9
$SORTENTS
280
   127
  9
$INDEXCTL
280
     0
  9
$HIDETEXT
280
     1
  9
$XCLIPFRAME
280
     2
  9
$HALOGAP
280
     0
  9
$OBSCOLOR
 70
   257
  9
$OBSLTYPE
280
     0
  9
$INTERSECTIONDISPLAY
280
     0
  9
$INTERSECTIONCOLOR
 70
   257
  9
$DIMASSOC
280
     2
  9
$PROJECTNAME
  1

  9
$CAMERADISPLAY
290
     0
  9
$LENSLENGTH
 40
50.0
  9
$CAMERAHEIGHT
 40
0.0
  9
$STEPSPERSEC
 40
2.0
  9
$STEPSIZE
 40
6.0
  9
$3DDWFPREC
 40
2.0
  9
$PSOLWIDTH
 40
0.25
  9
$PSOLHEIGHT
 40
4.0
  9
$LOFTANG1
 40
1.570796326794896
  9
$LOFTANG2
 40
1.570796326794896
  9
$LOFTMAG1
 40
0.0
  9
$LOFTMAG2
 40
0.0
  9
$LOFTPARAM
 70
     7
  9
$LOFTNORMALS
280
     1
  9
$LATITUDE
 40
37.795
  9
$LONGITUDE
 40
-122.394
  9
$NORTHDIRECTION
 40
0.0
  9
$TIMEZONE
 70
 -8000
  9
$LIGHTGLYPHDISPLAY
280
     1
  9
$TILEMODELIGHTSYNCH
280
     1
  9
$CMATERIAL
347
96
  9
$SOLIDHIST
280
     0
  9
$SHOWHIST
280
     1
  9
$DWFFRAME
280
     2
  9
$DGNFRAME
280
     0
  9
$REALWORLDSCALE
290
     1
  9
$INTERFERECOLOR
 62
     1
  9
$INTERFEREOBJVS
345
A3
  9
$INTERFEREVPVS
346
A0
  9
$CSHADOW
280
     0
  9
$SHADOWPLANELOCATION
 40
0.0
  0
ENDSEC
  0
SECTION
  2
CLASSES
  0
CLASS
  1
ACDBDICTIONARYWDFLT
  2
AcDbDictionaryWithDefault
  3
ObjectDBX Classes
 90
        0
 91
        1
280
     0
281
     0
  0
CLASS
  1
DICTIONARYVAR
  2
AcDbDictionaryVar
  3
ObjectDBX Classes
 90
        0
 91
        9
280
     0
281
     0
  0
CLASS
  1
TABLESTYLE
  2
AcDbTableStyle
  3
ObjectDBX Classes
 90
     4095
 91
        1
280
     0
281
     0
  0
CLASS
  1
MATERIAL
  2
AcDbMaterial
  3
ObjectDBX Classes
 90
     1153
 91
        3
280
     0
281
     0
  0
CLASS
  1
VISUALSTYLE
  2
AcDbVisualStyle
  3
ObjectDBX Classes
 90
     4095
 91
       24
280
     0
281
     0
  0
CLASS
  1
SCALE
  2
AcDbScale
  3
ObjectDBX Classes
 90
     1153
 91
       33
280
     0
281
     0
  0
CLASS
  1
MLEADERSTYLE
  2
AcDbMLeaderStyle
  3
ACDB_MLEADERSTYLE_CLASS
 90
     4095
 91
        2
280
     0
281
     0
  0
CLASS
  1
CELLSTYLEMAP
  2
AcDbCellStyleMap
  3
ObjectDBX Classes
 90
     1152
 91
        1
280
     0
281
     0
  0
CLASS
  1
EXACXREFPANELOBJECT
  2
ExAcXREFPanelObject
  3
EXAC_ESW
 90
     1025
 91
        2
280
     0
281
     0
  0
CLASS
  1
NPOCOLLECTION
  2
AcDbImpNonPersistentObjectsCollection
  3
ObjectDBX Classes
 90
     1153
 91
        1
280
     0
281
     0
  0
CLASS
  1
LAYER_INDEX
  2
AcDbLayerIndex
  3
ObjectDBX Classes
 90
        0
 91
        0
280
     0
281
     0
  0
CLASS
  1
SPATIAL_INDEX
  2
AcDbSpatialIndex
  3
ObjectDBX Classes
 90
        0
 91
        0
280
     0
281
     0
  0
CLASS
  1
IDBUFFER
  2
AcDbIdBuffer
  3
ObjectDBX Classes
 90
        0
 91
        0
280
     0
281
     0
  0
CLASS
  1
ACDBSECTIONVIEWSTYLE
  2
AcDbSectionViewStyle
  3
ObjectDBX Classes
 90
     1025
 91
        2
280
     0
281
     0
  0
CLASS
  1
ACDBDETAILVIEWSTYLE
  2
AcDbDetailViewStyle
  3
ObjectDBX Classes
 90
     1025
 91
        2
280
     0
281
     0
  0
CLASS
  1
DIMASSOC
  2
AcDbDimAssoc
  3
"AcDbDimAssoc|Product Desc:     AcDim ARX App For Dimension|Company:          Autodesk, Inc.|WEB Address:      www.autodesk.com"
 90
        0
 91
        0
280
     0
281
     0
  0
CLASS
  1
SORTENTSTABLE
  2
AcDbSortentsTable
  3
ObjectDBX Classes
 90
        0
 91
        3
280
     0
281
     0
  0
ENDSEC
  0
SECTION
  2
TABLES
  0
TABLE
  2
VPORT
  5
8
330
0
100
AcDbSymbolTable
 70
     1
  0
VPORT
  5
94
330
8
100
AcDbSymbolTableRecord
100
AcDbViewportTableRecord
  2
*Active
 70
     0
 10
0.0
 20
0.0
 11
1.0
 21
1.0
 12
12054.15087045311
 22
2035.567568287339
 13
0.0
 23
0.0
 14
0.5
 24
0.5
 15
0.5
 25
0.5
 16
0.0
 26
0.0
 36
1.0
 17
0.0
 27
0.0
 37
0.0
 40
17280.60077454615
 41
1.881179531656547
 42
50.0
 43
0.0
 44
0.0
 50
0.0
 51
0.0
 71
     0
 72
  1000
 73
     1
 74
     3
 75
     0
 76
     1
 77
     0
 78
     0
281
     0
 65
     1
110
0.0
120
0.0
130
0.0
111
1.0
121
0.0
131
0.0
112
0.0
122
1.0
132
0.0
 79
     0
146
0.0
348
9F
 60
     3
 61
     5
292
     1
282
     1
141
0.0
142
0.0
 63
   250
421
  3355443
1001
ACAD_NAV_VCDISPLAY
1070
     3
  0
ENDTAB
  0
TABLE
  2
LTYPE
  5
5
330
0
100
AcDbSymbolTable
 70
     3
  0
LTYPE
  5
14
330
5
100
AcDbSymbolTableRecord
100
AcDbLinetypeTableRecord
  2
ByBlock
 70
     0
  3

 72
    65
 73
     0
 40
0.0
  0
LTYPE
  5
15
330
5
100
AcDbSymbolTableRecord
100
AcDbLinetypeTableRecord
  2
ByLayer
 70
     0
  3

 72
    65
 73
     0
 40
0.0
  0
LTYPE
  5
16
330
5
100
AcDbSymbolTableRecord
100
AcDbLinetypeTableRecord
  2
Continuous
 70
     0
  3
Solid line
 72
    65
 73
     0
 40
0.0
  0
LTYPE
  5
35E
330
5
100
AcDbSymbolTableRecord
100
AcDbLinetypeTableRecord
  2
CHAIN
 70
     0
  3
Chain ____ _ ____ _ ____ _ ____ _ ____ _ ____
 72
    65
 73
     4
 40
0.7087
 49
0.4724000000000001
 74
     0
 49
-0.0591
 74
     0
 49
0.1181
 74
     0
 49
-0.0591
 74
     0
  0
LTYPE
  5
35F
330
5
100
AcDbSymbolTableRecord
100
AcDbLinetypeTableRecord
  2
DOUBLE_DASH_CHAIN
 70
     0
  3
Double-Dash Chain ______  __  __  ______  __  _
 72
    65
 73
     6
 40
1.240299999999998
 49
0.6614
 74
     0
 49
-0.0827
 74
     0
 49
0.1654
 74
     0
 49
-0.0827
 74
     0
 49
0.1654
 74
     0
 49
-0.0827
 74
     0
  0
ENDTAB
  0
TABLE
  2
LAYER
  5
2
102
{ACAD_XDICTIONARY
360
18E
102
}
330
0
100
AcDbSymbolTable
 70
     8
  0
LAYER
  5
10
102
{ACAD_XDICTIONARY
360
E6
102
}
330
2
100
AcDbSymbolTableRecord
100
AcDbLayerTableRecord
  2
0
 70
     0
 62
     7
  6
Continuous
370
    -3
390
F
347
98
348
0
  0
LAYER
  5
21B
330
2
100
AcDbSymbolTableRecord
100
AcDbLayerTableRecord
  2
Text
 70
     0
 62
     7
  6
Continuous
370
    -3
390
F
347
98
348
0
1001
AcAecLayerStandard
1000

1000

1001
AcCmTransparency
1071
        0
  0
LAYER
  5
360
330
2
100
AcDbSymbolTableRecord
100
AcDbLayerTableRecord
  2
Dimension (ISO)
 70
     0
 62
     7
  6
Continuous
370
     5
390
F
347
98
348
0
  0
LAYER
  5
361
330
2
100
AcDbSymbolTableRecord
100
AcDbLayerTableRecord
  2
Section Line (ISO)
 70
     0
 62
     7
  6
CHAIN
370
     9
390
F
347
98
348
0
  0
LAYER
  5
362
330
2
100
AcDbSymbolTableRecord
100
AcDbLayerTableRecord
  2
Visible (ISO)
 70
     0
 62
     7
  6
Continuous
370
     5
390
F
347
98
348
0
  0
LAYER
  5
363
330
2
100
AcDbSymbolTableRecord
100
AcDbLayerTableRecord
  2
Defpoints
 70
     0
 62
     7
  6
Continuous
290
     0
370
    -3
390
F
347
98
348
0
  0
LAYER
  5
7F1
330
2
100
AcDbSymbolTableRecord
100
AcDbLayerTableRecord
  2
Detail Boundary (ISO)
 70
     0
 62
     7
  6
Continuous
370
     5
390
F
347
98
348
0
  0
LAYER
  5
7F2
330
2
100
AcDbSymbolTableRecord
100
AcDbLayerTableRecord
  2
Sketch Geometry (ISO)
 70
     0
 62
     7
  6
Continuous
370
     5
390
F
347
98
348
0
  0
ENDTAB
  0
TABLE
  2
STYLE
  5
3
330
0
100
AcDbSymbolTable
 70
     3
  0
STYLE
  5
11
330
3
100
AcDbSymbolTableRecord
100
AcDbTextStyleTableRecord
  2
Standard
 70
     0
 40
0.0
 41
1.0
 50
0.0
 71
     0
 42
0.2
  3
arial.ttf
  4

1001
ACAD
1000
Arial
1071
       34
  0
STYLE
  5
DC
330
3
100
AcDbSymbolTableRecord
100
AcDbTextStyleTableRecord
  2
Annotative
 70
     0
 40
0.0
 41
1.0
 50
0.0
 71
     0
 42
0.2
  3
arial.ttf
  4

1001
AcadAnnotative
1000
AnnotativeData
1002
{
1070
     1
1070
     1
1002
}
1001
ACAD
1000
Arial
1071
       34
  0
STYLE
  5
364
330
3
100
AcDbSymbolTableRecord
100
AcDbTextStyleTableRecord
  2
Jardan Text - 3.05mm
 70
     0
 40
0.0
 41
1.0
 50
0.0
 71
     0
 42
0.2
  3
apercu_regular-webfont.ttf
  4

1001
ACAD
1000
Apercu
1071
      256
  0
ENDTAB
  0
TABLE
  2
VIEW
  5
6
330
0
100
AcDbSymbolTable
 70
     0
  0
ENDTAB
  0
TABLE
  2
UCS
  5
7
330
0
100
AcDbSymbolTable
 70
     0
  0
ENDTAB
  0
TABLE
  2
APPID
  5
9
330
0
100
AcDbSymbolTable
 70
    10
  0
APPID
  5
12
330
9
100
AcDbSymbolTableRecord
100
AcDbRegAppTableRecord
  2
ACAD
 70
     0
  0
APPID
  5
DD
330
9
100
AcDbSymbolTableRecord
100
AcDbRegAppTableRecord
  2
AcadAnnoPO
 70
     0
  0
APPID
  5
DE
330
9
100
AcDbSymbolTableRecord
100
AcDbRegAppTableRecord
  2
AcadAnnotative
 70
     0
  0
APPID
  5
DF
330
9
100
AcDbSymbolTableRecord
100
AcDbRegAppTableRecord
  2
ACAD_DSTYLE_DIMJAG
 70
     0
  0
APPID
  5
E0
330
9
100
AcDbSymbolTableRecord
100
AcDbRegAppTableRecord
  2
ACAD_DSTYLE_DIMTALN
 70
     0
  0
APPID
  5
107
330
9
100
AcDbSymbolTableRecord
100
AcDbRegAppTableRecord
  2
ACAD_MLEADERVER
 70
     0
  0
APPID
  5
1A6
330
9
100
AcDbSymbolTableRecord
100
AcDbRegAppTableRecord
  2
ACAD_NAV_VCDISPLAY
 70
     0
  0
APPID
  5
21C
330
9
100
AcDbSymbolTableRecord
100
AcDbRegAppTableRecord
  2
AcAecLayerStandard
 70
     0
  0
APPID
  5
21D
330
9
100
AcDbSymbolTableRecord
100
AcDbRegAppTableRecord
  2
AcCmTransparency
 70
     0
  0
APPID
  5
24E
330
9
100
AcDbSymbolTableRecord
100
AcDbRegAppTableRecord
  2
ACAD_EXEMPT_FROM_CAD_STANDARDS
 70
     0
  0
ENDTAB
  0
TABLE
  2
DIMSTYLE
  5
A
330
0
100
AcDbSymbolTable
 70
     3
100
AcDbDimStyleTable
 71
     2
340
27
340
E1
  0
DIMSTYLE
105
27
330
A
100
AcDbSymbolTableRecord
100
AcDbDimStyleTableRecord
  2
Standard
 70
     0
340
11
  0
DIMSTYLE
105
E1
330
A
100
AcDbSymbolTableRecord
100
AcDbDimStyleTableRecord
  2
Annotative
 70
     0
 40
0.0
340
11
1001
AcadAnnotative
1000
AnnotativeData
1002
{
1070
     1
1070
     1
1002
}
1001
ACAD_DSTYLE_DIMJAG
1070
   388
1040
1.5
1001
ACAD_DSTYLE_DIMTALN
1070
   392
1070
     0
  0
DIMSTYLE
105
365
330
A
100
AcDbSymbolTableRecord
100
AcDbDimStyleTableRecord
  2
Jardan Dimension Style
 70
     0
 40
7.0
 41
2.5
 42
1.587499999999999
 43
5.999999999999999
 44
3.174999999999998
 45
0.00000001
 73
     0
 78
    12
 79
     3
140
3.050000190734863
143
1.0
146
0.9993442296981811
147
0.8
171
     1
176
   256
177
   256
178
   256
271
     1
272
     2
274
     1
284
     4
285
    12
340
364
342
250
371
    -1
372
    -1
  0
ENDTAB
  0
TABLE
  2
BLOCK_RECORD
  5
1
330
0
100
AcDbSymbolTable
 70
     9
  0
BLOCK_RECORD
  5
1F
102
{ACAD_XDICTIONARY
360
15D
102
}
330
1
100
AcDbSymbolTableRecord
100
AcDbBlockTableRecord
  2
*Model_Space
340
22
 70
     0
280
     1
281
     0
  0
BLOCK_RECORD
  5
58
330
1
100
AcDbSymbolTableRecord
100
AcDbBlockTableRecord
  2
*Paper_Space
340
59
 70
     0
280
     1
281
     0
  0
BLOCK_RECORD
  5
5D
330
1
100
AcDbSymbolTableRecord
100
AcDbBlockTableRecord
  2
*Paper_Space0
340
5E
 70
     0
280
     1
281
     0
  0
BLOCK_RECORD
  5
250
330
1
100
AcDbSymbolTableRecord
100
AcDbBlockTableRecord
  2
_Oblique
340
0
 70
     0
280
     1
281
     0
  0
BLOCK_RECORD
  5
33E
330
1
100
AcDbSymbolTableRecord
100
AcDbBlockTableRecord
  2
2dTransSection0
340
0
 70
     0
280
     1
281
     0
  0
BLOCK_RECORD
  5
64A
102
{ACAD_XDICTIONARY
360
64C
102
}
330
1
100
AcDbSymbolTableRecord
100
AcDbBlockTableRecord
  2
A$C2b0eaa2d
340
0
 70
     1
280
     1
281
     0
  0
BLOCK_RECORD
  5
794
330
1
100
AcDbSymbolTableRecord
100
AcDbBlockTableRecord
  2
2dDetail0
340
0
 70
     0
280
     1
281
     0
  0
BLOCK_RECORD
  5
7AF
330
1
100
AcDbSymbolTableRecord
100
AcDbBlockTableRecord
  2
2dDetail1
340
0
 70
     0
280
     1
281
     0
  0
BLOCK_RECORD
  5
CEE
330
1
100
AcDbSymbolTableRecord
100
AcDbBlockTableRecord
  2
*D6
340
0
 70
     0
280
     1
281
     0
  0
BLOCK_RECORD
  5
CFB
102
{ACAD_XDICTIONARY
360
CFD
102
}
330
1
100
AcDbSymbolTableRecord
100
AcDbBlockTableRecord
  2
A$C6bd01ab3
340
0
 70
     1
280
     1
281
     0
  0
ENDTAB
  0
ENDSEC
  0
SECTION
  2
BLOCKS
  0
BLOCK
  5
20
330
1F
100
AcDbEntity
  8
0
100
AcDbBlockBegin
  2
*Model_Space
 70
     0
 10
0.0
 20
0.0
 30
0.0
  3
*Model_Space
  1

  0
ENDBLK
  5
21
330
1F
100
AcDbEntity
  8
0
100
AcDbBlockEnd
  0
BLOCK
  5
5A
330
58
100
AcDbEntity
 67
     1
  8
0
100
AcDbBlockBegin
  2
*Paper_Space
 70
     0
 10
0.0
 20
0.0
 30
0.0
  3
*Paper_Space
  1

  0
ENDBLK
  5
5B
330
58
100
AcDbEntity
 67
     1
  8
0
100
AcDbBlockEnd
  0
BLOCK
  5
5F
330
5D
100
AcDbEntity
 67
     1
  8
0
100
AcDbBlockBegin
  2
*Paper_Space0
 70
     0
 10
0.0
 20
0.0
 30
0.0
  3
*Paper_Space0
  1

  0
ENDBLK
  5
60
330
5D
100
AcDbEntity
 67
     1
  8
0
100
AcDbBlockEnd
  0
BLOCK
  5
251
330
250
100
AcDbEntity
  8
0
100
AcDbBlockBegin
  2
_Oblique
 70
     0
 10
0.0
 20
0.0
 30
0.0
  3
_Oblique
  1

  0
LINE
  5
252
330
250
100
AcDbEntity
  8
0
  6
ByBlock
 62
     0
370
    -2
100
AcDbLine
 10
-0.5
 20
-0.5
 30
0.0
 11
0.5
 21
0.5
 31
0.0
  0
ENDBLK
  5
253
330
250
100
AcDbEntity
  8
0
100
AcDbBlockEnd
  0
BLOCK
  5
33F
330
33E
100
AcDbEntity
  8
0
100
AcDbBlockBegin
  2
2dTransSection0
 70
     0
 10
0.0
 20
0.0
 30
0.0
  3
2dTransSection0
  1

  0
LINE
  5
340
330
33E
100
AcDbEntity
  8
Section Line (ISO)
  6
DOUBLE_DASH_CHAIN
 48
13.9994306564331
100
AcDbLine
 10
86.47591751230923
 20
172.9891756759298
 30
0.0
 11
86.47591751230876
 21
94.27170933848399
 31
0.0
  0
LINE
  5
341
330
33E
100
AcDbEntity
  8
Section Line (ISO)
  6
Continuous
100
AcDbLine
 10
86.47591751230923
 20
172.9891756759298
 30
0.0
 11
86.47591751230919
 21
163.7256824084407
 31
0.0
  0
LINE
  5
342
330
33E
100
AcDbEntity
  8
Section Line (ISO)
  6
Continuous
100
AcDbLine
 10
86.47591751230882
 20
103.5352026059731
 30
0.0
 11
86.47591751230876
 21
94.27170933848399
 31
0.0
  0
LINE
  5
343
330
33E
100
AcDbEntity
  8
Section Line (ISO)
  6
Continuous
100
AcDbLine
 10
83.97591751230924
 20
172.9891756759299
 30
0.0
 11
81.47591751230924
 21
172.9891756759299
 31
0.0
  0
POLYLINE
  5
344
330
33E
100
AcDbEntity
  8
Section Line (ISO)
  6
Continuous
100
AcDb2dPolyline
 66
     1
 10
0.0
 20
0.0
 30
0.0
 70
   128
  0
VERTEX
  5
345
330
344
100
AcDbEntity
  8
Section Line (ISO)
  6
Continuous
100
AcDbVertex
100
AcDb2dVertex
 10
83.97591751230907
 20
173.4891766342746
 30
0.0
  0
VERTEX
  5
346
330
344
100
AcDbEntity
  8
Section Line (ISO)
  6
Continuous
100
AcDbVertex
100
AcDb2dVertex
 10
81.47591751230907
 20
172.989176089318
 30
0.0
  0
VERTEX
  5
347
330
344
100
AcDbEntity
  8
Section Line (ISO)
  6
Continuous
100
AcDbVertex
100
AcDb2dVertex
 10
83.97591751230907
 20
172.4891755443613
 30
0.0
  0
VERTEX
  5
348
330
344
100
AcDbEntity
  8
Section Line (ISO)
  6
Continuous
100
AcDbVertex
100
AcDb2dVertex
 10
83.97591751230907
 20
173.4891766342746
 30
0.0
  0
SEQEND
  5
349
330
344
100
AcDbEntity
  8
Section Line (ISO)
  6
Continuous
  0
SOLID
  5
34A
330
33E
100
AcDbEntity
  8
Section Line (ISO)
100
AcDbTrace
 10
83.97591751230907
 20
173.4891766342746
 30
0.0
 11
81.47591751230907
 21
172.989176089318
 31
0.0
 12
83.97591751230907
 22
172.4891755443613
 32
0.0
 13
83.97591751230907
 23
173.4891766342746
 33
0.0
  0
LINE
  5
34B
330
33E
100
AcDbEntity
  8
Section Line (ISO)
  6
Continuous
100
AcDbLine
 10
83.97591751230924
 20
173.4891756759299
 30
0.0
 11
81.47591751230924
 21
172.9891756759299
 31
0.0
  0
LINE
  5
34C
330
33E
100
AcDbEntity
  8
Section Line (ISO)
  6
Continuous
100
AcDbLine
 10
81.47591751230924
 20
172.9891756759299
 30
0.0
 11
83.97591751230924
 21
172.4891756759299
 31
0.0
  0
LINE
  5
34D
330
33E
100
AcDbEntity
  8
Section Line (ISO)
  6
Continuous
100
AcDbLine
 10
83.97591751230924
 20
172.4891756759299
 30
0.0
 11
83.97591751230924
 21
173.4891756759299
 31
0.0
  0
LINE
  5
34E
330
33E
100
AcDbEntity
  8
Section Line (ISO)
  6
Continuous
100
AcDbLine
 10
86.47591751230923
 20
172.9891756759298
 30
0.0
 11
83.97591751230924
 21
172.9891756759299
 31
0.0
  0
LINE
  5
34F
330
33E
100
AcDbEntity
  8
Section Line (ISO)
  6
Continuous
100
AcDbLine
 10
83.97591751230876
 20
94.27170933848399
 30
0.0
 11
81.47591751230876
 21
94.27170933848399
 31
0.0
  0
POLYLINE
  5
350
330
33E
100
AcDbEntity
  8
Section Line (ISO)
  6
Continuous
100
AcDb2dPolyline
 66
     1
 10
0.0
 20
0.0
 30
0.0
 70
   128
  0
VERTEX
  5
351
330
350
100
AcDbEntity
  8
Section Line (ISO)
  6
Continuous
100
AcDbVertex
100
AcDb2dVertex
 10
83.97591751230907
 20
94.77171055238306
 30
0.0
  0
VERTEX
  5
352
330
350
100
AcDbEntity
  8
Section Line (ISO)
  6
Continuous
100
AcDbVertex
100
AcDb2dVertex
 10
81.47591751230907
 20
94.27171000742632
 30
0.0
  0
VERTEX
  5
353
330
350
100
AcDbEntity
  8
Section Line (ISO)
  6
Continuous
100
AcDbVertex
100
AcDb2dVertex
 10
83.97591751230907
 20
93.77170946246955
 30
0.0
  0
VERTEX
  5
354
330
350
100
AcDbEntity
  8
Section Line (ISO)
  6
Continuous
100
AcDbVertex
100
AcDb2dVertex
 10
83.97591751230907
 20
94.77171055238306
 30
0.0
  0
SEQEND
  5
355
330
350
100
AcDbEntity
  8
Section Line (ISO)
  6
Continuous
  0
SOLID
  5
356
330
33E
100
AcDbEntity
  8
Section Line (ISO)
100
AcDbTrace
 10
83.97591751230907
 20
94.77171055238306
 30
0.0
 11
81.47591751230907
 21
94.27171000742632
 31
0.0
 12
83.97591751230907
 22
93.77170946246955
 32
0.0
 13
83.97591751230907
 23
94.77171055238306
 33
0.0
  0
LINE
  5
357
330
33E
100
AcDbEntity
  8
Section Line (ISO)
  6
Continuous
100
AcDbLine
 10
83.97591751230876
 20
94.771709338484
 30
0.0
 11
81.47591751230876
 21
94.27170933848399
 31
0.0
  0
LINE
  5
358
330
33E
100
AcDbEntity
  8
Section Line (ISO)
  6
Continuous
100
AcDbLine
 10
81.47591751230876
 20
94.27170933848399
 30
0.0
 11
83.97591751230876
 21
93.77170933848402
 31
0.0
  0
LINE
  5
359
330
33E
100
AcDbEntity
  8
Section Line (ISO)
  6
Continuous
100
AcDbLine
 10
83.97591751230876
 20
93.77170933848402
 30
0.0
 11
83.97591751230876
 21
94.771709338484
 31
0.0
  0
LINE
  5
35A
330
33E
100
AcDbEntity
  8
Section Line (ISO)
  6
Continuous
100
AcDbLine
 10
86.47591751230876
 20
94.27170933848399
 30
0.0
 11
83.97591751230876
 21
94.27170933848399
 31
0.0
  0
MTEXT
  5
35B
330
33E
100
AcDbEntity
  8
Section Line (ISO)
100
AcDbMText
 10
80.45217746171349
 20
176.4891756759299
 30
0.0
 40
3.050000071525573
 41
0.0
 46
0.0
 71
     7
 72
     1
  1
A
  7
Jardan Text - 3.05mm
 73
     1
 44
1.0
  0
MTEXT
  5
35C
330
33E
100
AcDbEntity
  8
Section Line (ISO)
100
AcDbMText
 10
80.45217746171294
 20
87.72370930081386
 30
0.0
 40
3.050000071525573
 41
0.0
 46
0.0
 71
     7
 72
     1
  1
A
  7
Jardan Text - 3.05mm
 73
     1
 44
1.0
  0
ENDBLK
  5
35D
330
33E
100
AcDbEntity
  8
0
100
AcDbBlockEnd
  0
BLOCK
  5
64D
330
64A
100
AcDbEntity
  8
0
100
AcDbBlockBegin
  2
A$C2b0eaa2d
 70
     0
 10
0.0
 20
0.0
 30
0.0
  3
A$C2b0eaa2d
  1

  0
MTEXT
  5
64B
330
64A
100
AcDbEntity
  8
Text
370
     9
100
AcDbMText
 10
18.99360221875395
 20
58.10510648734998
 30
0.0
 40
160.0842719051806
 41
647.4567212677968
 46
0.0
 71
     7
 72
     1
  1
{\fApercu|b1|i0|c0|p34;\W1.0004;47}
 73
     1
 44
1.0
  0
ENDBLK
  5
64E
330
64A
100
AcDbEntity
  8
0
100
AcDbBlockEnd
  0
BLOCK
  5
795
330
794
100
AcDbEntity
  8
0
100
AcDbBlockBegin
  2
2dDetail0
 70
     0
 10
0.0
 20
0.0
 30
0.0
  3
2dDetail0
  1

  0
MTEXT
  5
796
330
794
100
AcDbEntity
  8
Detail Boundary (ISO)
100
AcDbMText
 10
176.1078605351475
 20
190.6324452151824
 30
0.0
 40
3.050000071525573
 41
0.0
 46
0.0
 71
     7
 72
     1
  1
A
  7
Jardan Text - 3.05mm
 73
     1
 44
1.0
  0
LINE
  5
797
330
794
100
AcDbEntity
  8
Detail Boundary (ISO)
  6
Continuous
100
AcDbLine
 10
181.9070292552731
 20
189.4537459589256
 30
0.0
 11
180.7056376607759
 21
191.6461551900391
 31
0.0
  0
POLYLINE
  5
798
330
794
100
AcDbEntity
  8
Detail Boundary (ISO)
  6
Continuous
100
AcDb2dPolyline
 66
     1
 10
0.0
 20
0.0
 30
0.0
 70
   128
  0
VERTEX
  5
799
330
798
100
AcDbEntity
  8
Detail Boundary (ISO)
  6
Continuous
100
AcDbVertex
100
AcDb2dVertex
 10
182.3455047607422
 20
189.6940231323242
 30
0.0
  0
VERTEX
  5
79A
330
798
100
AcDbEntity
  8
Detail Boundary (ISO)
  6
Continuous
100
AcDbVertex
100
AcDb2dVertex
 10
180.7056427001953
 20
191.6461563110352
 30
0.0
  0
VERTEX
  5
79B
330
798
100
AcDbEntity
  8
Detail Boundary (ISO)
  6
Continuous
100
AcDbVertex
100
AcDb2dVertex
 10
181.4685440063476
 20
189.2134666442871
 30
0.0
  0
VERTEX
  5
79C
330
798
100
AcDbEntity
  8
Detail Boundary (ISO)
  6
Continuous
100
AcDbVertex
100
AcDb2dVertex
 10
182.3455047607422
 20
189.6940231323242
 30
0.0
  0
SEQEND
  5
79D
330
798
100
AcDbEntity
  8
Detail Boundary (ISO)
  6
Continuous
  0
SOLID
  5
79E
330
794
100
AcDbEntity
  8
Detail Boundary (ISO)
100
AcDbTrace
 10
182.3455047607422
 20
189.6940231323242
 30
0.0
 11
180.7056427001953
 21
191.6461563110352
 31
0.0
 12
181.4685440063476
 22
189.2134666442871
 32
0.0
 13
182.3455047607422
 23
189.6940231323242
 33
0.0
  0
LINE
  5
79F
330
794
100
AcDbEntity
  8
Detail Boundary (ISO)
  6
Continuous
100
AcDbLine
 10
182.3455111014958
 20
189.6940242778251
 30
0.0
 11
180.7056376607759
 21
191.6461551900391
 31
0.0
  0
LINE
  5
7A0
330
794
100
AcDbEntity
  8
Detail Boundary (ISO)
  6
Continuous
100
AcDbLine
 10
180.7056376607759
 20
191.6461551900391
 30
0.0
 11
181.4685474090504
 21
189.2134676400262
 31
0.0
  0
LINE
  5
7A1
330
794
100
AcDbEntity
  8
Detail Boundary (ISO)
  6
Continuous
100
AcDbLine
 10
181.4685474090504
 20
189.2134676400262
 30
0.0
 11
182.3455111014958
 21
189.6940242778251
 31
0.0
  0
LINE
  5
7A2
330
794
100
AcDbEntity
  8
Detail Boundary (ISO)
  6
Continuous
100
AcDbLine
 10
172.7812253338961
 20
189.4537459589256
 30
0.0
 11
173.9826169283934
 21
191.6461551900391
 31
0.0
  0
POLYLINE
  5
7A3
330
794
100
AcDbEntity
  8
Detail Boundary (ISO)
  6
Continuous
100
AcDb2dPolyline
 66
     1
 10
0.0
 20
0.0
 30
0.0
 70
   128
  0
VERTEX
  5
7A4
330
7A3
100
AcDbEntity
  8
Detail Boundary (ISO)
  6
Continuous
100
AcDbVertex
100
AcDb2dVertex
 10
173.2196998596191
 20
189.2134666442871
 30
0.0
  0
VERTEX
  5
7A5
330
7A3
100
AcDbEntity
  8
Detail Boundary (ISO)
  6
Continuous
100
AcDbVertex
100
AcDb2dVertex
 10
173.9826202392578
 20
191.6461563110352
 30
0.0
  0
VERTEX
  5
7A6
330
7A3
100
AcDbEntity
  8
Detail Boundary (ISO)
  6
Continuous
100
AcDbVertex
100
AcDb2dVertex
 10
172.3427391052246
 20
189.6940231323242
 30
0.0
  0
VERTEX
  5
7A7
330
7A3
100
AcDbEntity
  8
Detail Boundary (ISO)
  6
Continuous
100
AcDbVertex
100
AcDb2dVertex
 10
173.2196998596191
 20
189.2134666442871
 30
0.0
  0
SEQEND
  5
7A8
330
7A3
100
AcDbEntity
  8
Detail Boundary (ISO)
  6
Continuous
  0
SOLID
  5
7A9
330
794
100
AcDbEntity
  8
Detail Boundary (ISO)
100
AcDbTrace
 10
173.2196998596191
 20
189.2134666442871
 30
0.0
 11
173.9826202392578
 21
191.6461563110352
 31
0.0
 12
172.3427391052246
 22
189.6940231323242
 32
0.0
 13
173.2196998596191
 23
189.2134666442871
 33
0.0
  0
LINE
  5
7AA
330
794
100
AcDbEntity
  8
Detail Boundary (ISO)
  6
Continuous
100
AcDbLine
 10
173.2197071801189
 20
189.2134676400262
 30
0.0
 11
173.9826169283934
 21
191.6461551900391
 31
0.0
  0
LINE
  5
7AB
330
794
100
AcDbEntity
  8
Detail Boundary (ISO)
  6
Continuous
100
AcDbLine
 10
173.9826169283934
 20
191.6461551900391
 30
0.0
 11
172.3427434876735
 21
189.6940242778251
 31
0.0
  0
LINE
  5
7AC
330
794
100
AcDbEntity
  8
Detail Boundary (ISO)
  6
Continuous
100
AcDbLine
 10
172.3427434876735
 20
189.6940242778251
 30
0.0
 11
173.2197071801189
 21
189.2134676400262
 31
0.0
  0
ARC
  5
7AD
330
794
100
AcDbEntity
  8
Detail Boundary (ISO)
100
AcDbCircle
 10
177.3441272945847
 20
186.9533769656323
 30
0.0
 40
5.203068268385176
100
AcDbArc
 50
151.278236783665
 51
28.72176321633532
  0
ENDBLK
  5
7AE
330
794
100
AcDbEntity
  8
0
100
AcDbBlockEnd
  0
BLOCK
  5
7B0
330
7AF
100
AcDbEntity
  8
0
100
AcDbBlockBegin
  2
2dDetail1
 70
     0
 10
0.0
 20
0.0
 30
0.0
  3
2dDetail1
  1

  0
MTEXT
  5
7B1
330
7AF
100
AcDbEntity
  8
Detail Boundary (ISO)
100
AcDbMText
 10
130.8465619258555
 20
191.094677087136
 30
0.0
 40
3.050000071525573
 41
0.0
 46
0.0
 71
     7
 72
     1
  1
B
  7
Jardan Text - 3.05mm
 73
     1
 44
1.0
  0
LINE
  5
7B2
330
7AF
100
AcDbEntity
  8
Detail Boundary (ISO)
  6
Continuous
100
AcDbLine
 10
136.4121637888638
 20
189.8959691171191
 30
0.0
 11
135.1993251573029
 21
192.0820666569818
 31
0.0
  0
POLYLINE
  5
7B3
330
7AF
100
AcDbEntity
  8
Detail Boundary (ISO)
  6
Continuous
100
AcDb2dPolyline
 66
     1
 10
0.0
 20
0.0
 30
0.0
 70
   128
  0
VERTEX
  5
7B4
330
7B3
100
AcDbEntity
  8
Detail Boundary (ISO)
  6
Continuous
100
AcDbVertex
100
AcDb2dVertex
 10
136.8493843078613
 20
190.1385307312011
 30
0.0
  0
VERTEX
  5
7B5
330
7B3
100
AcDbEntity
  8
Detail Boundary (ISO)
  6
Continuous
100
AcDbVertex
100
AcDb2dVertex
 10
135.1993274688719
 20
192.0820617675781
 30
0.0
  0
VERTEX
  5
7B6
330
7B3
100
AcDbEntity
  8
Detail Boundary (ISO)
  6
Continuous
100
AcDbVertex
100
AcDb2dVertex
 10
135.974941253662
 20
189.6533966064453
 30
0.0
  0
VERTEX
  5
7B7
330
7B3
100
AcDbEntity
  8
Detail Boundary (ISO)
  6
Continuous
100
AcDbVertex
100
AcDb2dVertex
 10
136.8493843078613
 20
190.1385307312011
 30
0.0
  0
SEQEND
  5
7B8
330
7B3
100
AcDbEntity
  8
Detail Boundary (ISO)
  6
Continuous
  0
SOLID
  5
7B9
330
7AF
100
AcDbEntity
  8
Detail Boundary (ISO)
100
AcDbTrace
 10
136.8493843078613
 20
190.1385307312011
 30
0.0
 11
135.1993274688719
 21
192.0820617675781
 31
0.0
 12
135.974941253662
 22
189.6533966064453
 32
0.0
 13
136.8493843078613
 23
190.1385307312011
 33
0.0
  0
LINE
  5
7BA
330
7AF
100
AcDbEntity
  8
Detail Boundary (ISO)
  6
Continuous
100
AcDbLine
 10
136.8493832968363
 20
190.1385368434313
 30
0.0
 11
135.1993251573029
 21
192.0820666569818
 31
0.0
  0
LINE
  5
7BB
330
7AF
100
AcDbEntity
  8
Detail Boundary (ISO)
  6
Continuous
100
AcDbLine
 10
135.1993251573029
 20
192.0820666569818
 30
0.0
 11
135.9749442808912
 21
189.653401390807
 31
0.0
  0
LINE
  5
7BC
330
7AF
100
AcDbEntity
  8
Detail Boundary (ISO)
  6
Continuous
100
AcDbLine
 10
135.9749442808912
 20
189.653401390807
 30
0.0
 11
136.8493832968363
 21
190.1385368434313
 31
0.0
  0
LINE
  5
7BD
330
7AF
100
AcDbEntity
  8
Detail Boundary (ISO)
  6
Continuous
100
AcDbLine
 10
127.1637426007553
 20
189.8959691171191
 30
0.0
 11
128.3765812323161
 21
192.0820666569818
 31
0.0
  0
POLYLINE
  5
7BE
330
7AF
100
AcDbEntity
  8
Detail Boundary (ISO)
  6
Continuous
100
AcDb2dPolyline
 66
     1
 10
0.0
 20
0.0
 30
0.0
 70
   128
  0
VERTEX
  5
7BF
330
7BE
100
AcDbEntity
  8
Detail Boundary (ISO)
  6
Continuous
100
AcDbVertex
100
AcDb2dVertex
 10
127.6009654998779
 20
189.6533966064453
 30
0.0
  0
VERTEX
  5
7C0
330
7BE
100
AcDbEntity
  8
Detail Boundary (ISO)
  6
Continuous
100
AcDbVertex
100
AcDb2dVertex
 10
128.3765792846679
 20
192.0820617675781
 30
0.0
  0
VERTEX
  5
7C1
330
7BE
100
AcDbEntity
  8
Detail Boundary (ISO)
  6
Continuous
100
AcDbVertex
100
AcDb2dVertex
 10
126.7265224456787
 20
190.1385307312011
 30
0.0
  0
VERTEX
  5
7C2
330
7BE
100
AcDbEntity
  8
Detail Boundary (ISO)
  6
Continuous
100
AcDbVertex
100
AcDb2dVertex
 10
127.6009654998779
 20
189.6533966064453
 30
0.0
  0
SEQEND
  5
7C3
330
7BE
100
AcDbEntity
  8
Detail Boundary (ISO)
  6
Continuous
  0
SOLID
  5
7C4
330
7AF
100
AcDbEntity
  8
Detail Boundary (ISO)
100
AcDbTrace
 10
127.6009654998779
 20
189.6533966064453
 30
0.0
 11
128.3765792846679
 21
192.0820617675781
 31
0.0
 12
126.7265224456787
 22
190.1385307312011
 32
0.0
 13
127.6009654998779
 23
189.6533966064453
 33
0.0
  0
LINE
  5
7C5
330
7AF
100
AcDbEntity
  8
Detail Boundary (ISO)
  6
Continuous
100
AcDbLine
 10
127.6009621087278
 20
189.653401390807
 30
0.0
 11
128.3765812323161
 21
192.0820666569818
 31
0.0
  0
LINE
  5
7C6
330
7AF
100
AcDbEntity
  8
Detail Boundary (ISO)
  6
Continuous
100
AcDbLine
 10
128.3765812323161
 20
192.0820666569818
 30
0.0
 11
126.7265230927828
 21
190.1385368434313
 31
0.0
  0
LINE
  5
7C7
330
7AF
100
AcDbEntity
  8
Detail Boundary (ISO)
  6
Continuous
100
AcDbLine
 10
126.7265230927828
 20
190.1385368434313
 30
0.0
 11
127.6009621087278
 21
189.653401390807
 31
0.0
  0
ARC
  5
7C8
330
7AF
100
AcDbEntity
  8
Detail Boundary (ISO)
100
AcDbCircle
 10
131.7879531948095
 20
187.3304746015843
 30
0.0
 40
5.288202504386781
100
AcDbArc
 50
150.9786527237472
 51
29.02134727625243
  0
ENDBLK
  5
7C9
330
7AF
100
AcDbEntity
  8
0
100
AcDbBlockEnd
  0
BLOCK
  5
CEF
330
CEE
100
AcDbEntity
  8
0
100
AcDbBlockBegin
  2
*D6
 70
     1
 10
0.0
 20
0.0
 30
0.0
  3
*D6
  1

  0
LINE
  5
CF0
330
CEE
100
AcDbEntity
  8
0
 62
     0
440
 16777216
370
    -2
100
AcDbLine
 10
8542.763272500755
 20
214.8782698371915
 30
0.0
 11
8542.763272500755
 21
122.4275397288077
 31
0.0
  0
LINE
  5
CF1
330
CEE
100
AcDbEntity
  8
0
 62
     0
440
 16777216
370
    -2
100
AcDbLine
 10
10196.76327250075
 20
214.8782698371933
 30
0.0
 11
10196.76327250075
 21
122.4275397288077
 31
0.0
  0
LINE
  5
CF2
330
CEE
100
AcDbEntity
  8
0
 62
     0
440
 16777216
370
    -2
100
AcDbLine
 10
8542.943272500755
 20
122.6075397288077
 30
0.0
 11
9369.098647671288
 21
122.6075397288077
 31
0.0
  0
LINE
  5
CF3
330
CEE
100
AcDbEntity
  8
0
 62
     0
440
 16777216
370
    -2
100
AcDbLine
 10
10196.58327250075
 20
122.6075397288077
 30
0.0
 11
9370.427897330221
 21
122.6075397288077
 31
0.0
  0
SOLID
  5
CF4
330
CEE
100
AcDbEntity
  8
0
 62
     0
440
 16777216
100
AcDbTrace
 10
8542.943272500755
 20
122.6375397288077
 30
0.0
 11
8542.943272500755
 21
122.5775397288077
 31
0.0
 12
8542.763272500755
 22
122.6075397288077
 32
0.0
 13
8542.763272500755
 23
122.6075397288077
 33
0.0
  0
SOLID
  5
CF5
330
CEE
100
AcDbEntity
  8
0
 62
     0
440
 16777216
100
AcDbTrace
 10
10196.58327250075
 20
122.6375397288077
 30
0.0
 11
10196.58327250075
 21
122.5775397288077
 31
0.0
 12
10196.76327250075
 22
122.6075397288077
 32
0.0
 13
10196.76327250075
 23
122.6075397288077
 33
0.0
  0
MTEXT
  5
CF6
330
CEE
100
AcDbEntity
  8
0
 62
     0
440
 16777216
100
AcDbMText
 10
9369.763272500755
 20
122.6075397288077
 30
0.0
 40
0.18
 41
0.0
 46
0.0
 71
     5
 72
     1
  1
\A1;1654.0000
 73
     1
 44
1.0
  0
POINT
  5
CF7
330
CEE
100
AcDbEntity
  8
Defpoints
 62
     0
440
 16777216
100
AcDbPoint
 10
8542.763272500755
 20
214.9407698371915
 30
0.0
  0
POINT
  5
CF8
330
CEE
100
AcDbEntity
  8
Defpoints
 62
     0
440
 16777216
100
AcDbPoint
 10
10196.76327250075
 20
214.9407698371933
 30
0.0
  0
POINT
  5
CF9
330
CEE
100
AcDbEntity
  8
Defpoints
 62
     0
440
 16777216
100
AcDbPoint
 10
10196.76327250075
 20
122.6075397288077
 30
0.0
  0
ENDBLK
  5
CFA
330
CEE
100
AcDbEntity
  8
0
100
AcDbBlockEnd
  0
BLOCK
  5
CFE
330
CFB
100
AcDbEntity
  8
0
100
AcDbBlockBegin
  2
A$C6bd01ab3
 70
     0
 10
0.0
 20
0.0
 30
0.0
  3
A$C6bd01ab3
  1

  0
DIMENSION
  5
CFC
330
CFB
100
AcDbEntity
  8
0
100
AcDbDimension
280
     0
  2
*D6
 10
1654.000000000004
 20
0.1800000000000068
 30
0.0
 11
827.0000000000019
 21
0.1800000000000068
 31
0.0
 12
-8542.763272500755
 22
-122.4275397288077
 32
0.0
 70
   160
 71
     5
 42
1654.000000000004
 73
     0
 74
     0
 75
     0
  3
Standard
100
AcDbAlignedDimension
 13
0.0
 23
92.51323010838376
 33
0.0
 14
1654.000000000004
 24
92.51323010838559
 34
0.0
100
AcDbRotatedDimension
  0
ENDBLK
  5
CFF
330
CFB
100
AcDbEntity
  8
0
100
AcDbBlockEnd
  0
ENDSEC
  0
SECTION
  2
ENTITIES
  0
MTEXT
  5
245
330
1F
100
AcDbEntity
  8
Text
370
     9
100
AcDbMText
 10
6161.16242591693
 20
7436.583861805338
 30
0.0
 40
180.3840308053828
 41
0.0
 46
183.3371118008324
 71
     7
 72
     1
  1
Bedside Table
 73
     1
 44
1.0
  0
POLYLINE
  5
246
330
1F
100
AcDbEntity
  8
Text
370
     9
100
AcDb2dPolyline
 66
     1
 10
0.0
 20
0.0
 30
0.0
  0
VERTEX
  5
247
330
246
100
AcDbEntity
  8
Text
370
     9
100
AcDbVertex
100
AcDb2dVertex
 10
6161.162425916927
 20
8045.116886821569
 30
0.0
  0
VERTEX
  5
248
330
246
100
AcDbEntity
  8
Text
370
     9
100
AcDbVertex
100
AcDb2dVertex
 10
26666.63105892417
 20
8045.116886821569
 30
0.0
  0
SEQEND
  5
249
330
246
100
AcDbEntity
  8
Text
370
     9
  0
TEXT
  5
24A
330
1F
100
AcDbEntity
  8
Text
370
     9
100
AcDbText
 10
6161.16242591693
 20
9793.867466548146
 30
0.0
 40
192.6907499518273
  1
OLIVE
 41
1.000399999999999
100
AcDbText
  0
TEXT
  5
24B
330
1F
100
AcDbEntity
  8
Text
370
     9
100
AcDbText
 10
6161.16242591693
 20
9191.244498192936
 30
0.0
 40
192.6907499518273
  1
—
 41
1.000399999999999
100
AcDbText
  0
TEXT
  5
24C
330
1F
100
AcDbEntity
  8
Text
370
     9
100
AcDbText
 10
6161.16242591693
 20
8516.273982314473
 30
0.0
 40
233.9816249415046
  1
DIMENSIONS
 41
1.000399999999999
100
AcDbText
  0
MTEXT
  5
24D
330
1F
100
AcDbEntity
  8
Text
370
     9
100
AcDbMText
 10
9156.649904325281
 20
6277.615604301594
 30
0.0
 40
160.0842719051806
 41
647.4567212677968
 46
0.0
 71
     7
 72
     1
  1
{\fApercu|b1|i0|c0|p34;\W1.0004;55}
 73
     1
 44
1.0
  0
ARC
  5
3FE
330
1F
100
AcDbEntity
  8
Visible (ISO)
100
AcDbCircle
 10
8532.470028974247
 20
6568.900941505006
 30
0.0
 40
6.000000000000013
100
AcDbArc
 50
0.0
 51
90.0
  0
LINE
  5
3FF
330
1F
100
AcDbEntity
  8
Visible (ISO)
100
AcDbLine
 10
8532.470028974247
 20
6574.900941505006
 30
0.0
 11
8531.470028974247
 21
6574.900941505006
 31
0.0
  0
ARC
  5
400
330
1F
100
AcDbEntity
  8
Visible (ISO)
100
AcDbCircle
 10
8531.470028974247
 20
6549.900941505007
 30
0.0
 40
25.0
100
AcDbArc
 50
90.0
 51
180.0
  0
LINE
  5
401
330
1F
100
AcDbEntity
  8
Visible (ISO)
100
AcDbLine
 10
8506.470028974247
 20
6549.900941505007
 30
0.0
 11
8506.470028974245
 21
6070.900941505006
 31
0.0
  0
ARC
  5
402
330
1F
100
AcDbEntity
  8
Visible (ISO)
100
AcDbCircle
 10
8521.470028974245
 20
6070.900941505006
 30
0.0
 40
14.99999999999998
100
AcDbArc
 50
180.0
 51
270.0
  0
LINE
  5
403
330
1F
100
AcDbEntity
  8
Visible (ISO)
100
AcDbLine
 10
8521.470028974245
 20
6055.900941505006
 30
0.0
 11
8523.470028974244
 21
6055.900941505006
 31
0.0
  0
ARC
  5
404
330
1F
100
AcDbEntity
  8
Visible (ISO)
100
AcDbCircle
 10
8523.470028974244
 20
6070.900941505006
 30
0.0
 40
14.99999999999996
100
AcDbArc
 50
270.0
 51
0.0
  0
LINE
  5
405
330
1F
100
AcDbEntity
  8
Visible (ISO)
100
AcDbLine
 10
8538.470028974245
 20
6070.900941505006
 30
0.0
 11
8538.470028974247
 21
6568.900941505006
 31
0.0
  0
ARC
  5
406
330
1F
100
AcDbEntity
  8
Visible (ISO)
100
AcDbCircle
 10
8980.470028974249
 20
6568.900941505006
 30
0.0
 40
5.999999999999959
100
AcDbArc
 50
90.0
 51
180.0
  0
LINE
  5
407
330
1F
100
AcDbEntity
  8
Visible (ISO)
100
AcDbLine
 10
8981.470028974248
 20
6574.900941505005
 30
0.0
 11
8980.470028974249
 21
6574.900941505005
 31
0.0
  0
ARC
  5
408
330
1F
100
AcDbEntity
  8
Visible (ISO)
100
AcDbCircle
 10
8991.470028974251
 20
6070.900941505007
 30
0.0
 40
15.00000000000001
100
AcDbArc
 50
270.0
 51
0.0
  0
LINE
  5
409
330
1F
100
AcDbEntity
  8
Visible (ISO)
100
AcDbLine
 10
9006.47002897425
 20
6070.900941505007
 30
0.0
 11
9006.470028974248
 21
6549.900941505005
 31
0.0
  0
ARC
  5
40A
330
1F
100
AcDbEntity
  8
Visible (ISO)
100
AcDbCircle
 10
8981.470028974248
 20
6549.900941505005
 30
0.0
 40
25.00000000000007
100
AcDbArc
 50
0.0
 51
90.0
  0
LINE
  5
40B
330
1F
100
AcDbEntity
  8
Visible (ISO)
100
AcDbLine
 10
8989.470028974249
 20
6055.900941505007
 30
0.0
 11
8991.470028974251
 21
6055.900941505007
 31
0.0
  0
ARC
  5
40C
330
1F
100
AcDbEntity
  8
Visible (ISO)
100
AcDbCircle
 10
8989.470028974249
 20
6070.900941505007
 30
0.0
 40
15.00000000000002
100
AcDbArc
 50
180.0
 51
270.0
  0
LINE
  5
40D
330
1F
100
AcDbEntity
  8
Visible (ISO)
100
AcDbLine
 10
8974.470028974248
 20
6568.900941505006
 30
0.0
 11
8974.470028974248
 21
6070.900941505007
 31
0.0
  0
ARC
  5
40E
330
1F
100
AcDbEntity
  8
Visible (ISO)
100
AcDbCircle
 10
8538.470028974247
 20
6580.900941505007
 30
0.0
 40
6.000000000000083
100
AcDbArc
 50
180.0
 51
270.0
  0
LINE
  5
40F
330
1F
100
AcDbEntity
  8
Visible (ISO)
100
AcDbLine
 10
8538.470028974247
 20
6574.900941505006
 30
0.0
 11
8974.470028974248
 21
6574.900941505004
 31
0.0
  0
ARC
  5
410
330
1F
100
AcDbEntity
  8
Visible (ISO)
100
AcDbCircle
 10
8974.470028974248
 20
6580.900941505004
 30
0.0
 40
5.99999999999999
100
AcDbArc
 50
270.0
 51
0.0
  0
LINE
  5
411
330
1F
100
AcDbEntity
  8
Visible (ISO)
100
AcDbLine
 10
8980.470028974249
 20
6580.900941505004
 30
0.0
 11
8980.470028974249
 21
6581.900941505004
 31
0.0
  0
LINE
  5
412
330
1F
100
AcDbEntity
  8
Visible (ISO)
100
AcDbLine
 10
8532.470028974247
 20
6581.900941505008
 30
0.0
 11
8532.470028974247
 21
6580.900941505007
 31
0.0
  0
ARC
  5
413
330
1F
100
AcDbEntity
  8
Visible (ISO)
100
AcDbCircle
 10
8557.470028974247
 20
6581.900941505008
 30
0.0
 40
25.00000000000019
100
AcDbArc
 50
90.0
 51
180.0
  0
LINE
  5
414
330
1F
100
AcDbEntity
  8
Visible (ISO)
100
AcDbLine
 10
8955.470028974248
 20
6606.900941505005
 30
0.0
 11
8557.470028974249
 21
6606.900941505007
 31
0.0
  0
ARC
  5
415
330
1F
100
AcDbEntity
  8
Visible (ISO)
100
AcDbCircle
 10
8955.470028974248
 20
6581.900941505004
 30
0.0
 40
25.00000000000019
100
AcDbArc
 50
0.0
 51
90.0
  0
ARC
  5
416
330
1F
100
AcDbEntity
  8
Visible (ISO)
100
AcDbCircle
 10
8965.970028974247
 20
6423.900941504993
 30
0.0
 40
5.999999999999976
100
AcDbArc
 50
270.0
 51
0.0
  0
LINE
  5
417
330
1F
100
AcDbEntity
  8
Visible (ISO)
100
AcDbLine
 10
8971.970028974247
 20
6442.900941504992
 30
0.0
 11
8971.970028974247
 21
6423.900941504993
 31
0.0
  0
LINE
  5
418
330
1F
100
AcDbEntity
  8
Visible (ISO)
100
AcDbLine
 10
8971.970028974247
 20
6442.900941504992
 30
0.0
 11
8971.970028974249
 21
6547.900941504991
 31
0.0
  0
ARC
  5
419
330
1F
100
AcDbEntity
  8
Visible (ISO)
100
AcDbCircle
 10
8965.970028974249
 20
6566.900941504993
 30
0.0
 40
5.999999999999976
100
AcDbArc
 50
0.0
 51
90.0
  0
LINE
  5
41A
330
1F
100
AcDbEntity
  8
Visible (ISO)
100
AcDbLine
 10
8971.970028974249
 20
6566.900941504993
 30
0.0
 11
8971.970028974249
 21
6547.900941504991
 31
0.0
  0
ARC
  5
41B
330
1F
100
AcDbEntity
  8
Visible (ISO)
100
AcDbCircle
 10
8546.970028974248
 20
6566.900941504996
 30
0.0
 40
5.999999999999976
100
AcDbArc
 50
90.0
 51
180.0
  0
LINE
  5
41C
330
1F
100
AcDbEntity
  8
Visible (ISO)
100
AcDbLine
 10
8540.970028974248
 20
6547.900941504995
 30
0.0
 11
8540.970028974248
 21
6566.900941504996
 31
0.0
  0
LINE
  5
41D
330
1F
100
AcDbEntity
  8
Visible (ISO)
100
AcDbLine
 10
8540.970028974248
 20
6547.900941504995
 30
0.0
 11
8540.970028974248
 21
6442.900941504994
 31
0.0
  0
ARC
  5
41E
330
1F
100
AcDbEntity
  8
Visible (ISO)
100
AcDbCircle
 10
8546.970028974248
 20
6423.900941504995
 30
0.0
 40
6.000000000000082
100
AcDbArc
 50
180.0
 51
270.0
  0
LINE
  5
41F
330
1F
100
AcDbEntity
  8
Visible (ISO)
100
AcDbLine
 10
8540.970028974248
 20
6423.900941504995
 30
0.0
 11
8540.970028974248
 21
6442.900941504994
 31
0.0
  0
LINE
  5
420
330
1F
100
AcDbEntity
  8
Visible (ISO)
100
AcDbLine
 10
8546.970028974248
 20
6417.900941504995
 30
0.0
 11
8965.970028974247
 21
6417.900941504993
 31
0.0
  0
LINE
  5
421
330
1F
100
AcDbEntity
  8
Visible (ISO)
100
AcDbLine
 10
8965.970028974249
 20
6572.900941504993
 30
0.0
 11
8546.970028974248
 21
6572.900941504996
 31
0.0
  0
ARC
  5
422
330
1F
100
AcDbEntity
  8
Visible (ISO)
100
AcDbCircle
 10
8965.970028974245
 20
6131.900941504992
 30
0.0
 40
6.000000000000014
100
AcDbArc
 50
270.0
 51
0.0
  0
LINE
  5
423
330
1F
100
AcDbEntity
  8
Visible (ISO)
100
AcDbLine
 10
8971.970028974245
 20
6150.900941504993
 30
0.0
 11
8971.970028974245
 21
6131.900941504992
 31
0.0
  0
LINE
  5
424
330
1F
100
AcDbEntity
  8
Visible (ISO)
100
AcDbLine
 10
8971.970028974245
 20
6150.900941504993
 30
0.0
 11
8971.970028974247
 21
6390.900941504992
 31
0.0
  0
ARC
  5
425
330
1F
100
AcDbEntity
  8
Visible (ISO)
100
AcDbCircle
 10
8965.970028974247
 20
6409.900941504993
 30
0.0
 40
6.000000000000051
100
AcDbArc
 50
0.0
 51
90.0
  0
LINE
  5
426
330
1F
100
AcDbEntity
  8
Visible (ISO)
100
AcDbLine
 10
8971.970028974247
 20
6409.900941504993
 30
0.0
 11
8971.970028974247
 21
6390.900941504992
 31
0.0
  0
ARC
  5
427
330
1F
100
AcDbEntity
  8
Visible (ISO)
100
AcDbCircle
 10
8546.970028974248
 20
6409.900941504995
 30
0.0
 40
5.999999999999978
100
AcDbArc
 50
90.0
 51
180.0
  0
LINE
  5
428
330
1F
100
AcDbEntity
  8
Visible (ISO)
100
AcDbLine
 10
8540.970028974248
 20
6390.900941504995
 30
0.0
 11
8540.970028974248
 21
6409.900941504995
 31
0.0
  0
LINE
  5
429
330
1F
100
AcDbEntity
  8
Visible (ISO)
100
AcDbLine
 10
8540.970028974248
 20
6390.900941504995
 30
0.0
 11
8540.970028974244
 21
6150.900941504995
 31
0.0
  0
ARC
  5
42A
330
1F
100
AcDbEntity
  8
Visible (ISO)
100
AcDbCircle
 10
8546.970028974245
 20
6131.900941504994
 30
0.0
 40
6.000000000000051
100
AcDbArc
 50
180.0
 51
270.0
  0
LINE
  5
42B
330
1F
100
AcDbEntity
  8
Visible (ISO)
100
AcDbLine
 10
8540.970028974244
 20
6131.900941504994
 30
0.0
 11
8540.970028974244
 21
6150.900941504995
 31
0.0
  0
LINE
  5
42C
330
1F
100
AcDbEntity
  8
Visible (ISO)
100
AcDbLine
 10
8546.970028974245
 20
6125.900941504995
 30
0.0
 11
8965.970028974245
 21
6125.900941504993
 31
0.0
  0
LINE
  5
42D
330
1F
100
AcDbEntity
  8
Visible (ISO)
100
AcDbLine
 10
8965.970028974247
 20
6415.900941504993
 30
0.0
 11
8546.970028974248
 21
6415.900941504995
 31
0.0
  0
LINE
  5
42E
330
1F
100
AcDbEntity
  8
Visible (ISO)
100
AcDbLine
 10
8542.484760387727
 20
6570.886210091526
 30
0.0
 11
8538.470028974247
 21
6574.900941505006
 31
0.0
  0
LINE
  5
42F
330
1F
100
AcDbEntity
  8
Visible (ISO)
100
AcDbLine
 10
8974.470028974248
 20
6574.900941505004
 30
0.0
 11
8970.455297560768
 21
6570.886210091524
 31
0.0
  0
LINE
  5
430
330
1F
100
AcDbEntity
  8
Visible (ISO)
100
AcDbLine
 10
8540.970028974243
 20
6138.400941504994
 30
0.0
 11
8538.470028974245
 21
6135.900941504996
 31
0.0
  0
LINE
  5
431
330
1F
100
AcDbEntity
  8
Visible (ISO)
100
AcDbLine
 10
8974.470028974248
 20
6135.900941504996
 30
0.0
 11
8971.970028974247
 21
6138.400941504998
 31
0.0
  0
LINE
  5
432
330
1F
100
AcDbEntity
  8
Visible (ISO)
100
AcDbLine
 10
8974.470028974248
 20
6135.900941504996
 30
0.0
 11
8971.970028974247
 21
6135.900941504996
 31
0.0
  0
LINE
  5
433
330
1F
100
AcDbEntity
  8
Visible (ISO)
100
AcDbLine
 10
8540.970028974243
 20
6135.900941504996
 30
0.0
 11
8538.470028974245
 21
6135.900941504996
 31
0.0
  0
LINE
  5
434
330
1F
100
AcDbEntity
  8
Visible (ISO)
100
AcDbLine
 10
8540.970028974244
 20
6138.400941504997
 30
0.0
 11
8538.470028974245
 21
6135.900941504996
 31
0.0
  0
LINE
  5
435
330
1F
100
AcDbEntity
  8
Visible (ISO)
100
AcDbLine
 10
8538.470028974247
 20
6574.900941505001
 30
0.0
 11
8542.484760387724
 21
6570.886210091524
 31
0.0
  0
LINE
  5
436
330
1F
100
AcDbEntity
  8
Visible (ISO)
100
AcDbLine
 10
8538.470028974247
 20
6568.90094150501
 30
0.0
 11
8538.470028974247
 21
6574.900941505001
 31
0.0
  0
LINE
  5
437
330
1F
100
AcDbEntity
  8
Visible (ISO)
100
AcDbLine
 10
8555.470028974246
 20
6415.900941504997
 30
0.0
 11
8555.470028974246
 21
6417.900941504996
 31
0.0
  0
LINE
  5
438
330
1F
100
AcDbEntity
  8
Visible (ISO)
100
AcDbLine
 10
8970.455297560771
 20
6570.886210091519
 30
0.0
 11
8974.470028974248
 21
6574.900941504997
 31
0.0
  0
LINE
  5
439
330
1F
100
AcDbEntity
  8
Visible (ISO)
100
AcDbLine
 10
8974.470028974248
 20
6135.900941504996
 30
0.0
 11
8971.970028974245
 21
6138.400941505
 31
0.0
  0
LINE
  5
43A
330
1F
100
AcDbEntity
  8
Visible (ISO)
100
AcDbLine
 10
8957.470028974249
 20
6417.900941504993
 30
0.0
 11
8957.470028974249
 21
6415.900941504993
 31
0.0
  0
LINE
  5
43B
330
1F
100
AcDbEntity
  8
Visible (ISO)
100
AcDbLine
 10
8974.470028974248
 20
6574.900941504997
 30
0.0
 11
8974.470028974248
 21
6568.900941505006
 31
0.0
  0
ARC
  5
458
330
1F
100
AcDbEntity
  8
Visible (ISO)
100
AcDbCircle
 10
13568.4131069887
 20
6535.663313061632
 30
0.0
 40
6.000000000000195
100
AcDbArc
 50
60.00000000000005
 51
90.0
  0
ARC
  5
459
330
1F
100
AcDbEntity
  8
Visible (ISO)
100
AcDbCircle
 10
13568.4131069887
 20
6097.663313061631
 30
0.0
 40
5.999999999999693
100
AcDbArc
 50
270.0
 51
300.0
  0
LINE
  5
45A
330
1F
100
AcDbEntity
  8
Visible (ISO)
100
AcDbLine
 10
13567.4131069887
 20
6091.663313061633
 30
0.0
 11
13568.4131069887
 21
6091.663313061633
 31
0.0
  0
LINE
  5
45B
330
1F
100
AcDbEntity
  8
Visible (ISO)
100
AcDbLine
 10
13568.4131069887
 20
6541.663313061633
 30
0.0
 11
13567.4131069887
 21
6541.663313061633
 31
0.0
  0
ARC
  5
45C
330
1F
100
AcDbEntity
  8
Visible (ISO)
100
AcDbCircle
 10
13548.4131069887
 20
6097.663313061627
 30
0.0
 40
6.00000000000004
100
AcDbArc
 50
180.0
 51
270.0
  0
LINE
  5
45D
330
1F
100
AcDbEntity
  8
Visible (ISO)
100
AcDbLine
 10
13567.4131069887
 20
6091.663313061633
 30
0.0
 11
13548.4131069887
 21
6091.663313061626
 31
0.0
  0
ARC
  5
45E
330
1F
100
AcDbEntity
  8
Visible (ISO)
100
AcDbCircle
 10
13548.4131069887
 20
6535.663313061625
 30
0.0
 40
6.000000000000083
100
AcDbArc
 50
90.0
 51
180.0
  0
LINE
  5
45F
330
1F
100
AcDbEntity
  8
Visible (ISO)
100
AcDbLine
 10
13548.4131069887
 20
6541.663313061626
 30
0.0
 11
13567.4131069887
 21
6541.663313061633
 31
0.0
  0
LINE
  5
460
330
1F
100
AcDbEntity
  8
Visible (ISO)
100
AcDbLine
 10
13542.4131069887
 20
6535.663313061625
 30
0.0
 11
13542.4131069887
 21
6097.663313061627
 31
0.0
  0
ARC
  5
461
330
1F
100
AcDbEntity
  8
Visible (ISO)
100
AcDbCircle
 10
14016.4131069887
 20
6097.663313061631
 30
0.0
 40
5.999999999999491
100
AcDbArc
 50
240.0
 51
270.0
  0
ARC
  5
462
330
1F
100
AcDbEntity
  8
Visible (ISO)
100
AcDbCircle
 10
14016.4131069887
 20
6535.663313061632
 30
0.0
 40
5.999999999999853
100
AcDbArc
 50
90.0
 51
119.9999999999999
  0
LINE
  5
463
330
1F
100
AcDbEntity
  8
Visible (ISO)
100
AcDbLine
 10
14017.4131069887
 20
6541.66331306163
 30
0.0
 11
14016.4131069887
 21
6541.66331306163
 31
0.0
  0
LINE
  5
464
330
1F
100
AcDbEntity
  8
Visible (ISO)
100
AcDbLine
 10
14016.4131069887
 20
6091.663313061633
 30
0.0
 11
14017.4131069887
 21
6091.663313061633
 31
0.0
  0
ARC
  5
465
330
1F
100
AcDbEntity
  8
Visible (ISO)
100
AcDbCircle
 10
14036.4131069887
 20
6535.663313061625
 30
0.0
 40
6.000000000000058
100
AcDbArc
 50
0.0
 51
90.0
  0
LINE
  5
466
330
1F
100
AcDbEntity
  8
Visible (ISO)
100
AcDbLine
 10
14017.4131069887
 20
6541.66331306163
 30
0.0
 11
14036.4131069887
 21
6541.663313061623
 31
0.0
  0
ARC
  5
467
330
1F
100
AcDbEntity
  8
Visible (ISO)
100
AcDbCircle
 10
14036.4131069887
 20
6097.663313061627
 30
0.0
 40
6.000000000000102
100
AcDbArc
 50
270.0
 51
0.0
  0
LINE
  5
468
330
1F
100
AcDbEntity
  8
Visible (ISO)
100
AcDbLine
 10
14036.4131069887
 20
6091.663313061626
 30
0.0
 11
14017.4131069887
 21
6091.663313061633
 31
0.0
  0
LINE
  5
469
330
1F
100
AcDbEntity
  8
Visible (ISO)
100
AcDbLine
 10
14042.4131069887
 20
6097.663313061627
 30
0.0
 11
14042.4131069887
 21
6535.663313061625
 31
0.0
  0
ARC
  5
46A
330
1F
100
AcDbEntity
  8
Visible (ISO)
100
AcDbCircle
 10
14010.4131069887
 20
6097.663313061636
 30
0.0
 40
6.000000000000142
100
AcDbArc
 50
270.0
 51
0.0
  0
ARC
  5
46B
330
1F
100
AcDbEntity
  8
Visible (ISO)
100
AcDbCircle
 10
14010.4131069887
 20
6535.663313061639
 30
0.0
 40
6.000000000000034
100
AcDbArc
 50
0.0
 51
90.0
  0
LINE
  5
46C
330
1F
100
AcDbEntity
  8
Visible (ISO)
100
AcDbLine
 10
13574.4131069887
 20
6541.663313061637
 30
0.0
 11
13593.4131069887
 21
6541.663313061643
 31
0.0
  0
LINE
  5
46D
330
1F
100
AcDbEntity
  8
Visible (ISO)
100
AcDbLine
 10
13991.4131069887
 20
6541.663313061644
 30
0.0
 11
13593.4131069887
 21
6541.663313061643
 31
0.0
  0
LINE
  5
46E
330
1F
100
AcDbEntity
  8
Visible (ISO)
100
AcDbLine
 10
13991.4131069887
 20
6541.663313061644
 30
0.0
 11
14010.4131069887
 21
6541.663313061639
 31
0.0
  0
ARC
  5
46F
330
1F
100
AcDbEntity
  8
Visible (ISO)
100
AcDbCircle
 10
13574.4131069887
 20
6097.663313061636
 30
0.0
 40
5.999999999999927
100
AcDbArc
 50
180.0
 51
270.0
  0
LINE
  5
470
330
1F
100
AcDbEntity
  8
Visible (ISO)
100
AcDbLine
 10
13593.4131069887
 20
6091.663313061643
 30
0.0
 11
13574.4131069887
 21
6091.663313061637
 31
0.0
  0
LINE
  5
471
330
1F
100
AcDbEntity
  8
Visible (ISO)
100
AcDbLine
 10
13593.4131069887
 20
6091.663313061643
 30
0.0
 11
13991.4131069887
 21
6091.663313061643
 31
0.0
  0
LINE
  5
472
330
1F
100
AcDbEntity
  8
Visible (ISO)
100
AcDbLine
 10
14010.4131069887
 20
6091.663313061637
 30
0.0
 11
13991.4131069887
 21
6091.663313061643
 31
0.0
  0
ARC
  5
473
330
1F
100
AcDbEntity
  8
Visible (ISO)
100
AcDbCircle
 10
13574.4131069887
 20
6535.663313061637
 30
0.0
 40
6.000000000000104
100
AcDbArc
 50
90.0
 51
180.0
  0
LINE
  5
474
330
1F
100
AcDbEntity
  8
Visible (ISO)
100
AcDbLine
 10
14016.4131069887
 20
6097.663313061636
 30
0.0
 11
14016.4131069887
 21
6535.663313061639
 31
0.0
  0
LINE
  5
475
330
1F
100
AcDbEntity
  8
Visible (ISO)
100
AcDbLine
 10
13568.4131069887
 20
6535.663313061637
 30
0.0
 11
13568.4131069887
 21
6097.663313061636
 31
0.0
  0
ARC
  5
476
330
1F
100
AcDbEntity
  8
Visible (ISO)
100
AcDbCircle
 10
14001.9131069887
 20
6073.663313061615
 30
0.0
 40
5.999999999999976
100
AcDbArc
 50
270.0
 51
0.0
  0
LINE
  5
477
330
1F
100
AcDbEntity
  8
Visible (ISO)
100
AcDbLine
 10
14007.9131069887
 20
6091.663313061633
 30
0.0
 11
14007.9131069887
 21
6073.663313061615
 31
0.0
  0
ARC
  5
478
330
1F
100
AcDbEntity
  8
Visible (ISO)
100
AcDbCircle
 10
13582.9131069887
 20
6073.663313061616
 30
0.0
 40
5.999999999999976
100
AcDbArc
 50
180.0
 51
270.0
  0
LINE
  5
479
330
1F
100
AcDbEntity
  8
Visible (ISO)
100
AcDbLine
 10
13576.9131069887
 20
6073.663313061616
 30
0.0
 11
13576.9131069887
 21
6091.663313061633
 31
0.0
  0
LINE
  5
47A
330
1F
100
AcDbEntity
  8
Visible (ISO)
100
AcDbLine
 10
13582.9131069887
 20
6067.663313061617
 30
0.0
 11
14001.9131069887
 21
6067.663313061615
 31
0.0
  0
ARC
  5
62C
330
1F
100
AcDbEntity
  8
Visible (ISO)
100
AcDbCircle
 10
10589.62187781573
 20
6583.900941504992
 30
0.0
 40
5.999999999999927
100
AcDbArc
 50
0.0
 51
90.0
  0
ARC
  5
62D
330
1F
100
AcDbEntity
  8
Visible (ISO)
100
AcDbCircle
 10
10151.62187781573
 20
6583.900941505006
 30
0.0
 40
5.999999999999999
100
AcDbArc
 50
90.0
 51
180.0
  0
LINE
  5
62E
330
1F
100
AcDbEntity
  8
Visible (ISO)
100
AcDbLine
 10
10595.62187781573
 20
6583.900941504992
 30
0.0
 11
10595.62187781574
 21
6564.900941504993
 31
0.0
  0
LINE
  5
62F
330
1F
100
AcDbEntity
  8
Visible (ISO)
100
AcDbLine
 10
10595.62187781572
 20
6085.900941504995
 30
0.0
 11
10595.62187781574
 21
6564.900941504993
 31
0.0
  0
ARC
  5
630
330
1F
100
AcDbEntity
  8
Visible (ISO)
100
AcDbCircle
 10
10589.62187781572
 20
6076.900941504995
 30
0.0
 40
5.999999999999892
100
AcDbArc
 50
270.0
 51
0.0
  0
LINE
  5
631
330
1F
100
AcDbEntity
  8
Visible (ISO)
100
AcDbLine
 10
10595.62187781572
 20
6085.900941504995
 30
0.0
 11
10595.62187781572
 21
6076.900941504995
 31
0.0
  0
LINE
  5
632
330
1F
100
AcDbEntity
  8
Visible (ISO)
100
AcDbLine
 10
10145.62187781574
 20
6564.900941505006
 30
0.0
 11
10145.62187781573
 21
6583.900941505006
 31
0.0
  0
LINE
  5
633
330
1F
100
AcDbEntity
  8
Visible (ISO)
100
AcDbLine
 10
10145.62187781574
 20
6564.900941505006
 30
0.0
 11
10145.62187781572
 21
6085.900941505006
 31
0.0
  0
ARC
  5
634
330
1F
100
AcDbEntity
  8
Visible (ISO)
100
AcDbCircle
 10
10151.62187781572
 20
6076.900941505008
 30
0.0
 40
6.000000000000103
100
AcDbArc
 50
180.0
 51
270.0
  0
LINE
  5
635
330
1F
100
AcDbEntity
  8
Visible (ISO)
100
AcDbLine
 10
10145.62187781572
 20
6076.900941505008
 30
0.0
 11
10145.62187781572
 21
6085.900941505006
 31
0.0
  0
LINE
  5
636
330
1F
100
AcDbEntity
  8
Visible (ISO)
100
AcDbLine
 10
10589.62187781573
 20
6589.900941504993
 30
0.0
 11
10151.62187781573
 21
6589.900941505006
 31
0.0
  0
LINE
  5
637
330
1F
100
AcDbEntity
  8
Visible (ISO)
100
AcDbLine
 10
10151.62187781572
 20
6070.900941505007
 30
0.0
 11
10589.62187781572
 21
6070.900941504994
 31
0.0
  0
ARC
  5
638
330
1F
100
AcDbEntity
  8
Visible (ISO)
100
AcDbCircle
 10
10151.62187781573
 20
6595.900941505004
 30
0.0
 40
6.000000000000083
100
AcDbArc
 50
180.0
 51
270.0
  0
ARC
  5
639
330
1F
100
AcDbEntity
  8
Visible (ISO)
100
AcDbCircle
 10
10589.62187781573
 20
6595.900941504992
 30
0.0
 40
6.000000000000059
100
AcDbArc
 50
270.0
 51
0.0
  0
LINE
  5
63A
330
1F
100
AcDbEntity
  8
Visible (ISO)
100
AcDbLine
 10
10145.62187781573
 20
6596.900941505004
 30
0.0
 11
10145.62187781573
 21
6595.900941505004
 31
0.0
  0
LINE
  5
63B
330
1F
100
AcDbEntity
  8
Visible (ISO)
100
AcDbLine
 10
10595.62187781573
 20
6595.900941504992
 30
0.0
 11
10595.62187781573
 21
6596.900941504991
 31
0.0
  0
LINE
  5
63C
330
1F
100
AcDbEntity
  8
Visible (ISO)
100
AcDbLine
 10
10595.62187781573
 20
6615.900941504991
 30
0.0
 11
10595.62187781573
 21
6596.900941504991
 31
0.0
  0
ARC
  5
63D
330
1F
100
AcDbEntity
  8
Visible (ISO)
100
AcDbCircle
 10
10151.62187781573
 20
6615.900941505003
 30
0.0
 40
6.000000000000059
100
AcDbArc
 50
90.0
 51
180.0
  0
LINE
  5
63E
330
1F
100
AcDbEntity
  8
Visible (ISO)
100
AcDbLine
 10
10145.62187781573
 20
6596.900941505004
 30
0.0
 11
10145.62187781573
 21
6615.900941505003
 31
0.0
  0
ARC
  5
63F
330
1F
100
AcDbEntity
  8
Visible (ISO)
100
AcDbCircle
 10
10589.62187781573
 20
6615.900941504992
 30
0.0
 40
6.000000000000023
100
AcDbArc
 50
0.0
 51
90.0
  0
LINE
  5
640
330
1F
100
AcDbEntity
  8
Visible (ISO)
100
AcDbLine
 10
10589.62187781573
 20
6621.900941504993
 30
0.0
 11
10151.62187781573
 21
6621.900941505003
 31
0.0
  0
ARC
  5
641
330
1F
100
AcDbEntity
  8
Visible (ISO)
100
AcDbCircle
 10
10146.62187781572
 20
6457.900941504994
 30
0.0
 40
25.0
100
AcDbArc
 50
180.0
 51
267.7075572240984
  0
LINE
  5
642
330
1F
100
AcDbEntity
  8
Visible (ISO)
100
AcDbLine
 10
10121.62187781572
 20
6562.900941504992
 30
0.0
 11
10121.62187781572
 21
6457.900941504991
 31
0.0
  0
ARC
  5
643
330
1F
100
AcDbEntity
  8
Visible (ISO)
100
AcDbCircle
 10
10146.62187781572
 20
6562.900941504992
 30
0.0
 40
25.0
100
AcDbArc
 50
90.0
 51
180.0
  0
LINE
  5
644
330
1F
100
AcDbEntity
  8
Visible (ISO)
100
AcDbLine
 10
10147.14974186072
 20
6587.900941504992
 30
0.0
 11
10146.62187781572
 21
6587.900941504992
 31
0.0
  0
ARC
  5
645
330
1F
100
AcDbEntity
  8
Visible (ISO)
100
AcDbCircle
 10
10146.62187781572
 20
6165.900941504993
 30
0.0
 40
25.00000000000002
100
AcDbArc
 50
180.0
 51
267.7075572239941
  0
LINE
  5
646
330
1F
100
AcDbEntity
  8
Visible (ISO)
100
AcDbLine
 10
10121.62187781572
 20
6405.900941504993
 30
0.0
 11
10121.62187781572
 21
6165.900941504992
 31
0.0
  0
ARC
  5
647
330
1F
100
AcDbEntity
  8
Visible (ISO)
100
AcDbCircle
 10
10146.62187781572
 20
6405.900941504993
 30
0.0
 40
25.00000000000001
100
AcDbArc
 50
92.29244277590165
 51
180.0
  0
MTEXT
  5
648
330
1F
100
AcDbEntity
  8
Text
370
     9
100
AcDbMText
 10
10247.94361853738
 20
6781.661071458275
 30
0.0
 40
160.0842719051806
 41
647.4567212677968
 46
0.0
 71
     7
 72
     1
  1
{\fApercu|b1|i0|c0|p34;\W1.0004;47}
 73
     1
 44
1.0
  0
MTEXT
  5
649
330
1F
100
AcDbEntity
  8
Text
370
     9
100
AcDbMText
 10
14206.58868498481
 20
6250.001922359517
 30
0.0
 40
160.0842719051806
 41
647.4567212677968
 46
0.0
 71
     7
 72
     1
  1
{\fApercu|b1|i0|c0|p34;\W1.0004;47}
 73
     1
 44
1.0
  0
MTEXT
  5
64F
330
1F
100
AcDbEntity
  8
Text
370
     9
100
AcDbMText
 10
13669.73484771035
 20
6772.923443014907
 30
0.0
 40
160.0842719051806
 41
647.4567212677968
 46
0.0
 71
     7
 72
     1
  1
{\fApercu|b1|i0|c0|p34;\W1.0004;50}
 73
     1
 44
1.0
  0
MTEXT
  5
650
330
1F
100
AcDbEntity
  8
Text
370
     9
100
AcDbMText
 10
13495.68062659337
 20
5701.293033783301
 30
0.0
 40
160.0842719051806
 41
647.4567212677968
 46
0.0
 71
     7
 72
     1
  1
{\fApercu|b1|i0|c0|p34;\W1.0004;OLV50}
 73
     1
 44
1.0
  0
MTEXT
  5
674
330
1F
100
AcDbEntity
  8
Text
370
     9
100
AcDbMText
 10
15944.86594858707
 20
6251.38638318111
 30
0.0
 40
160.0842719051806
 41
647.4567212677968
 46
0.0
 71
     7
 72
     1
  1
{\fApercu|b1|i0|c0|p34;\W1.0004;52}
 73
     1
 44
1.0
  0
MTEXT
  5
675
330
1F
100
AcDbEntity
  8
Text
370
     9
100
AcDbMText
 10
15388.45858921562
 20
6772.923443014907
 30
0.0
 40
160.0842719051806
 41
647.4567212677968
 46
0.0
 71
     7
 72
     1
  1
{\fApercu|b1|i0|c0|p34;\W1.0004;65}
 73
     1
 44
1.0
  0
MTEXT
  5
676
330
1F
100
AcDbEntity
  8
Text
370
     9
100
AcDbMText
 10
15135.09402601067
 20
5701.293033783301
 30
0.0
 40
160.0842719051806
 41
647.4567212677968
 46
0.0
 71
     7
 72
     1
  1
{\fApercu|b1|i0|c0|p34;\W1.0004;OLV65}
 73
     1
 44
1.0
  0
ARC
  5
6C9
330
1F
100
AcDbEntity
  8
Visible (ISO)
100
AcDbCircle
 10
15219.51202876703
 20
6542.031907673209
 30
0.0
 40
5.999999999999874
100
AcDbArc
 50
59.99999999999985
 51
90.0
  0
ARC
  5
6CA
330
1F
100
AcDbEntity
  8
Visible (ISO)
100
AcDbCircle
 10
15219.51202876703
 20
6054.031907673209
 30
0.0
 40
6.000000000000048
100
AcDbArc
 50
270.0
 51
300.0000000000002
  0
LINE
  5
6CB
330
1F
100
AcDbEntity
  8
Visible (ISO)
100
AcDbLine
 10
15218.51202876703
 20
6048.031907673209
 30
0.0
 11
15219.51202876703
 21
6048.031907673209
 31
0.0
  0
LINE
  5
6CC
330
1F
100
AcDbEntity
  8
Visible (ISO)
100
AcDbLine
 10
15219.51202876703
 20
6548.03190767321
 30
0.0
 11
15218.51202876703
 21
6548.03190767321
 31
0.0
  0
ARC
  5
6CD
330
1F
100
AcDbEntity
  8
Visible (ISO)
100
AcDbCircle
 10
15199.51202876703
 20
6054.031907673203
 30
0.0
 40
6.00000000000004
100
AcDbArc
 50
180.0
 51
270.0
  0
LINE
  5
6CE
330
1F
100
AcDbEntity
  8
Visible (ISO)
100
AcDbLine
 10
15218.51202876703
 20
6048.031907673209
 30
0.0
 11
15199.51202876703
 21
6048.031907673203
 31
0.0
  0
ARC
  5
6CF
330
1F
100
AcDbEntity
  8
Visible (ISO)
100
AcDbCircle
 10
15199.51202876703
 20
6542.031907673202
 30
0.0
 40
6.000000000000084
100
AcDbArc
 50
90.0
 51
180.0
  0
LINE
  5
6D0
330
1F
100
AcDbEntity
  8
Visible (ISO)
100
AcDbLine
 10
15199.51202876703
 20
6548.031907673203
 30
0.0
 11
15218.51202876703
 21
6548.03190767321
 31
0.0
  0
LINE
  5
6D1
330
1F
100
AcDbEntity
  8
Visible (ISO)
100
AcDbLine
 10
15193.51202876703
 20
6542.031907673202
 30
0.0
 11
15193.51202876703
 21
6054.031907673203
 31
0.0
  0
ARC
  5
6D2
330
1F
100
AcDbEntity
  8
Visible (ISO)
100
AcDbCircle
 10
15817.51202876704
 20
6054.031907673209
 30
0.0
 40
5.999999999999879
100
AcDbArc
 50
239.9999999999998
 51
270.0
  0
ARC
  5
6D3
330
1F
100
AcDbEntity
  8
Visible (ISO)
100
AcDbCircle
 10
15817.51202876704
 20
6542.031907673207
 30
0.0
 40
5.999999999999818
100
AcDbArc
 50
90.0
 51
120.0000000000001
  0
LINE
  5
6D4
330
1F
100
AcDbEntity
  8
Visible (ISO)
100
AcDbLine
 10
15818.51202876704
 20
6548.031907673207
 30
0.0
 11
15817.51202876704
 21
6548.031907673207
 31
0.0
  0
LINE
  5
6D5
330
1F
100
AcDbEntity
  8
Visible (ISO)
100
AcDbLine
 10
15817.51202876704
 20
6048.031907673209
 30
0.0
 11
15818.51202876704
 21
6048.031907673209
 31
0.0
  0
ARC
  5
6D6
330
1F
100
AcDbEntity
  8
Visible (ISO)
100
AcDbCircle
 10
15837.51202876704
 20
6542.031907673202
 30
0.0
 40
6.000000000000058
100
AcDbArc
 50
0.0
 51
90.0
  0
LINE
  5
6D7
330
1F
100
AcDbEntity
  8
Visible (ISO)
100
AcDbLine
 10
15818.51202876704
 20
6548.031907673207
 30
0.0
 11
15837.51202876704
 21
6548.031907673202
 31
0.0
  0
ARC
  5
6D8
330
1F
100
AcDbEntity
  8
Visible (ISO)
100
AcDbCircle
 10
15837.51202876704
 20
6054.031907673203
 30
0.0
 40
6.000000000000102
100
AcDbArc
 50
270.0
 51
0.0
  0
LINE
  5
6D9
330
1F
100
AcDbEntity
  8
Visible (ISO)
100
AcDbLine
 10
15837.51202876704
 20
6048.031907673203
 30
0.0
 11
15818.51202876704
 21
6048.031907673209
 31
0.0
  0
LINE
  5
6DA
330
1F
100
AcDbEntity
  8
Visible (ISO)
100
AcDbLine
 10
15843.51202876703
 20
6054.031907673203
 30
0.0
 11
15843.51202876703
 21
6542.031907673202
 31
0.0
  0
ARC
  5
6DB
330
1F
100
AcDbEntity
  8
Visible (ISO)
100
AcDbCircle
 10
15811.51202876703
 20
6054.031907673213
 30
0.0
 40
6.000000000000213
100
AcDbArc
 50
270.0
 51
0.0
  0
ARC
  5
6DC
330
1F
100
AcDbEntity
  8
Visible (ISO)
100
AcDbCircle
 10
15811.51202876703
 20
6542.031907673216
 30
0.0
 40
6.0
100
AcDbArc
 50
0.0
 51
90.0
  0
LINE
  5
6DD
330
1F
100
AcDbEntity
  8
Visible (ISO)
100
AcDbLine
 10
15225.51202876703
 20
6548.031907673214
 30
0.0
 11
15244.51202876703
 21
6548.031907673221
 31
0.0
  0
LINE
  5
6DE
330
1F
100
AcDbEntity
  8
Visible (ISO)
100
AcDbLine
 10
15792.51202876703
 20
6548.031907673221
 30
0.0
 11
15244.51202876703
 21
6548.031907673221
 31
0.0
  0
LINE
  5
6DF
330
1F
100
AcDbEntity
  8
Visible (ISO)
100
AcDbLine
 10
15792.51202876703
 20
6548.031907673221
 30
0.0
 11
15811.51202876703
 21
6548.031907673214
 31
0.0
  0
ARC
  5
6E0
330
1F
100
AcDbEntity
  8
Visible (ISO)
100
AcDbCircle
 10
15225.51202876703
 20
6054.031907673213
 30
0.0
 40
6.000000000000034
100
AcDbArc
 50
180.0
 51
270.0
  0
LINE
  5
6E1
330
1F
100
AcDbEntity
  8
Visible (ISO)
100
AcDbLine
 10
15244.51202876703
 20
6048.03190767322
 30
0.0
 11
15225.51202876703
 21
6048.031907673212
 31
0.0
  0
LINE
  5
6E2
330
1F
100
AcDbEntity
  8
Visible (ISO)
100
AcDbLine
 10
15244.51202876703
 20
6048.03190767322
 30
0.0
 11
15792.51202876703
 21
6048.031907673219
 31
0.0
  0
LINE
  5
6E3
330
1F
100
AcDbEntity
  8
Visible (ISO)
100
AcDbLine
 10
15811.51202876703
 20
6048.031907673212
 30
0.0
 11
15792.51202876703
 21
6048.031907673219
 31
0.0
  0
ARC
  5
6E4
330
1F
100
AcDbEntity
  8
Visible (ISO)
100
AcDbCircle
 10
15225.51202876703
 20
6542.031907673216
 30
0.0
 40
6.000000000000105
100
AcDbArc
 50
90.0
 51
180.0
  0
LINE
  5
6E5
330
1F
100
AcDbEntity
  8
Visible (ISO)
100
AcDbLine
 10
15817.51202876703
 20
6054.031907673213
 30
0.0
 11
15817.51202876703
 21
6542.031907673216
 31
0.0
  0
LINE
  5
6E6
330
1F
100
AcDbEntity
  8
Visible (ISO)
100
AcDbLine
 10
15219.51202876703
 20
6542.031907673216
 30
0.0
 11
15219.51202876703
 21
6054.031907673213
 31
0.0
  0
ARC
  5
6E7
330
1F
100
AcDbEntity
  8
Visible (ISO)
100
AcDbCircle
 10
15803.01202876703
 20
6030.031907673199
 30
0.0
 40
6.000000000000013
100
AcDbArc
 50
270.0
 51
0.0
  0
LINE
  5
6E8
330
1F
100
AcDbEntity
  8
Visible (ISO)
100
AcDbLine
 10
15809.01202876703
 20
6048.031907673209
 30
0.0
 11
15809.01202876703
 21
6030.031907673199
 31
0.0
  0
ARC
  5
6E9
330
1F
100
AcDbEntity
  8
Visible (ISO)
100
AcDbCircle
 10
15234.01202876703
 20
6030.0319076732
 30
0.0
 40
6.000000000000082
100
AcDbArc
 50
180.0
 51
270.0
  0
LINE
  5
6EA
330
1F
100
AcDbEntity
  8
Visible (ISO)
100
AcDbLine
 10
15228.01202876703
 20
6030.0319076732
 30
0.0
 11
15228.01202876703
 21
6048.031907673209
 31
0.0
  0
LINE
  5
6EB
330
1F
100
AcDbEntity
  8
Visible (ISO)
100
AcDbLine
 10
15234.01202876703
 20
6024.031907673201
 30
0.0
 11
15803.01202876703
 21
6024.031907673199
 31
0.0
  0
MTEXT
  5
734
330
1F
100
AcDbEntity
  8
Text
370
     9
100
AcDbMText
 10
6161.162425916928
 20
3879.352529531763
 30
0.0
 40
180.3840308053828
 41
2128.477490913163
 46
215.8401516866759
 71
     7
 72
     1
  1
Console Table
 73
     1
 44
1.0
  0
POLYLINE
  5
735
330
1F
100
AcDbEntity
  8
Text
370
     9
100
AcDb2dPolyline
 66
     1
 10
0.0
 20
0.0
 30
0.0
  0
VERTEX
  5
736
330
735
100
AcDbEntity
  8
Text
370
     9
100
AcDbVertex
100
AcDb2dVertex
 10
6161.162425916927
 20
4487.885554547992
 30
0.0
  0
VERTEX
  5
737
330
735
100
AcDbEntity
  8
Text
370
     9
100
AcDbVertex
100
AcDb2dVertex
 10
26666.63105892417
 20
4487.885554547992
 30
0.0
  0
SEQEND
  5
738
330
735
100
AcDbEntity
  8
Text
370
     9
  0
ARC
  5
8B5
330
1F
100
AcDbEntity
  8
Visible (ISO)
100
AcDbCircle
 10
8534.470028974245
 20
3115.092949481125
 30
0.0
 40
6.000000000000002
100
AcDbArc
 50
0.0
 51
90.0
  0
LINE
  5
8B6
330
1F
100
AcDbEntity
  8
Visible (ISO)
100
AcDbLine
 10
8534.470028974245
 20
3121.092949481124
 30
0.0
 11
8533.470028974246
 21
3121.092949481124
 31
0.0
  0
ARC
  5
8B7
330
1F
100
AcDbEntity
  8
Visible (ISO)
100
AcDbCircle
 10
8533.470028974246
 20
3096.092949481124
 30
0.0
 40
24.99999999999995
100
AcDbArc
 50
90.0
 51
180.0
  0
LINE
  5
8B8
330
1F
100
AcDbEntity
  8
Visible (ISO)
100
AcDbLine
 10
8508.470028974246
 20
3096.092949481124
 30
0.0
 11
8508.470028974246
 21
2518.092949481128
 31
0.0
  0
ARC
  5
8B9
330
1F
100
AcDbEntity
  8
Visible (ISO)
100
AcDbCircle
 10
8523.470028974244
 20
2518.092949481128
 30
0.0
 40
14.99999999999995
100
AcDbArc
 50
180.0
 51
270.0
  0
LINE
  5
8BA
330
1F
100
AcDbEntity
  8
Visible (ISO)
100
AcDbLine
 10
8523.470028974244
 20
2503.092949481128
 30
0.0
 11
8525.470028974245
 21
2503.092949481128
 31
0.0
  0
ARC
  5
8BB
330
1F
100
AcDbEntity
  8
Visible (ISO)
100
AcDbCircle
 10
8525.470028974245
 20
2518.092949481128
 30
0.0
 40
14.99999999999993
100
AcDbArc
 50
270.0
 51
0.0
  0
LINE
  5
8BC
330
1F
100
AcDbEntity
  8
Visible (ISO)
100
AcDbLine
 10
8540.470028974246
 20
2518.092949481128
 30
0.0
 11
8540.470028974246
 21
3115.092949481125
 31
0.0
  0
ARC
  5
8BD
330
1F
100
AcDbEntity
  8
Visible (ISO)
100
AcDbCircle
 10
10205.47002897425
 20
3115.092949481128
 30
0.0
 40
5.999999999999943
100
AcDbArc
 50
90.0
 51
180.0
  0
LINE
  5
8BE
330
1F
100
AcDbEntity
  8
Visible (ISO)
100
AcDbLine
 10
10206.47002897425
 20
3121.092949481128
 30
0.0
 11
10205.47002897425
 21
3121.092949481128
 31
0.0
  0
ARC
  5
8BF
330
1F
100
AcDbEntity
  8
Visible (ISO)
100
AcDbCircle
 10
10216.47002897425
 20
2518.092949481128
 30
0.0
 40
14.99999999999996
100
AcDbArc
 50
270.0
 51
0.0
  0
LINE
  5
8C0
330
1F
100
AcDbEntity
  8
Visible (ISO)
100
AcDbLine
 10
10231.47002897425
 20
2518.092949481128
 30
0.0
 11
10231.47002897425
 21
3096.092949481128
 31
0.0
  0
ARC
  5
8C1
330
1F
100
AcDbEntity
  8
Visible (ISO)
100
AcDbCircle
 10
10206.47002897425
 20
3096.092949481128
 30
0.0
 40
25.0
100
AcDbArc
 50
0.0
 51
90.0
  0
LINE
  5
8C2
330
1F
100
AcDbEntity
  8
Visible (ISO)
100
AcDbLine
 10
10214.47002897425
 20
2503.092949481128
 30
0.0
 11
10216.47002897425
 21
2503.092949481128
 31
0.0
  0
ARC
  5
8C3
330
1F
100
AcDbEntity
  8
Visible (ISO)
100
AcDbCircle
 10
10214.47002897425
 20
2518.092949481128
 30
0.0
 40
14.99999999999998
100
AcDbArc
 50
180.0
 51
270.0
  0
LINE
  5
8C4
330
1F
100
AcDbEntity
  8
Visible (ISO)
100
AcDbLine
 10
10199.47002897425
 20
3115.092949481128
 30
0.0
 11
10199.47002897425
 21
2518.092949481128
 31
0.0
  0
ARC
  5
8C5
330
1F
100
AcDbEntity
  8
Visible (ISO)
100
AcDbCircle
 10
8540.470028974246
 20
3127.092949481125
 30
0.0
 40
5.999999999999835
100
AcDbArc
 50
180.0
 51
270.0
  0
LINE
  5
8C6
330
1F
100
AcDbEntity
  8
Visible (ISO)
100
AcDbLine
 10
8540.470028974246
 20
3121.092949481124
 30
0.0
 11
10199.47002897421
 21
3121.092949481124
 31
0.0
  0
ARC
  5
8C7
330
1F
100
AcDbEntity
  8
Visible (ISO)
100
AcDbCircle
 10
10199.47002897421
 20
3127.092949481125
 30
0.0
 40
5.99999999999991
100
AcDbArc
 50
270.0
 51
0.0
  0
LINE
  5
8C8
330
1F
100
AcDbEntity
  8
Visible (ISO)
100
AcDbLine
 10
10205.47002897421
 20
3127.092949481125
 30
0.0
 11
10205.47002897421
 21
3128.092949481124
 31
0.0
  0
LINE
  5
8C9
330
1F
100
AcDbEntity
  8
Visible (ISO)
100
AcDbLine
 10
8534.470028974245
 20
3128.092949481124
 30
0.0
 11
8534.470028974245
 21
3127.092949481125
 31
0.0
  0
ARC
  5
8CA
330
1F
100
AcDbEntity
  8
Visible (ISO)
100
AcDbCircle
 10
8559.470028974244
 20
3128.092949481124
 30
0.0
 40
24.99999999999988
100
AcDbArc
 50
90.0
 51
180.0
  0
LINE
  5
8CB
330
1F
100
AcDbEntity
  8
Visible (ISO)
100
AcDbLine
 10
10180.47002897421
 20
3153.092949481124
 30
0.0
 11
8559.470028974244
 21
3153.092949481124
 31
0.0
  0
ARC
  5
8CC
330
1F
100
AcDbEntity
  8
Visible (ISO)
100
AcDbCircle
 10
10180.47002897421
 20
3128.092949481124
 30
0.0
 40
24.99999999999973
100
AcDbArc
 50
0.0
 51
90.0
  0
LINE
  5
8CD
330
1F
100
AcDbEntity
  8
Visible (ISO)
100
AcDbLine
 10
8542.470028974234
 20
3121.092949481124
 30
0.0
 11
8545.544205702118
 21
3118.018772753242
 31
0.0
  0
LINE
  5
8CE
330
1F
100
AcDbEntity
  8
Visible (ISO)
100
AcDbLine
 10
8542.970028974245
 20
2673.592949481115
 30
0.0
 11
8540.470028974246
 21
2671.092949481114
 31
0.0
  0
LINE
  5
8CF
330
1F
100
AcDbEntity
  8
Visible (ISO)
100
AcDbLine
 10
8540.470028974246
 20
3115.092949481126
 30
0.0
 11
8540.470028974246
 21
3121.092949481124
 31
0.0
  0
LINE
  5
8D0
330
1F
100
AcDbEntity
  8
Visible (ISO)
100
AcDbLine
 10
10199.47002897425
 20
2671.092949481122
 30
0.0
 11
10196.97002897424
 21
2673.592949481125
 31
0.0
  0
LINE
  5
8D1
330
1F
100
AcDbEntity
  8
Visible (ISO)
100
AcDbLine
 10
10196.97002897425
 20
3112.59294948112
 30
0.0
 11
10199.47002897425
 21
3115.092949481125
 31
0.0
  0
ARC
  5
8D2
330
1F
100
AcDbEntity
  8
Visible (ISO)
100
AcDbCircle
 10
9088.220028974246
 20
3113.59294948112
 30
0.0
 40
5.000000000000391
100
AcDbArc
 50
341.8051276604225
 51
68.76755576825001
  0
LINE
  5
8D3
330
1F
100
AcDbEntity
  8
Visible (ISO)
100
AcDbLine
 10
8545.544205702091
 20
3118.018772753269
 30
0.0
 11
8542.470028974243
 21
3121.092949481115
 31
0.0
  0
LINE
  5
8D4
330
1F
100
AcDbEntity
  8
Visible (ISO)
100
AcDbLine
 10
10201.47002897437
 20
3121.092949481134
 30
0.0
 11
10196.27434765939
 21
3115.897268166146
 31
0.0
  0
LINE
  5
8D5
330
1F
100
AcDbEntity
  8
Visible (ISO)
100
AcDbLine
 10
9092.970028974226
 20
3104.092949481119
 30
0.0
 11
9094.970028974225
 21
3104.092949481119
 31
0.0
  0
LINE
  5
8D6
330
1F
100
AcDbEntity
  8
Visible (ISO)
100
AcDbLine
 10
9644.970028974267
 20
3104.092949481126
 30
0.0
 11
9646.970028974269
 21
3104.092949481126
 31
0.0
  0
LINE
  5
8D7
330
1F
100
AcDbEntity
  8
Visible (ISO)
100
AcDbLine
 10
10199.47002897429
 20
3121.092949481134
 30
0.0
 11
10201.47002897437
 21
3121.092949481134
 31
0.0
  0
LINE
  5
8D8
330
1F
100
AcDbEntity
  8
Visible (ISO)
100
AcDbLine
 10
9646.970028974248
 20
2688.092949481113
 30
0.0
 11
9644.970028974247
 21
2688.092949481113
 31
0.0
  0
LINE
  5
8D9
330
1F
100
AcDbEntity
  8
Visible (ISO)
100
AcDbLine
 10
9094.970028974247
 20
2688.092949481113
 30
0.0
 11
9092.970028974246
 21
2688.092949481113
 31
0.0
  0
LINE
  5
8DA
330
1F
100
AcDbEntity
  8
Visible (ISO)
100
AcDbLine
 10
10199.47002897424
 20
2671.092949481112
 30
0.0
 11
10196.97002897425
 21
2671.092949481112
 31
0.0
  0
LINE
  5
8DB
330
1F
100
AcDbEntity
  8
Visible (ISO)
100
AcDbLine
 10
9646.970028974248
 20
2671.092949481112
 30
0.0
 11
9644.970028974247
 21
2671.092949481112
 31
0.0
  0
LINE
  5
8DC
330
1F
100
AcDbEntity
  8
Visible (ISO)
100
AcDbLine
 10
9094.970028974247
 20
2671.092949481113
 30
0.0
 11
9092.970028974246
 21
2671.092949481113
 31
0.0
  0
LINE
  5
8DD
330
1F
100
AcDbEntity
  8
Visible (ISO)
100
AcDbLine
 10
8542.970028974247
 20
2671.092949481114
 30
0.0
 11
8540.470028974246
 21
2671.092949481114
 31
0.0
  0
LINE
  5
8DE
330
1F
100
AcDbEntity
  8
Visible (ISO)
100
AcDbLine
 10
8540.470028974246
 20
2671.092949481114
 30
0.0
 11
8542.970028974245
 21
2673.592949481115
 31
0.0
  0
LINE
  5
8DF
330
1F
100
AcDbEntity
  8
Visible (ISO)
100
AcDbLine
 10
10196.97002897425
 20
2673.592949481109
 30
0.0
 11
10199.47002897424
 21
2671.092949481112
 31
0.0
  0
LINE
  5
8E0
330
1F
100
AcDbEntity
  8
Visible (ISO)
100
AcDbLine
 10
9094.970028974247
 20
2666.092949481115
 30
0.0
 11
9092.970028974246
 21
2666.092949481115
 31
0.0
  0
LINE
  5
8E1
330
1F
100
AcDbEntity
  8
Visible (ISO)
100
AcDbLine
 10
9092.970028974246
 20
3104.092949481116
 30
0.0
 11
9094.970028974245
 21
3104.092949481116
 31
0.0
  0
LINE
  5
8E2
330
1F
100
AcDbEntity
  8
Visible (ISO)
100
AcDbLine
 10
9094.970028974247
 20
2670.092949481114
 30
0.0
 11
9092.970028974246
 21
2670.092949481114
 31
0.0
  0
LINE
  5
8E3
330
1F
100
AcDbEntity
  8
Visible (ISO)
100
AcDbLine
 10
9644.970028974247
 20
2666.092949481115
 30
0.0
 11
9646.970028974248
 21
2666.092949481115
 31
0.0
  0
LINE
  5
8E4
330
1F
100
AcDbEntity
  8
Visible (ISO)
100
AcDbLine
 10
9646.970028974248
 20
2670.092949481114
 30
0.0
 11
9644.970028974247
 21
2670.092949481114
 31
0.0
  0
LINE
  5
8E5
330
1F
100
AcDbEntity
  8
Visible (ISO)
100
AcDbLine
 10
9644.970028974245
 20
3104.092949481115
 30
0.0
 11
9646.970028974248
 21
3104.092949481115
 31
0.0
  0
ARC
  5
8E6
330
1F
100
AcDbEntity
  8
Visible (ISO)
100
AcDbCircle
 10
8548.970028974245
 20
3113.092949481126
 30
0.0
 40
5.999999999999986
100
AcDbArc
 50
90.0
 51
180.0
  0
LINE
  5
8E7
330
1F
100
AcDbEntity
  8
Visible (ISO)
100
AcDbLine
 10
8542.970028974245
 20
3094.092949481125
 30
0.0
 11
8542.970028974245
 21
3113.092949481125
 31
0.0
  0
LINE
  5
8E8
330
1F
100
AcDbEntity
  8
Visible (ISO)
100
AcDbLine
 10
8542.970028974245
 20
3094.092949481125
 30
0.0
 11
8542.970028974245
 21
2668.092949481125
 31
0.0
  0
ARC
  5
8E9
330
1F
100
AcDbEntity
  8
Visible (ISO)
100
AcDbCircle
 10
8548.970028974245
 20
2649.092949481126
 30
0.0
 40
6.000000000000056
100
AcDbArc
 50
180.0
 51
270.0
  0
LINE
  5
8EA
330
1F
100
AcDbEntity
  8
Visible (ISO)
100
AcDbLine
 10
8542.970028974245
 20
2649.092949481126
 30
0.0
 11
8542.970028974245
 21
2668.092949481125
 31
0.0
  0
ARC
  5
8EB
330
1F
100
AcDbEntity
  8
Visible (ISO)
100
AcDbCircle
 10
9086.970028974247
 20
2649.092949481126
 30
0.0
 40
6.000000000000023
100
AcDbArc
 50
270.0
 51
0.0
  0
LINE
  5
8EC
330
1F
100
AcDbEntity
  8
Visible (ISO)
100
AcDbLine
 10
9092.970028974248
 20
2668.092949481125
 30
0.0
 11
9092.970028974248
 21
2649.092949481126
 31
0.0
  0
LINE
  5
8ED
330
1F
100
AcDbEntity
  8
Visible (ISO)
100
AcDbLine
 10
9092.970028974248
 20
2668.092949481125
 30
0.0
 11
9092.970028974248
 21
3094.092949481125
 31
0.0
  0
ARC
  5
8EE
330
1F
100
AcDbEntity
  8
Visible (ISO)
100
AcDbCircle
 10
9086.970028974246
 20
3113.092949481126
 30
0.0
 40
6.000000000000128
100
AcDbArc
 50
0.0
 51
90.0
  0
LINE
  5
8EF
330
1F
100
AcDbEntity
  8
Visible (ISO)
100
AcDbLine
 10
9092.970028974246
 20
3113.092949481125
 30
0.0
 11
9092.970028974246
 21
3094.092949481125
 31
0.0
  0
LINE
  5
8F0
330
1F
100
AcDbEntity
  8
Visible (ISO)
100
AcDbLine
 10
9086.970028974246
 20
3119.092949481125
 30
0.0
 11
8548.970028974245
 21
3119.092949481125
 31
0.0
  0
LINE
  5
8F1
330
1F
100
AcDbEntity
  8
Visible (ISO)
100
AcDbLine
 10
8548.970028974245
 20
2643.092949481125
 30
0.0
 11
9086.970028974247
 21
2643.092949481125
 31
0.0
  0
ARC
  5
8F2
330
1F
100
AcDbEntity
  8
Visible (ISO)
100
AcDbCircle
 10
9100.970028974247
 20
3113.092949481126
 30
0.0
 40
6.000000000000023
100
AcDbArc
 50
90.0
 51
180.0
  0
LINE
  5
8F3
330
1F
100
AcDbEntity
  8
Visible (ISO)
100
AcDbLine
 10
9094.970028974245
 20
3094.092949481125
 30
0.0
 11
9094.970028974245
 21
3113.092949481125
 31
0.0
  0
LINE
  5
8F4
330
1F
100
AcDbEntity
  8
Visible (ISO)
100
AcDbLine
 10
9094.970028974247
 20
3094.092949481125
 30
0.0
 11
9094.970028974247
 21
2668.092949481123
 31
0.0
  0
ARC
  5
8F5
330
1F
100
AcDbEntity
  8
Visible (ISO)
100
AcDbCircle
 10
9100.970028974247
 20
2649.092949481124
 30
0.0
 40
6.000000000000128
100
AcDbArc
 50
180.0
 51
270.0
  0
LINE
  5
8F6
330
1F
100
AcDbEntity
  8
Visible (ISO)
100
AcDbLine
 10
9094.970028974247
 20
2649.092949481124
 30
0.0
 11
9094.970028974247
 21
2668.092949481123
 31
0.0
  0
ARC
  5
8F7
330
1F
100
AcDbEntity
  8
Visible (ISO)
100
AcDbCircle
 10
9638.970028974247
 20
2649.092949481124
 30
0.0
 40
6.000000000000023
100
AcDbArc
 50
270.0
 51
0.0
  0
LINE
  5
8F8
330
1F
100
AcDbEntity
  8
Visible (ISO)
100
AcDbLine
 10
9644.970028974247
 20
2668.092949481124
 30
0.0
 11
9644.970028974247
 21
2649.092949481124
 31
0.0
  0
LINE
  5
8F9
330
1F
100
AcDbEntity
  8
Visible (ISO)
100
AcDbLine
 10
9644.970028974247
 20
2668.092949481124
 30
0.0
 11
9644.970028974247
 21
3094.092949481126
 31
0.0
  0
ARC
  5
8FA
330
1F
100
AcDbEntity
  8
Visible (ISO)
100
AcDbCircle
 10
9638.970028974245
 20
3113.092949481127
 30
0.0
 40
6.000000000000094
100
AcDbArc
 50
0.0
 51
90.0
  0
LINE
  5
8FB
330
1F
100
AcDbEntity
  8
Visible (ISO)
100
AcDbLine
 10
9644.970028974247
 20
3113.092949481127
 30
0.0
 11
9644.970028974247
 21
3094.092949481126
 31
0.0
  0
LINE
  5
8FC
330
1F
100
AcDbEntity
  8
Visible (ISO)
100
AcDbLine
 10
9638.970028974245
 20
3119.092949481125
 30
0.0
 11
9100.970028974247
 21
3119.092949481125
 31
0.0
  0
LINE
  5
8FD
330
1F
100
AcDbEntity
  8
Visible (ISO)
100
AcDbLine
 10
9100.970028974247
 20
2643.092949481123
 30
0.0
 11
9638.970028974247
 21
2643.092949481124
 31
0.0
  0
ARC
  5
8FE
330
1F
100
AcDbEntity
  8
Visible (ISO)
100
AcDbCircle
 10
9652.970028974246
 20
3113.092949481127
 30
0.0
 40
6.000000000000023
100
AcDbArc
 50
90.0
 51
180.0
  0
LINE
  5
8FF
330
1F
100
AcDbEntity
  8
Visible (ISO)
100
AcDbLine
 10
9646.970028974248
 20
3094.092949481126
 30
0.0
 11
9646.970028974248
 21
3113.092949481127
 31
0.0
  0
LINE
  5
900
330
1F
100
AcDbEntity
  8
Visible (ISO)
100
AcDbLine
 10
9646.970028974248
 20
3094.092949481126
 30
0.0
 11
9646.970028974248
 21
2668.092949481125
 31
0.0
  0
ARC
  5
901
330
1F
100
AcDbEntity
  8
Visible (ISO)
100
AcDbCircle
 10
9652.970028974246
 20
2649.092949481126
 30
0.0
 40
6.000000000000127
100
AcDbArc
 50
180.0
 51
270.0
  0
LINE
  5
902
330
1F
100
AcDbEntity
  8
Visible (ISO)
100
AcDbLine
 10
9646.970028974248
 20
2649.092949481126
 30
0.0
 11
9646.970028974248
 21
2668.092949481125
 31
0.0
  0
ARC
  5
903
330
1F
100
AcDbEntity
  8
Visible (ISO)
100
AcDbCircle
 10
10190.97002897425
 20
2649.092949481126
 30
0.0
 40
6.000000000000023
100
AcDbArc
 50
270.0
 51
0.0
  0
LINE
  5
904
330
1F
100
AcDbEntity
  8
Visible (ISO)
100
AcDbLine
 10
10196.97002897425
 20
2668.092949481126
 30
0.0
 11
10196.97002897425
 21
2649.092949481126
 31
0.0
  0
LINE
  5
905
330
1F
100
AcDbEntity
  8
Visible (ISO)
100
AcDbLine
 10
10196.97002897425
 20
2668.092949481126
 30
0.0
 11
10196.97002897425
 21
3094.092949481126
 31
0.0
  0
ARC
  5
906
330
1F
100
AcDbEntity
  8
Visible (ISO)
100
AcDbCircle
 10
10190.97002897425
 20
3113.092949481127
 30
0.0
 40
6.000000000000093
100
AcDbArc
 50
0.0
 51
90.0
  0
LINE
  5
907
330
1F
100
AcDbEntity
  8
Visible (ISO)
100
AcDbLine
 10
10196.97002897425
 20
3113.092949481127
 30
0.0
 11
10196.97002897425
 21
3094.092949481126
 31
0.0
  0
LINE
  5
908
330
1F
100
AcDbEntity
  8
Visible (ISO)
100
AcDbLine
 10
10190.97002897425
 20
3119.092949481126
 30
0.0
 11
9652.970028974246
 21
3119.092949481125
 31
0.0
  0
LINE
  5
909
330
1F
100
AcDbEntity
  8
Visible (ISO)
100
AcDbLine
 10
9652.970028974246
 20
2643.092949481124
 30
0.0
 11
10190.97002897425
 21
2643.092949481126
 31
0.0
  0
ARC
  5
90A
330
1F
100
AcDbEntity
  8
Visible (ISO)
100
AcDbCircle
 10
9628.84786923702
 20
3035.092949481126
 30
0.0
 40
17.49999999999998
100
AcDbArc
 50
337.1119097554818
 51
22.88809024451818
  0
ARC
  5
90B
330
1F
100
AcDbEntity
  8
Visible (ISO)
100
AcDbCircle
 10
9628.84786923702
 20
2727.092949481126
 30
0.0
 40
17.49999999999997
100
AcDbArc
 50
337.1119097554818
 51
22.88809024451818
  0
LINE
  5
90C
330
1F
100
AcDbEntity
  8
Visible (ISO)
100
AcDbLine
 10
10199.47002897425
 20
2646.092949481112
 30
0.0
 11
10196.16618139694
 21
2646.092949481112
 31
0.0
  0
LINE
  5
90D
330
1F
100
AcDbEntity
  8
Visible (ISO)
100
AcDbLine
 10
9647.773876551548
 20
2646.092949481112
 30
0.0
 11
9644.166181396947
 21
2646.092949481112
 31
0.0
  0
LINE
  5
90E
330
1F
100
AcDbEntity
  8
Visible (ISO)
100
AcDbLine
 10
9095.773876551545
 20
2646.092949481113
 30
0.0
 11
9092.166181396946
 21
2646.092949481113
 31
0.0
  0
LINE
  5
90F
330
1F
100
AcDbEntity
  8
Visible (ISO)
100
AcDbLine
 10
8543.773876551547
 20
2646.092949481114
 30
0.0
 11
8540.470028974246
 21
2646.092949481114
 31
0.0
  0
ARC
  5
910
330
1F
100
AcDbEntity
  8
Visible (ISO)
100
AcDbCircle
 10
13594.4131069887
 20
3118.741332932259
 30
0.0
 40
5.999999999999922
100
AcDbArc
 50
60.00000000011663
 51
90.0
  0
ARC
  5
911
330
1F
100
AcDbEntity
  8
Visible (ISO)
100
AcDbCircle
 10
13594.4131069887
 20
2630.741332932265
 30
0.0
 40
5.999999999999397
100
AcDbArc
 50
270.0
 51
299.999999999883
  0
LINE
  5
912
330
1F
100
AcDbEntity
  8
Visible (ISO)
100
AcDbLine
 10
13593.4131069887
 20
2624.741332932265
 30
0.0
 11
13594.4131069887
 21
2624.741332932265
 31
0.0
  0
LINE
  5
913
330
1F
100
AcDbEntity
  8
Visible (ISO)
100
AcDbLine
 10
13594.4131069887
 20
3124.74133293226
 30
0.0
 11
13593.4131069887
 21
3124.74133293226
 31
0.0
  0
ARC
  5
914
330
1F
100
AcDbEntity
  8
Visible (ISO)
100
AcDbCircle
 10
13574.4131069887
 20
2630.74133293226
 30
0.0
 40
6.000000000000028
100
AcDbArc
 50
180.0
 51
270.0
  0
LINE
  5
915
330
1F
100
AcDbEntity
  8
Visible (ISO)
100
AcDbLine
 10
13593.4131069887
 20
2624.741332932265
 30
0.0
 11
13574.4131069887
 21
2624.741332932259
 31
0.0
  0
ARC
  5
916
330
1F
100
AcDbEntity
  8
Visible (ISO)
100
AcDbCircle
 10
13574.4131069887
 20
3118.741332932255
 30
0.0
 40
6.000000000000073
100
AcDbArc
 50
90.0
 51
180.0
  0
LINE
  5
917
330
1F
100
AcDbEntity
  8
Visible (ISO)
100
AcDbLine
 10
13574.4131069887
 20
3124.741332932253
 30
0.0
 11
13593.4131069887
 21
3124.74133293226
 31
0.0
  0
LINE
  5
918
330
1F
100
AcDbEntity
  8
Visible (ISO)
100
AcDbLine
 10
13568.4131069887
 20
3118.741332932255
 30
0.0
 11
13568.4131069887
 21
2630.74133293226
 31
0.0
  0
ARC
  5
919
330
1F
100
AcDbEntity
  8
Visible (ISO)
100
AcDbCircle
 10
15265.4131069887
 20
2630.741332932265
 30
0.0
 40
5.999999999999446
100
AcDbArc
 50
239.9999999999961
 51
270.0
  0
ARC
  5
91A
330
1F
100
AcDbEntity
  8
Visible (ISO)
100
AcDbCircle
 10
15265.4131069887
 20
3118.741332932266
 30
0.0
 40
5.999999999999728
100
AcDbArc
 50
90.0
 51
120.0000000001207
  0
LINE
  5
91B
330
1F
100
AcDbEntity
  8
Visible (ISO)
100
AcDbLine
 10
15266.4131069887
 20
3124.741332932265
 30
0.0
 11
15265.4131069887
 21
3124.741332932265
 31
0.0
  0
LINE
  5
91C
330
1F
100
AcDbEntity
  8
Visible (ISO)
100
AcDbLine
 10
15265.4131069887
 20
2624.741332932265
 30
0.0
 11
15266.4131069887
 21
2624.741332932265
 31
0.0
  0
ARC
  5
91D
330
1F
100
AcDbEntity
  8
Visible (ISO)
100
AcDbCircle
 10
15285.4131069887
 20
3118.741332932259
 30
0.0
 40
6.000000000000039
100
AcDbArc
 50
0.0
 51
90.0
  0
LINE
  5
91E
330
1F
100
AcDbEntity
  8
Visible (ISO)
100
AcDbLine
 10
15266.4131069887
 20
3124.741332932265
 30
0.0
 11
15285.4131069887
 21
3124.74133293226
 31
0.0
  0
ARC
  5
91F
330
1F
100
AcDbEntity
  8
Visible (ISO)
100
AcDbCircle
 10
15285.4131069887
 20
2630.74133293226
 30
0.0
 40
6.000000000000084
100
AcDbArc
 50
270.0
 51
0.0
  0
LINE
  5
920
330
1F
100
AcDbEntity
  8
Visible (ISO)
100
AcDbLine
 10
15285.4131069887
 20
2624.74133293226
 30
0.0
 11
15266.4131069887
 21
2624.741332932265
 31
0.0
  0
LINE
  5
921
330
1F
100
AcDbEntity
  8
Visible (ISO)
100
AcDbLine
 10
15291.4131069887
 20
2630.74133293226
 30
0.0
 11
15291.4131069887
 21
3118.741332932259
 31
0.0
  0
ARC
  5
922
330
1F
100
AcDbEntity
  8
Visible (ISO)
100
AcDbCircle
 10
15259.41310698867
 20
2630.741332932267
 30
0.0
 40
6.00000000000038
100
AcDbArc
 50
270.0
 51
0.0
  0
ARC
  5
923
330
1F
100
AcDbEntity
  8
Visible (ISO)
100
AcDbCircle
 10
15259.41310698867
 20
3118.74133293226
 30
0.0
 40
5.999999999999847
100
AcDbArc
 50
0.0
 51
90.0
  0
LINE
  5
924
330
1F
100
AcDbEntity
  8
Visible (ISO)
100
AcDbLine
 10
13600.4131069887
 20
3124.741332932261
 30
0.0
 11
13619.4131069887
 21
3124.741332932266
 31
0.0
  0
LINE
  5
925
330
1F
100
AcDbEntity
  8
Visible (ISO)
100
AcDbLine
 10
15240.41310698867
 20
3124.741332932265
 30
0.0
 11
13619.4131069887
 21
3124.741332932266
 31
0.0
  0
LINE
  5
926
330
1F
100
AcDbEntity
  8
Visible (ISO)
100
AcDbLine
 10
15240.41310698867
 20
3124.741332932265
 30
0.0
 11
15259.41310698867
 21
3124.741332932261
 31
0.0
  0
ARC
  5
927
330
1F
100
AcDbEntity
  8
Visible (ISO)
100
AcDbCircle
 10
13600.4131069887
 20
2630.741332932268
 30
0.0
 40
5.999999999999741
100
AcDbArc
 50
180.0
 51
270.0
  0
LINE
  5
928
330
1F
100
AcDbEntity
  8
Visible (ISO)
100
AcDbLine
 10
13619.4131069887
 20
2624.741332932274
 30
0.0
 11
13600.4131069887
 21
2624.741332932269
 31
0.0
  0
LINE
  5
929
330
1F
100
AcDbEntity
  8
Visible (ISO)
100
AcDbLine
 10
13619.4131069887
 20
2624.741332932274
 30
0.0
 11
15240.41310698867
 21
2624.741332932274
 31
0.0
  0
LINE
  5
92A
330
1F
100
AcDbEntity
  8
Visible (ISO)
100
AcDbLine
 10
15259.41310698867
 20
2624.741332932267
 30
0.0
 11
15240.41310698867
 21
2624.741332932272
 31
0.0
  0
ARC
  5
92B
330
1F
100
AcDbEntity
  8
Visible (ISO)
100
AcDbCircle
 10
13600.4131069887
 20
3118.741332932261
 30
0.0
 40
5.999999999999847
100
AcDbArc
 50
90.0
 51
180.0
  0
LINE
  5
92C
330
1F
100
AcDbEntity
  8
Visible (ISO)
100
AcDbLine
 10
15265.41310698867
 20
2630.741332932267
 30
0.0
 11
15265.41310698867
 21
3118.741332932259
 31
0.0
  0
LINE
  5
92D
330
1F
100
AcDbEntity
  8
Visible (ISO)
100
AcDbLine
 10
13594.4131069887
 20
3118.741332932261
 30
0.0
 11
13594.4131069887
 21
2630.741332932268
 31
0.0
  0
ARC
  5
92E
330
1F
100
AcDbEntity
  8
Visible (ISO)
100
AcDbCircle
 10
13608.9131069887
 20
2606.741332932259
 30
0.0
 40
6.000000000000056
100
AcDbArc
 50
180.0
 51
270.0
  0
LINE
  5
92F
330
1F
100
AcDbEntity
  8
Visible (ISO)
100
AcDbLine
 10
13602.9131069887
 20
2606.741332932259
 30
0.0
 11
13602.9131069887
 21
2624.74133293226
 31
0.0
  0
ARC
  5
930
330
1F
100
AcDbEntity
  8
Visible (ISO)
100
AcDbCircle
 10
14146.9131069887
 20
2606.741332932261
 30
0.0
 40
6.000000000000023
100
AcDbArc
 50
270.0
 51
0.0
  0
LINE
  5
931
330
1F
100
AcDbEntity
  8
Visible (ISO)
100
AcDbLine
 10
14152.9131069887
 20
2624.74133293226
 30
0.0
 11
14152.9131069887
 21
2606.741332932261
 31
0.0
  0
LINE
  5
932
330
1F
100
AcDbEntity
  8
Visible (ISO)
100
AcDbLine
 10
13608.9131069887
 20
2600.741332932259
 30
0.0
 11
14146.9131069887
 21
2600.741332932261
 31
0.0
  0
ARC
  5
933
330
1F
100
AcDbEntity
  8
Visible (ISO)
100
AcDbCircle
 10
14160.9131069887
 20
2606.741332932261
 30
0.0
 40
6.000000000000094
100
AcDbArc
 50
180.0
 51
270.0
  0
LINE
  5
934
330
1F
100
AcDbEntity
  8
Visible (ISO)
100
AcDbLine
 10
14154.9131069887
 20
2606.741332932261
 30
0.0
 11
14154.9131069887
 21
2624.74133293226
 31
0.0
  0
ARC
  5
935
330
1F
100
AcDbEntity
  8
Visible (ISO)
100
AcDbCircle
 10
14698.9131069887
 20
2606.741332932263
 30
0.0
 40
5.999999999999988
100
AcDbArc
 50
270.0
 51
0.0
  0
LINE
  5
936
330
1F
100
AcDbEntity
  8
Visible (ISO)
100
AcDbLine
 10
14704.9131069887
 20
2624.74133293226
 30
0.0
 11
14704.9131069887
 21
2606.741332932261
 31
0.0
  0
LINE
  5
937
330
1F
100
AcDbEntity
  8
Visible (ISO)
100
AcDbLine
 10
14160.9131069887
 20
2600.741332932261
 30
0.0
 11
14698.9131069887
 21
2600.741332932262
 31
0.0
  0
ARC
  5
938
330
1F
100
AcDbEntity
  8
Visible (ISO)
100
AcDbCircle
 10
14712.9131069887
 20
2606.741332932263
 30
0.0
 40
6.000000000000094
100
AcDbArc
 50
180.0
 51
270.0
  0
LINE
  5
939
330
1F
100
AcDbEntity
  8
Visible (ISO)
100
AcDbLine
 10
14706.9131069887
 20
2606.741332932261
 30
0.0
 11
14706.9131069887
 21
2624.74133293226
 31
0.0
  0
ARC
  5
93A
330
1F
100
AcDbEntity
  8
Visible (ISO)
100
AcDbCircle
 10
15250.9131069887
 20
2606.741332932263
 30
0.0
 40
5.999999999999986
100
AcDbArc
 50
270.0
 51
0.0
  0
LINE
  5
93B
330
1F
100
AcDbEntity
  8
Visible (ISO)
100
AcDbLine
 10
15256.9131069887
 20
2624.74133293226
 30
0.0
 11
15256.9131069887
 21
2606.741332932263
 31
0.0
  0
LINE
  5
93C
330
1F
100
AcDbEntity
  8
Visible (ISO)
100
AcDbLine
 10
14712.9131069887
 20
2600.741332932262
 30
0.0
 11
15250.9131069887
 21
2600.741332932265
 31
0.0
  0
LINE
  5
93D
330
1F
100
AcDbEntity
  8
Visible (ISO)
100
AcDbLine
 10
14704.9131069887
 20
2619.741332932246
 30
0.0
 11
14706.29094725147
 21
2619.741332932243
 31
0.0
  0
LINE
  5
93E
330
1F
100
AcDbEntity
  8
Visible (ISO)
100
AcDbLine
 10
14706.29094725147
 20
2624.741332932237
 30
0.0
 11
14706.29094725147
 21
2619.741332932245
 31
0.0
  0
ARC
  5
93F
330
1F
100
AcDbEntity
  8
Visible (ISO)
100
AcDbCircle
 10
11471.90355126789
 20
3121.2660257346
 30
0.0
 40
6.000000000000007
100
AcDbArc
 50
180.0
 51
270.0
  0
ARC
  5
940
330
1F
100
AcDbEntity
  8
Visible (ISO)
100
AcDbCircle
 10
11959.90355126788
 20
3121.2660257346
 30
0.0
 40
5.999999999999912
100
AcDbArc
 50
270.0
 51
0.0
  0
LINE
  5
941
330
1F
100
AcDbEntity
  8
Visible (ISO)
100
AcDbLine
 10
11465.90355126789
 20
3122.2660257346
 30
0.0
 11
11465.90355126789
 21
3121.2660257346
 31
0.0
  0
LINE
  5
942
330
1F
100
AcDbEntity
  8
Visible (ISO)
100
AcDbLine
 10
11965.90355126788
 20
3121.2660257346
 30
0.0
 11
11965.90355126788
 21
3122.2660257346
 31
0.0
  0
LINE
  5
943
330
1F
100
AcDbEntity
  8
Visible (ISO)
100
AcDbLine
 10
11965.90355126788
 20
3141.2660257346
 30
0.0
 11
11965.90355126788
 21
3122.2660257346
 31
0.0
  0
ARC
  5
944
330
1F
100
AcDbEntity
  8
Visible (ISO)
100
AcDbCircle
 10
11471.90355126788
 20
3141.2660257346
 30
0.0
 40
5.999999999999982
100
AcDbArc
 50
90.0
 51
180.0
  0
LINE
  5
945
330
1F
100
AcDbEntity
  8
Visible (ISO)
100
AcDbLine
 10
11465.90355126789
 20
3122.2660257346
 30
0.0
 11
11465.90355126788
 21
3141.2660257346
 31
0.0
  0
ARC
  5
946
330
1F
100
AcDbEntity
  8
Visible (ISO)
100
AcDbCircle
 10
11959.90355126788
 20
3141.2660257346
 30
0.0
 40
5.999999999999947
100
AcDbArc
 50
0.0
 51
90.0
  0
LINE
  5
947
330
1F
100
AcDbEntity
  8
Visible (ISO)
100
AcDbLine
 10
11959.90355126788
 20
3147.2660257346
 30
0.0
 11
11471.90355126788
 21
3147.2660257346
 31
0.0
  0
ARC
  5
948
330
1F
100
AcDbEntity
  8
Visible (ISO)
100
AcDbCircle
 10
11959.90355126789
 20
3109.266025734604
 30
0.0
 40
6.000000000000013
100
AcDbArc
 50
0.0
 51
90.0
  0
ARC
  5
949
330
1F
100
AcDbEntity
  8
Visible (ISO)
100
AcDbCircle
 10
11471.90355126789
 20
3109.266025734604
 30
0.0
 40
6.000000000000013
100
AcDbArc
 50
90.0
 51
180.0
  0
LINE
  5
94A
330
1F
100
AcDbEntity
  8
Visible (ISO)
100
AcDbLine
 10
11965.90355126789
 20
3109.266025734604
 30
0.0
 11
11965.9035512679
 21
3090.266025734603
 31
0.0
  0
LINE
  5
94B
330
1F
100
AcDbEntity
  8
Visible (ISO)
100
AcDbLine
 10
11965.9035512679
 20
2512.266025734604
 30
0.0
 11
11965.9035512679
 21
3090.266025734603
 31
0.0
  0
ARC
  5
94C
330
1F
100
AcDbEntity
  8
Visible (ISO)
100
AcDbCircle
 10
11959.90355126789
 20
2503.266025734604
 30
0.0
 40
5.999999999999976
100
AcDbArc
 50
270.0
 51
0.0
  0
LINE
  5
94D
330
1F
100
AcDbEntity
  8
Visible (ISO)
100
AcDbLine
 10
11965.9035512679
 20
2512.266025734604
 30
0.0
 11
11965.9035512679
 21
2503.266025734604
 31
0.0
  0
LINE
  5
94E
330
1F
100
AcDbEntity
  8
Visible (ISO)
100
AcDbLine
 10
11465.9035512679
 20
3090.266025734603
 30
0.0
 11
11465.90355126789
 21
3109.266025734604
 31
0.0
  0
LINE
  5
94F
330
1F
100
AcDbEntity
  8
Visible (ISO)
100
AcDbLine
 10
11465.9035512679
 20
3090.266025734603
 30
0.0
 11
11465.9035512679
 21
2512.266025734604
 31
0.0
  0
ARC
  5
950
330
1F
100
AcDbEntity
  8
Visible (ISO)
100
AcDbCircle
 10
11471.90355126789
 20
2503.266025734604
 30
0.0
 40
6.000000000000084
100
AcDbArc
 50
180.0
 51
270.0
  0
LINE
  5
951
330
1F
100
AcDbEntity
  8
Visible (ISO)
100
AcDbLine
 10
11465.90355126789
 20
2503.266025734604
 30
0.0
 11
11465.9035512679
 21
2512.266025734604
 31
0.0
  0
LINE
  5
952
330
1F
100
AcDbEntity
  8
Visible (ISO)
100
AcDbLine
 10
11959.90355126789
 20
3115.266025734604
 30
0.0
 11
11471.90355126789
 21
3115.266025734604
 31
0.0
  0
LINE
  5
953
330
1F
100
AcDbEntity
  8
Visible (ISO)
100
AcDbLine
 10
11471.90355126789
 20
2497.266025734603
 30
0.0
 11
11959.90355126789
 21
2497.266025734603
 31
0.0
  0
LINE
  5
954
330
1F
100
AcDbEntity
  8
Visible (ISO)
100
AcDbLine
 10
11467.43141531289
 20
3113.266025734601
 30
0.0
 11
11466.90355126789
 21
3113.266025734601
 31
0.0
  0
ARC
  5
955
330
1F
100
AcDbEntity
  8
Visible (ISO)
100
AcDbCircle
 10
11466.90355126789
 20
2662.266025734601
 30
0.0
 40
24.99999999999998
100
AcDbArc
 50
180.0
 51
267.7075572239941
  0
LINE
  5
956
330
1F
100
AcDbEntity
  8
Visible (ISO)
100
AcDbLine
 10
11441.90355126789
 20
3088.266025734601
 30
0.0
 11
11441.90355126789
 21
2662.266025734601
 31
0.0
  0
ARC
  5
957
330
1F
100
AcDbEntity
  8
Visible (ISO)
100
AcDbCircle
 10
11466.90355126789
 20
3088.266025734601
 30
0.0
 40
25.00000000000004
100
AcDbArc
 50
90.0
 51
180.0
  0
MTEXT
  5
A5F
330
1F
100
AcDbEntity
  8
Text
370
     9
100
AcDbMText
 10
10421.09140067057
 20
2778.938369004482
 30
0.0
 40
160.0842719051806
 41
647.4567212677968
 46
0.0
 71
     7
 72
     1
  1
{\fApercu|b1|i0|c0|p34;\W1.0004;65}
 73
     1
 44
1.0
  0
MTEXT
  5
A66
330
1F
100
AcDbEntity
  8
Text
370
     9
100
AcDbMText
 10
14306.16492727103
 20
3402.376762733566
 30
0.0
 40
160.0842719051806
 41
647.4567212677968
 46
0.0
 71
     7
 72
     1
  1
{\fApercu|b1|i0|c0|p34;\W1.0004;172}
 73
     1
 44
1.0
  0
MTEXT
  5
A67
330
1F
100
AcDbEntity
  8
Text
370
     9
100
AcDbMText
 10
11584.18041078799
 20
3417.740053405556
 30
0.0
 40
160.0842719051806
 41
647.4567212677968
 46
0.0
 71
     7
 72
     1
  1
{\fApercu|b1|i0|c0|p34;\W1.0004;52}
 73
     1
 44
1.0
  0
MTEXT
  5
A68
330
1F
100
AcDbEntity
  8
Text
370
     9
100
AcDbMText
 10
15485.2749157923
 20
2790.269852089929
 30
0.0
 40
160.0842719051806
 41
647.4567212677968
 46
0.0
 71
     7
 72
     1
  1
{\fApercu|b1|i0|c0|p34;\W1.0004;52}
 73
     1
 44
1.0
  0
MTEXT
  5
A6F
330
1F
100
AcDbEntity
  8
Text
370
     9
100
AcDbMText
 10
14100.03375373537
 20
2136.663801965084
 30
0.0
 40
160.0842719051806
 41
647.4567212677968
 46
0.0
 71
     7
 72
     1
  1
{\fApercu|b1|i0|c0|p34;\W1.0004;OLV172}
 73
     1
 44
1.0
  0
ARC
  5
AA6
330
1F
100
AcDbEntity
  8
Visible (ISO)
100
AcDbCircle
 10
16745.72849648836
 20
3118.741336812236
 30
0.0
 40
6.000000000000062
100
AcDbArc
 50
60.00000000001574
 51
90.0
  0
ARC
  5
AA7
330
1F
100
AcDbEntity
  8
Visible (ISO)
100
AcDbCircle
 10
16745.72849648836
 20
2630.741336812241
 30
0.0
 40
6.000000000000002
100
AcDbArc
 50
270.0
 51
299.9999999997907
  0
LINE
  5
AA8
330
1F
100
AcDbEntity
  8
Visible (ISO)
100
AcDbLine
 10
16744.72849648836
 20
2624.74133681224
 30
0.0
 11
16745.72849648836
 21
2624.74133681224
 31
0.0
  0
LINE
  5
AA9
330
1F
100
AcDbEntity
  8
Visible (ISO)
100
AcDbLine
 10
16745.72849648836
 20
3124.741336812236
 30
0.0
 11
16744.72849648836
 21
3124.741336812236
 31
0.0
  0
ARC
  5
AAA
330
1F
100
AcDbEntity
  8
Visible (ISO)
100
AcDbCircle
 10
16725.72849648836
 20
2630.741336812241
 30
0.0
 40
6.000000000000028
100
AcDbArc
 50
180.0
 51
270.0
  0
LINE
  5
AAB
330
1F
100
AcDbEntity
  8
Visible (ISO)
100
AcDbLine
 10
16744.72849648836
 20
2624.74133681224
 30
0.0
 11
16725.72849648836
 21
2624.74133681224
 31
0.0
  0
ARC
  5
AAC
330
1F
100
AcDbEntity
  8
Visible (ISO)
100
AcDbCircle
 10
16725.72849648836
 20
3118.741336812236
 30
0.0
 40
6.000000000000072
100
AcDbArc
 50
90.0
 51
180.0
  0
LINE
  5
AAD
330
1F
100
AcDbEntity
  8
Visible (ISO)
100
AcDbLine
 10
16725.72849648836
 20
3124.741336812236
 30
0.0
 11
16744.72849648836
 21
3124.741336812236
 31
0.0
  0
LINE
  5
AAE
330
1F
100
AcDbEntity
  8
Visible (ISO)
100
AcDbLine
 10
16719.72849648836
 20
3118.741336812236
 30
0.0
 11
16719.72849648836
 21
2630.741336812241
 31
0.0
  0
ARC
  5
AAF
330
1F
100
AcDbEntity
  8
Visible (ISO)
100
AcDbCircle
 10
18968.72849648845
 20
2630.741336812238
 30
0.0
 40
5.999999999999706
100
AcDbArc
 50
239.9999999992918
 51
270.0
  0
ARC
  5
AB0
330
1F
100
AcDbEntity
  8
Visible (ISO)
100
AcDbCircle
 10
18968.72849648845
 20
3118.741336812234
 30
0.0
 40
5.999999999999469
100
AcDbArc
 50
90.0
 51
120.0000000007082
  0
LINE
  5
AB1
330
1F
100
AcDbEntity
  8
Visible (ISO)
100
AcDbLine
 10
18969.72849648846
 20
3124.741336812233
 30
0.0
 11
18968.72849648845
 21
3124.741336812233
 31
0.0
  0
LINE
  5
AB2
330
1F
100
AcDbEntity
  8
Visible (ISO)
100
AcDbLine
 10
18968.72849648845
 20
2624.741336812238
 30
0.0
 11
18969.72849648846
 21
2624.741336812238
 31
0.0
  0
ARC
  5
AB3
330
1F
100
AcDbEntity
  8
Visible (ISO)
100
AcDbCircle
 10
18988.72849648846
 20
3118.741336812234
 30
0.0
 40
6.000000000000028
100
AcDbArc
 50
0.0
 51
90.0
  0
LINE
  5
AB4
330
1F
100
AcDbEntity
  8
Visible (ISO)
100
AcDbLine
 10
18969.72849648846
 20
3124.741336812233
 30
0.0
 11
18988.72849648846
 21
3124.741336812233
 31
0.0
  0
ARC
  5
AB5
330
1F
100
AcDbEntity
  8
Visible (ISO)
100
AcDbCircle
 10
18988.72849648846
 20
2630.741336812238
 30
0.0
 40
6.000000000000072
100
AcDbArc
 50
270.0
 51
0.0
  0
LINE
  5
AB6
330
1F
100
AcDbEntity
  8
Visible (ISO)
100
AcDbLine
 10
18988.72849648846
 20
2624.741336812238
 30
0.0
 11
18969.72849648846
 21
2624.741336812238
 31
0.0
  0
LINE
  5
AB7
330
1F
100
AcDbEntity
  8
Visible (ISO)
100
AcDbLine
 10
18994.72849648845
 20
2630.741336812238
 30
0.0
 11
18994.72849648845
 21
3118.741336812234
 31
0.0
  0
ARC
  5
AB8
330
1F
100
AcDbEntity
  8
Visible (ISO)
100
AcDbCircle
 10
18962.72849648832
 20
2630.741336812238
 30
0.0
 40
6.000000000000807
100
AcDbArc
 50
270.0
 51
0.0
  0
ARC
  5
AB9
330
1F
100
AcDbEntity
  8
Visible (ISO)
100
AcDbCircle
 10
18962.72849648832
 20
3118.741336812231
 30
0.0
 40
5.999999999999882
100
AcDbArc
 50
0.0
 51
90.0
  0
LINE
  5
ABA
330
1F
100
AcDbEntity
  8
Visible (ISO)
100
AcDbLine
 10
16751.72849648836
 20
3124.741336812233
 30
0.0
 11
16770.72849648835
 21
3124.741336812233
 31
0.0
  0
LINE
  5
ABB
330
1F
100
AcDbEntity
  8
Visible (ISO)
100
AcDbLine
 10
18943.72849648832
 20
3124.741336812231
 30
0.0
 11
16770.72849648835
 21
3124.741336812233
 31
0.0
  0
LINE
  5
ABC
330
1F
100
AcDbEntity
  8
Visible (ISO)
100
AcDbLine
 10
18943.72849648832
 20
3124.741336812231
 30
0.0
 11
18962.72849648832
 21
3124.741336812231
 31
0.0
  0
ARC
  5
ABD
330
1F
100
AcDbEntity
  8
Visible (ISO)
100
AcDbCircle
 10
16751.72849648835
 20
2630.741336812241
 30
0.0
 40
5.999999999999919
100
AcDbArc
 50
180.0
 51
270.0
  0
LINE
  5
ABE
330
1F
100
AcDbEntity
  8
Visible (ISO)
100
AcDbLine
 10
16770.72849648835
 20
2624.74133681224
 30
0.0
 11
16751.72849648836
 21
2624.74133681224
 31
0.0
  0
LINE
  5
ABF
330
1F
100
AcDbEntity
  8
Visible (ISO)
100
AcDbLine
 10
16770.72849648835
 20
2624.74133681224
 30
0.0
 11
18943.72849648832
 21
2624.741336812238
 31
0.0
  0
LINE
  5
AC0
330
1F
100
AcDbEntity
  8
Visible (ISO)
100
AcDbLine
 10
18962.72849648832
 20
2624.741336812238
 30
0.0
 11
18943.72849648832
 21
2624.741336812238
 31
0.0
  0
ARC
  5
AC1
330
1F
100
AcDbEntity
  8
Visible (ISO)
100
AcDbCircle
 10
16751.72849648836
 20
3118.741336812233
 30
0.0
 40
6.00000000000038
100
AcDbArc
 50
90.0
 51
180.0
  0
LINE
  5
AC2
330
1F
100
AcDbEntity
  8
Visible (ISO)
100
AcDbLine
 10
18968.72849648832
 20
2630.741336812238
 30
0.0
 11
18968.72849648832
 21
3118.741336812231
 31
0.0
  0
LINE
  5
AC3
330
1F
100
AcDbEntity
  8
Visible (ISO)
100
AcDbLine
 10
16745.72849648836
 20
3118.741336812232
 30
0.0
 11
16745.72849648836
 21
2630.741336812241
 31
0.0
  0
ARC
  5
AC4
330
1F
100
AcDbEntity
  8
Visible (ISO)
100
AcDbCircle
 10
16760.22849648836
 20
2606.74133681224
 30
0.0
 40
6.000000000000056
100
AcDbArc
 50
180.0
 51
270.0
  0
LINE
  5
AC5
330
1F
100
AcDbEntity
  8
Visible (ISO)
100
AcDbLine
 10
16754.22849648836
 20
2606.741336812242
 30
0.0
 11
16754.22849648836
 21
2624.741336812237
 31
0.0
  0
ARC
  5
AC6
330
1F
100
AcDbEntity
  8
Visible (ISO)
100
AcDbCircle
 10
17298.22849648836
 20
2606.741336812243
 30
0.0
 40
6.000000000000023
100
AcDbArc
 50
270.0
 51
0.0
  0
LINE
  5
AC7
330
1F
100
AcDbEntity
  8
Visible (ISO)
100
AcDbLine
 10
17304.22849648836
 20
2624.741336812236
 30
0.0
 11
17304.22849648836
 21
2606.741336812243
 31
0.0
  0
LINE
  5
AC8
330
1F
100
AcDbEntity
  8
Visible (ISO)
100
AcDbLine
 10
16760.22849648836
 20
2600.74133681224
 30
0.0
 11
17298.22849648836
 21
2600.741336812243
 31
0.0
  0
ARC
  5
AC9
330
1F
100
AcDbEntity
  8
Visible (ISO)
100
AcDbCircle
 10
17864.22849648836
 20
2606.741336812243
 30
0.0
 40
6.000000000000047
100
AcDbArc
 50
180.0
 51
270.0
  0
LINE
  5
ACA
330
1F
100
AcDbEntity
  8
Visible (ISO)
100
AcDbLine
 10
17858.22849648836
 20
2606.741336812245
 30
0.0
 11
17858.22849648836
 21
2624.741336812236
 31
0.0
  0
ARC
  5
ACB
330
1F
100
AcDbEntity
  8
Visible (ISO)
100
AcDbCircle
 10
18402.22849648836
 20
2606.741336812245
 30
0.0
 40
6.000000000000013
100
AcDbArc
 50
270.0
 51
0.0
  0
LINE
  5
ACC
330
1F
100
AcDbEntity
  8
Visible (ISO)
100
AcDbLine
 10
18408.22849648836
 20
2624.741336812235
 30
0.0
 11
18408.22849648836
 21
2606.741336812245
 31
0.0
  0
LINE
  5
ACD
330
1F
100
AcDbEntity
  8
Visible (ISO)
100
AcDbLine
 10
17864.22849648836
 20
2600.741336812244
 30
0.0
 11
18402.22849648836
 21
2600.741336812245
 31
0.0
  0
ARC
  5
ACE
330
1F
100
AcDbEntity
  8
Visible (ISO)
100
AcDbCircle
 10
17312.22849648836
 20
2606.741336812243
 30
0.0
 40
6.000000000000094
100
AcDbArc
 50
180.0
 51
270.0
  0
LINE
  5
ACF
330
1F
100
AcDbEntity
  8
Visible (ISO)
100
AcDbLine
 10
17306.22849648836
 20
2606.741336812243
 30
0.0
 11
17306.22849648836
 21
2624.741336812237
 31
0.0
  0
ARC
  5
AD0
330
1F
100
AcDbEntity
  8
Visible (ISO)
100
AcDbCircle
 10
17850.22849648836
 20
2606.741336812245
 30
0.0
 40
5.999999999999986
100
AcDbArc
 50
270.0
 51
0.0
  0
LINE
  5
AD1
330
1F
100
AcDbEntity
  8
Visible (ISO)
100
AcDbLine
 10
17856.22849648836
 20
2624.741336812237
 30
0.0
 11
17856.22849648836
 21
2606.741336812245
 31
0.0
  0
LINE
  5
AD2
330
1F
100
AcDbEntity
  8
Visible (ISO)
100
AcDbLine
 10
17312.22849648836
 20
2600.741336812243
 30
0.0
 11
17850.22849648836
 21
2600.741336812245
 31
0.0
  0
ARC
  5
AD3
330
1F
100
AcDbEntity
  8
Visible (ISO)
100
AcDbCircle
 10
18416.22849648836
 20
2606.741336812245
 30
0.0
 40
6.000000000000094
100
AcDbArc
 50
180.0
 51
270.0
  0
LINE
  5
AD4
330
1F
100
AcDbEntity
  8
Visible (ISO)
100
AcDbLine
 10
18410.22849648836
 20
2606.741336812245
 30
0.0
 11
18410.22849648836
 21
2624.741336812236
 31
0.0
  0
ARC
  5
AD5
330
1F
100
AcDbEntity
  8
Visible (ISO)
100
AcDbCircle
 10
18954.22849648836
 20
2606.741336812247
 30
0.0
 40
5.999999999999986
100
AcDbArc
 50
270.0
 51
0.0
  0
LINE
  5
AD6
330
1F
100
AcDbEntity
  8
Visible (ISO)
100
AcDbLine
 10
18960.22849648836
 20
2624.741336812235
 30
0.0
 11
18960.22849648836
 21
2606.741336812247
 31
0.0
  0
LINE
  5
AD7
330
1F
100
AcDbEntity
  8
Visible (ISO)
100
AcDbLine
 10
18416.22849648836
 20
2600.741336812245
 30
0.0
 11
18954.22849648836
 21
2600.741336812247
 31
0.0
  0
MTEXT
  5
AD8
330
1F
100
AcDbEntity
  8
Text
370
     9
100
AcDbMText
 10
17733.48031677068
 20
3402.376766613532
 30
0.0
 40
160.0842719051806
 41
647.4567212677968
 46
0.0
 71
     7
 72
     1
  1
{\fApercu|b1|i0|c0|p34;\W1.0004;227}
 73
     1
 44
1.0
  0
MTEXT
  5
AD9
330
1F
100
AcDbEntity
  8
Text
370
     9
100
AcDbMText
 10
19188.59030529205
 20
2790.269852089929
 30
0.0
 40
160.0842719051806
 41
647.4567212677968
 46
0.0
 71
     7
 72
     1
  1
{\fApercu|b1|i0|c0|p34;\W1.0004;52}
 73
     1
 44
1.0
  0
MTEXT
  5
ADA
330
1F
100
AcDbEntity
  8
Text
370
     9
100
AcDbMText
 10
17534.34914323503
 20
2136.663805845067
 30
0.0
 40
160.0842719051806
 41
647.4567212677968
 46
0.0
 71
     7
 72
     1
  1
{\fApercu|b1|i0|c0|p34;\W1.0004;OLV227}
 73
     1
 44
1.0
  0
MTEXT
  5
BE6
330
1F
100
AcDbEntity
  8
Text
370
     9
100
AcDbMText
 10
6160.955669443438
 20
1000.20034988783
 30
0.0
 40
180.3840308053828
 41
3245.842584258904
 46
215.8401516866759
 71
     7
 72
     1
  1
Console Table w/ Drawers
 73
     1
 44
1.0
  0
POLYLINE
  5
BE7
330
1F
100
AcDbEntity
  8
Text
370
     9
100
AcDb2dPolyline
 66
     1
 10
0.0
 20
0.0
 30
0.0
  0
VERTEX
  5
BE8
330
BE7
100
AcDbEntity
  8
Text
370
     9
100
AcDbVertex
100
AcDb2dVertex
 10
6160.955669443436
 20
1608.73337490406
 30
0.0
  0
VERTEX
  5
BE9
330
BE7
100
AcDbEntity
  8
Text
370
     9
100
AcDbVertex
100
AcDb2dVertex
 10
26666.42430245068
 20
1608.73337490406
 30
0.0
  0
SEQEND
  5
BEA
330
BE7
100
AcDbEntity
  8
Text
370
     9
  0
ARC
  5
BEB
330
1F
100
AcDbEntity
  8
Visible (ISO)
100
AcDbCircle
 10
8534.263272500753
 20
235.9407698371915
 30
0.0
 40
6.000000000000002
100
AcDbArc
 50
0.0
 51
90.0
  0
LINE
  5
BEC
330
1F
100
AcDbEntity
  8
Visible (ISO)
100
AcDbLine
 10
8534.263272500753
 20
241.9407698371915
 30
0.0
 11
8533.263272500754
 21
241.9407698371915
 31
0.0
  0
ARC
  5
BED
330
1F
100
AcDbEntity
  8
Visible (ISO)
100
AcDbCircle
 10
8533.263272500754
 20
216.9407698371915
 30
0.0
 40
24.99999999999995
100
AcDbArc
 50
90.0
 51
180.0
  0
LINE
  5
BEE
330
1F
100
AcDbEntity
  8
Visible (ISO)
100
AcDbLine
 10
8508.263272500753
 20
216.9407698371915
 30
0.0
 11
8508.263272500753
 21
-361.0592301628049
 31
0.0
  0
ARC
  5
BEF
330
1F
100
AcDbEntity
  8
Visible (ISO)
100
AcDbCircle
 10
8523.263272500754
 20
-361.0592301628049
 30
0.0
 40
14.99999999999995
100
AcDbArc
 50
180.0
 51
270.0
  0
LINE
  5
BF0
330
1F
100
AcDbEntity
  8
Visible (ISO)
100
AcDbLine
 10
8523.263272500754
 20
-376.0592301628049
 30
0.0
 11
8525.263272500753
 21
-376.0592301628049
 31
0.0
  0
ARC
  5
BF1
330
1F
100
AcDbEntity
  8
Visible (ISO)
100
AcDbCircle
 10
8525.263272500753
 20
-361.0592301628049
 30
0.0
 40
14.99999999999993
100
AcDbArc
 50
270.0
 51
0.0
  0
LINE
  5
BF2
330
1F
100
AcDbEntity
  8
Visible (ISO)
100
AcDbLine
 10
8540.263272500753
 20
-361.0592301628049
 30
0.0
 11
8540.263272500753
 21
235.9407698371915
 31
0.0
  0
ARC
  5
BF3
330
1F
100
AcDbEntity
  8
Visible (ISO)
100
AcDbCircle
 10
10205.26327250075
 20
235.9407698371951
 30
0.0
 40
5.999999999999943
100
AcDbArc
 50
90.0
 51
180.0
  0
LINE
  5
BF4
330
1F
100
AcDbEntity
  8
Visible (ISO)
100
AcDbLine
 10
10206.26327250076
 20
241.9407698371951
 30
0.0
 11
10205.26327250075
 21
241.9407698371951
 31
0.0
  0
ARC
  5
BF5
330
1F
100
AcDbEntity
  8
Visible (ISO)
100
AcDbCircle
 10
10216.26327250076
 20
-361.0592301628049
 30
0.0
 40
14.99999999999996
100
AcDbArc
 50
270.0
 51
0.0
  0
LINE
  5
BF6
330
1F
100
AcDbEntity
  8
Visible (ISO)
100
AcDbLine
 10
10231.26327250075
 20
-361.0592301628049
 30
0.0
 11
10231.26327250076
 21
216.9407698371951
 31
0.0
  0
ARC
  5
BF7
330
1F
100
AcDbEntity
  8
Visible (ISO)
100
AcDbCircle
 10
10206.26327250075
 20
216.9407698371951
 30
0.0
 40
25.0
100
AcDbArc
 50
0.0
 51
90.0
  0
LINE
  5
BF8
330
1F
100
AcDbEntity
  8
Visible (ISO)
100
AcDbLine
 10
10214.26327250075
 20
-376.0592301628049
 30
0.0
 11
10216.26327250076
 21
-376.0592301628049
 31
0.0
  0
ARC
  5
BF9
330
1F
100
AcDbEntity
  8
Visible (ISO)
100
AcDbCircle
 10
10214.26327250075
 20
-361.0592301628049
 30
0.0
 40
14.99999999999998
100
AcDbArc
 50
180.0
 51
270.0
  0
LINE
  5
BFA
330
1F
100
AcDbEntity
  8
Visible (ISO)
100
AcDbLine
 10
10199.26327250076
 20
235.9407698371951
 30
0.0
 11
10199.26327250076
 21
-361.0592301628049
 31
0.0
  0
ARC
  5
BFB
330
1F
100
AcDbEntity
  8
Visible (ISO)
100
AcDbCircle
 10
8540.263272500753
 20
247.9407698371915
 30
0.0
 40
5.999999999999835
100
AcDbArc
 50
180.0
 51
270.0
  0
LINE
  5
BFC
330
1F
100
AcDbEntity
  8
Visible (ISO)
100
AcDbLine
 10
8540.263272500753
 20
241.9407698371915
 30
0.0
 11
10199.26327250072
 21
241.9407698371915
 31
0.0
  0
ARC
  5
BFD
330
1F
100
AcDbEntity
  8
Visible (ISO)
100
AcDbCircle
 10
10199.26327250072
 20
247.9407698371915
 30
0.0
 40
5.99999999999991
100
AcDbArc
 50
270.0
 51
0.0
  0
LINE
  5
BFE
330
1F
100
AcDbEntity
  8
Visible (ISO)
100
AcDbLine
 10
10205.26327250072
 20
247.9407698371915
 30
0.0
 11
10205.26327250072
 21
248.9407698371915
 31
0.0
  0
LINE
  5
BFF
330
1F
100
AcDbEntity
  8
Visible (ISO)
100
AcDbLine
 10
8534.263272500753
 20
248.9407698371915
 30
0.0
 11
8534.263272500753
 21
247.9407698371915
 31
0.0
  0
ARC
  5
C00
330
1F
100
AcDbEntity
  8
Visible (ISO)
100
AcDbCircle
 10
8559.263272500754
 20
248.9407698371915
 30
0.0
 40
24.99999999999988
100
AcDbArc
 50
90.0
 51
180.0
  0
LINE
  5
C01
330
1F
100
AcDbEntity
  8
Visible (ISO)
100
AcDbLine
 10
10180.26327250072
 20
273.9407698371915
 30
0.0
 11
8559.263272500754
 21
273.9407698371915
 31
0.0
  0
ARC
  5
C02
330
1F
100
AcDbEntity
  8
Visible (ISO)
100
AcDbCircle
 10
10180.26327250072
 20
248.9407698371915
 30
0.0
 40
24.99999999999973
100
AcDbArc
 50
0.0
 51
90.0
  0
LINE
  5
C03
330
1F
100
AcDbEntity
  8
Visible (ISO)
100
AcDbLine
 10
8542.263272500743
 20
241.9407698371915
 30
0.0
 11
8545.337449228627
 21
238.8665931093083
 31
0.0
  0
LINE
  5
C04
330
1F
100
AcDbEntity
  8
Visible (ISO)
100
AcDbLine
 10
8542.763272500755
 20
-205.5592301628185
 30
0.0
 11
8540.263272500753
 21
-208.0592301628185
 31
0.0
  0
LINE
  5
C05
330
1F
100
AcDbEntity
  8
Visible (ISO)
100
AcDbLine
 10
8540.263272500753
 20
235.9407698371933
 30
0.0
 11
8540.263272500753
 21
241.9407698371915
 31
0.0
  0
LINE
  5
C06
330
1F
100
AcDbEntity
  8
Visible (ISO)
100
AcDbLine
 10
10199.26327250076
 20
-208.0592301628108
 30
0.0
 11
10196.76327250075
 21
-205.5592301628076
 31
0.0
  0
LINE
  5
C07
330
1F
100
AcDbEntity
  8
Visible (ISO)
100
AcDbLine
 10
10196.76327250075
 20
233.440769837187
 30
0.0
 11
10199.26327250076
 21
235.9407698371915
 31
0.0
  0
ARC
  5
C08
330
1F
100
AcDbEntity
  8
Visible (ISO)
100
AcDbCircle
 10
9088.013272500754
 20
234.440769837187
 30
0.0
 40
5.000000000000391
100
AcDbArc
 50
341.8051276604169
 51
68.76755576825456
  0
LINE
  5
C09
330
1F
100
AcDbEntity
  8
Visible (ISO)
100
AcDbLine
 10
8545.337449228599
 20
238.8665931093365
 30
0.0
 11
8542.263272500752
 21
241.9407698371824
 31
0.0
  0
LINE
  5
C0A
330
1F
100
AcDbEntity
  8
Visible (ISO)
100
AcDbLine
 10
10201.26327250088
 20
241.9407698372006
 30
0.0
 11
10196.06759118589
 21
236.7450885222133
 31
0.0
  0
LINE
  5
C0B
330
1F
100
AcDbEntity
  8
Visible (ISO)
100
AcDbLine
 10
9092.763272500736
 20
224.940769837186
 30
0.0
 11
9094.763272500735
 21
224.940769837186
 31
0.0
  0
LINE
  5
C0C
330
1F
100
AcDbEntity
  8
Visible (ISO)
100
AcDbLine
 10
9644.763272500775
 20
224.9407698371933
 30
0.0
 11
9646.763272500779
 21
224.9407698371933
 31
0.0
  0
LINE
  5
C0D
330
1F
100
AcDbEntity
  8
Visible (ISO)
100
AcDbLine
 10
10199.2632725008
 20
241.9407698372006
 30
0.0
 11
10201.26327250088
 21
241.9407698372006
 31
0.0
  0
LINE
  5
C0E
330
1F
100
AcDbEntity
  8
Visible (ISO)
100
AcDbLine
 10
9646.763272500757
 20
-191.0592301628198
 30
0.0
 11
9644.763272500757
 21
-191.0592301628198
 31
0.0
  0
LINE
  5
C0F
330
1F
100
AcDbEntity
  8
Visible (ISO)
100
AcDbLine
 10
9094.763272500756
 20
-191.0592301628198
 30
0.0
 11
9092.763272500754
 21
-191.0592301628198
 31
0.0
  0
LINE
  5
C10
330
1F
100
AcDbEntity
  8
Visible (ISO)
100
AcDbLine
 10
10199.26327250075
 20
-208.0592301628207
 30
0.0
 11
10196.76327250075
 21
-208.0592301628207
 31
0.0
  0
LINE
  5
C11
330
1F
100
AcDbEntity
  8
Visible (ISO)
100
AcDbLine
 10
9646.763272500757
 20
-208.0592301628207
 30
0.0
 11
9644.763272500757
 21
-208.0592301628207
 31
0.0
  0
LINE
  5
C12
330
1F
100
AcDbEntity
  8
Visible (ISO)
100
AcDbLine
 10
9094.763272500756
 20
-208.0592301628199
 30
0.0
 11
9092.763272500754
 21
-208.0592301628199
 31
0.0
  0
LINE
  5
C13
330
1F
100
AcDbEntity
  8
Visible (ISO)
100
AcDbLine
 10
8542.763272500756
 20
-208.0592301628185
 30
0.0
 11
8540.263272500753
 21
-208.0592301628185
 31
0.0
  0
LINE
  5
C14
330
1F
100
AcDbEntity
  8
Visible (ISO)
100
AcDbLine
 10
8540.263272500753
 20
-208.0592301628185
 30
0.0
 11
8542.763272500755
 21
-205.5592301628176
 31
0.0
  0
LINE
  5
C15
330
1F
100
AcDbEntity
  8
Visible (ISO)
100
AcDbLine
 10
10196.76327250075
 20
-205.559230162824
 30
0.0
 11
10199.26327250075
 21
-208.0592301628207
 31
0.0
  0
LINE
  5
C16
330
1F
100
AcDbEntity
  8
Visible (ISO)
100
AcDbLine
 10
9094.763272500756
 20
-213.0592301628176
 30
0.0
 11
9092.763272500754
 21
-213.0592301628176
 31
0.0
  0
LINE
  5
C17
330
1F
100
AcDbEntity
  8
Visible (ISO)
100
AcDbLine
 10
9092.763272500754
 20
224.9407698371824
 30
0.0
 11
9094.763272500754
 21
224.9407698371824
 31
0.0
  0
LINE
  5
C18
330
1F
100
AcDbEntity
  8
Visible (ISO)
100
AcDbLine
 10
9094.763272500756
 20
-209.0592301628185
 30
0.0
 11
9092.763272500754
 21
-209.0592301628185
 31
0.0
  0
LINE
  5
C19
330
1F
100
AcDbEntity
  8
Visible (ISO)
100
AcDbLine
 10
9644.763272500757
 20
-213.0592301628176
 30
0.0
 11
9646.763272500757
 21
-213.0592301628176
 31
0.0
  0
LINE
  5
C1A
330
1F
100
AcDbEntity
  8
Visible (ISO)
100
AcDbLine
 10
9646.763272500757
 20
-209.0592301628185
 30
0.0
 11
9644.763272500757
 21
-209.0592301628185
 31
0.0
  0
LINE
  5
C1B
330
1F
100
AcDbEntity
  8
Visible (ISO)
100
AcDbLine
 10
9644.763272500753
 20
224.9407698371815
 30
0.0
 11
9646.763272500757
 21
224.9407698371815
 31
0.0
  0
ARC
  5
C1C
330
1F
100
AcDbEntity
  8
Visible (ISO)
100
AcDbCircle
 10
8548.763272500753
 20
233.9407698371924
 30
0.0
 40
5.999999999999986
100
AcDbArc
 50
90.0
 51
180.0
  0
LINE
  5
C1D
330
1F
100
AcDbEntity
  8
Visible (ISO)
100
AcDbLine
 10
8542.763272500755
 20
214.9407698371915
 30
0.0
 11
8542.763272500755
 21
233.9407698371915
 31
0.0
  0
LINE
  5
C1E
330
1F
100
AcDbEntity
  8
Visible (ISO)
100
AcDbLine
 10
8542.763272500755
 20
214.9407698371915
 30
0.0
 11
8542.763272500755
 21
-211.0592301628076
 31
0.0
  0
ARC
  5
C1F
330
1F
100
AcDbEntity
  8
Visible (ISO)
100
AcDbCircle
 10
8548.763272500753
 20
-230.0592301628076
 30
0.0
 40
6.000000000000056
100
AcDbArc
 50
180.0
 51
270.0
  0
LINE
  5
C20
330
1F
100
AcDbEntity
  8
Visible (ISO)
100
AcDbLine
 10
8542.763272500755
 20
-230.0592301628076
 30
0.0
 11
8542.763272500755
 21
-211.0592301628076
 31
0.0
  0
ARC
  5
C21
330
1F
100
AcDbEntity
  8
Visible (ISO)
100
AcDbCircle
 10
9086.763272500757
 20
-230.0592301628076
 30
0.0
 40
6.000000000000023
100
AcDbArc
 50
270.0
 51
0.0
  0
LINE
  5
C22
330
1F
100
AcDbEntity
  8
Visible (ISO)
100
AcDbLine
 10
9092.763272500757
 20
-211.0592301628076
 30
0.0
 11
9092.763272500757
 21
-230.0592301628076
 31
0.0
  0
LINE
  5
C23
330
1F
100
AcDbEntity
  8
Visible (ISO)
100
AcDbLine
 10
9092.763272500757
 20
-211.0592301628076
 30
0.0
 11
9092.763272500757
 21
214.9407698371915
 31
0.0
  0
ARC
  5
C24
330
1F
100
AcDbEntity
  8
Visible (ISO)
100
AcDbCircle
 10
9086.763272500753
 20
233.9407698371924
 30
0.0
 40
6.000000000000128
100
AcDbArc
 50
0.0
 51
90.0
  0
LINE
  5
C25
330
1F
100
AcDbEntity
  8
Visible (ISO)
100
AcDbLine
 10
9092.763272500754
 20
233.9407698371915
 30
0.0
 11
9092.763272500754
 21
214.9407698371915
 31
0.0
  0
LINE
  5
C26
330
1F
100
AcDbEntity
  8
Visible (ISO)
100
AcDbLine
 10
9086.763272500753
 20
239.9407698371915
 30
0.0
 11
8548.763272500753
 21
239.9407698371915
 31
0.0
  0
LINE
  5
C27
330
1F
100
AcDbEntity
  8
Visible (ISO)
100
AcDbLine
 10
8548.763272500753
 20
-236.0592301628076
 30
0.0
 11
9086.763272500757
 21
-236.0592301628076
 31
0.0
  0
ARC
  5
C28
330
1F
100
AcDbEntity
  8
Visible (ISO)
100
AcDbCircle
 10
9100.763272500756
 20
233.9407698371924
 30
0.0
 40
6.000000000000023
100
AcDbArc
 50
90.0
 51
180.0
  0
LINE
  5
C29
330
1F
100
AcDbEntity
  8
Visible (ISO)
100
AcDbLine
 10
9094.763272500754
 20
214.9407698371915
 30
0.0
 11
9094.763272500754
 21
233.9407698371915
 31
0.0
  0
LINE
  5
C2A
330
1F
100
AcDbEntity
  8
Visible (ISO)
100
AcDbLine
 10
9094.763272500756
 20
214.9407698371915
 30
0.0
 11
9094.763272500756
 21
-211.0592301628098
 31
0.0
  0
ARC
  5
C2B
330
1F
100
AcDbEntity
  8
Visible (ISO)
100
AcDbCircle
 10
9100.763272500756
 20
-230.059230162809
 30
0.0
 40
6.000000000000128
100
AcDbArc
 50
180.0
 51
270.0
  0
LINE
  5
C2C
330
1F
100
AcDbEntity
  8
Visible (ISO)
100
AcDbLine
 10
9094.763272500756
 20
-230.059230162809
 30
0.0
 11
9094.763272500756
 21
-211.0592301628098
 31
0.0
  0
ARC
  5
C2D
330
1F
100
AcDbEntity
  8
Visible (ISO)
100
AcDbCircle
 10
9638.763272500758
 20
-230.059230162809
 30
0.0
 40
6.000000000000023
100
AcDbArc
 50
270.0
 51
0.0
  0
LINE
  5
C2E
330
1F
100
AcDbEntity
  8
Visible (ISO)
100
AcDbLine
 10
9644.763272500757
 20
-211.059230162809
 30
0.0
 11
9644.763272500757
 21
-230.059230162809
 31
0.0
  0
LINE
  5
C2F
330
1F
100
AcDbEntity
  8
Visible (ISO)
100
AcDbLine
 10
9644.763272500757
 20
-211.059230162809
 30
0.0
 11
9644.763272500757
 21
214.9407698371924
 31
0.0
  0
ARC
  5
C30
330
1F
100
AcDbEntity
  8
Visible (ISO)
100
AcDbCircle
 10
9638.763272500753
 20
233.9407698371933
 30
0.0
 40
6.000000000000094
100
AcDbArc
 50
0.0
 51
90.0
  0
LINE
  5
C31
330
1F
100
AcDbEntity
  8
Visible (ISO)
100
AcDbLine
 10
9644.763272500757
 20
233.9407698371933
 30
0.0
 11
9644.763272500757
 21
214.9407698371924
 31
0.0
  0
LINE
  5
C32
330
1F
100
AcDbEntity
  8
Visible (ISO)
100
AcDbLine
 10
9638.763272500753
 20
239.9407698371924
 30
0.0
 11
9100.763272500756
 21
239.9407698371915
 31
0.0
  0
LINE
  5
C33
330
1F
100
AcDbEntity
  8
Visible (ISO)
100
AcDbLine
 10
9100.763272500756
 20
-236.0592301628098
 30
0.0
 11
9638.763272500758
 21
-236.059230162809
 31
0.0
  0
ARC
  5
C34
330
1F
100
AcDbEntity
  8
Visible (ISO)
100
AcDbCircle
 10
9652.763272500758
 20
233.9407698371933
 30
0.0
 40
6.000000000000023
100
AcDbArc
 50
90.0
 51
180.0
  0
LINE
  5
C35
330
1F
100
AcDbEntity
  8
Visible (ISO)
100
AcDbLine
 10
9646.763272500757
 20
214.9407698371924
 30
0.0
 11
9646.763272500757
 21
233.9407698371933
 31
0.0
  0
LINE
  5
C36
330
1F
100
AcDbEntity
  8
Visible (ISO)
100
AcDbLine
 10
9646.763272500757
 20
214.9407698371924
 30
0.0
 11
9646.763272500757
 21
-211.0592301628076
 31
0.0
  0
ARC
  5
C37
330
1F
100
AcDbEntity
  8
Visible (ISO)
100
AcDbCircle
 10
9652.763272500758
 20
-230.0592301628076
 30
0.0
 40
6.000000000000127
100
AcDbArc
 50
180.0
 51
270.0
  0
LINE
  5
C38
330
1F
100
AcDbEntity
  8
Visible (ISO)
100
AcDbLine
 10
9646.763272500757
 20
-230.0592301628076
 30
0.0
 11
9646.763272500757
 21
-211.0592301628076
 31
0.0
  0
ARC
  5
C39
330
1F
100
AcDbEntity
  8
Visible (ISO)
100
AcDbCircle
 10
10190.76327250076
 20
-230.0592301628067
 30
0.0
 40
6.000000000000023
100
AcDbArc
 50
270.0
 51
0.0
  0
LINE
  5
C3A
330
1F
100
AcDbEntity
  8
Visible (ISO)
100
AcDbLine
 10
10196.76327250075
 20
-211.0592301628066
 30
0.0
 11
10196.76327250075
 21
-230.0592301628067
 31
0.0
  0
LINE
  5
C3B
330
1F
100
AcDbEntity
  8
Visible (ISO)
100
AcDbLine
 10
10196.76327250075
 20
-211.0592301628066
 30
0.0
 11
10196.76327250075
 21
214.9407698371933
 31
0.0
  0
ARC
  5
C3C
330
1F
100
AcDbEntity
  8
Visible (ISO)
100
AcDbCircle
 10
10190.76327250076
 20
233.9407698371933
 30
0.0
 40
6.000000000000093
100
AcDbArc
 50
0.0
 51
90.0
  0
LINE
  5
C3D
330
1F
100
AcDbEntity
  8
Visible (ISO)
100
AcDbLine
 10
10196.76327250075
 20
233.9407698371933
 30
0.0
 11
10196.76327250075
 21
214.9407698371933
 31
0.0
  0
LINE
  5
C3E
330
1F
100
AcDbEntity
  8
Visible (ISO)
100
AcDbLine
 10
10190.76327250076
 20
239.9407698371933
 30
0.0
 11
9652.763272500758
 21
239.9407698371924
 31
0.0
  0
LINE
  5
C3F
330
1F
100
AcDbEntity
  8
Visible (ISO)
100
AcDbLine
 10
9652.763272500758
 20
-236.059230162809
 30
0.0
 11
10190.76327250076
 21
-236.0592301628066
 31
0.0
  0
ARC
  5
C40
330
1F
100
AcDbEntity
  8
Visible (ISO)
100
AcDbCircle
 10
9628.64111276353
 20
155.9407698371933
 30
0.0
 40
17.49999999999998
100
AcDbArc
 50
337.1119097554863
 51
22.88809024451375
  0
ARC
  5
C41
330
1F
100
AcDbEntity
  8
Visible (ISO)
100
AcDbCircle
 10
9628.64111276353
 20
-152.0592301628076
 30
0.0
 40
17.49999999999997
100
AcDbArc
 50
337.1119097554863
 51
22.88809024451375
  0
LINE
  5
C42
330
1F
100
AcDbEntity
  8
Visible (ISO)
100
AcDbLine
 10
10199.26327250076
 20
-233.0592301628207
 30
0.0
 11
10195.95942492345
 21
-233.0592301628207
 31
0.0
  0
LINE
  5
C43
330
1F
100
AcDbEntity
  8
Visible (ISO)
100
AcDbLine
 10
9647.567120078058
 20
-233.0592301628207
 30
0.0
 11
9643.959424923455
 21
-233.0592301628207
 31
0.0
  0
LINE
  5
C44
330
1F
100
AcDbEntity
  8
Visible (ISO)
100
AcDbLine
 10
9095.567120078056
 20
-233.0592301628199
 30
0.0
 11
9091.959424923455
 21
-233.0592301628199
 31
0.0
  0
LINE
  5
C45
330
1F
100
AcDbEntity
  8
Visible (ISO)
100
AcDbLine
 10
8543.567120078057
 20
-233.0592301628185
 30
0.0
 11
8540.263272500757
 21
-233.0592301628185
 31
0.0
  0
ARC
  5
C46
330
1F
100
AcDbEntity
  8
Visible (ISO)
100
AcDbCircle
 10
13594.20635051521
 20
239.5891532883265
 30
0.0
 40
5.999999999999922
100
AcDbArc
 50
60.00000000011902
 51
90.0
  0
ARC
  5
C47
330
1F
100
AcDbEntity
  8
Visible (ISO)
100
AcDbCircle
 10
13594.20635051521
 20
-248.4108467116684
 30
0.0
 40
5.999999999999397
100
AcDbArc
 50
270.0
 51
299.999999999881
  0
LINE
  5
C48
330
1F
100
AcDbEntity
  8
Visible (ISO)
100
AcDbLine
 10
13593.20635051521
 20
-254.4108467116684
 30
0.0
 11
13594.20635051521
 21
-254.4108467116684
 31
0.0
  0
LINE
  5
C49
330
1F
100
AcDbEntity
  8
Visible (ISO)
100
AcDbLine
 10
13594.20635051521
 20
245.5891532883265
 30
0.0
 11
13593.20635051521
 21
245.5891532883265
 31
0.0
  0
ARC
  5
C4A
330
1F
100
AcDbEntity
  8
Visible (ISO)
100
AcDbCircle
 10
13574.20635051521
 20
-248.4108467116735
 30
0.0
 40
6.000000000000028
100
AcDbArc
 50
180.0
 51
270.0
  0
LINE
  5
C4B
330
1F
100
AcDbEntity
  8
Visible (ISO)
100
AcDbLine
 10
13593.20635051521
 20
-254.4108467116684
 30
0.0
 11
13574.20635051521
 21
-254.4108467116743
 31
0.0
  0
ARC
  5
C4C
330
1F
100
AcDbEntity
  8
Visible (ISO)
100
AcDbCircle
 10
13574.20635051521
 20
239.5891532883215
 30
0.0
 40
6.000000000000073
100
AcDbArc
 50
90.0
 51
180.0
  0
LINE
  5
C4D
330
1F
100
AcDbEntity
  8
Visible (ISO)
100
AcDbLine
 10
13574.20635051521
 20
245.5891532883202
 30
0.0
 11
13593.20635051521
 21
245.5891532883265
 31
0.0
  0
LINE
  5
C4E
330
1F
100
AcDbEntity
  8
Visible (ISO)
100
AcDbLine
 10
13568.20635051521
 20
239.5891532883215
 30
0.0
 11
13568.20635051521
 21
-248.4108467116735
 31
0.0
  0
ARC
  5
C4F
330
1F
100
AcDbEntity
  8
Visible (ISO)
100
AcDbCircle
 10
15265.20635051521
 20
-248.4108467116684
 30
0.0
 40
5.999999999999446
100
AcDbArc
 50
239.9999999999995
 51
270.0
  0
ARC
  5
C50
330
1F
100
AcDbEntity
  8
Visible (ISO)
100
AcDbCircle
 10
15265.20635051521
 20
239.5891532883325
 30
0.0
 40
5.999999999999728
100
AcDbArc
 50
90.0
 51
120.0000000001233
  0
LINE
  5
C51
330
1F
100
AcDbEntity
  8
Visible (ISO)
100
AcDbLine
 10
15266.20635051521
 20
245.5891532883315
 30
0.0
 11
15265.20635051521
 21
245.5891532883315
 31
0.0
  0
LINE
  5
C52
330
1F
100
AcDbEntity
  8
Visible (ISO)
100
AcDbLine
 10
15265.20635051521
 20
-254.4108467116684
 30
0.0
 11
15266.20635051521
 21
-254.4108467116684
 31
0.0
  0
ARC
  5
C53
330
1F
100
AcDbEntity
  8
Visible (ISO)
100
AcDbCircle
 10
15285.20635051521
 20
239.5891532883265
 30
0.0
 40
6.000000000000039
100
AcDbArc
 50
0.0
 51
90.0
  0
LINE
  5
C54
330
1F
100
AcDbEntity
  8
Visible (ISO)
100
AcDbLine
 10
15266.20635051521
 20
245.5891532883315
 30
0.0
 11
15285.20635051521
 21
245.5891532883265
 31
0.0
  0
ARC
  5
C55
330
1F
100
AcDbEntity
  8
Visible (ISO)
100
AcDbCircle
 10
15285.20635051521
 20
-248.4108467116735
 30
0.0
 40
6.000000000000084
100
AcDbArc
 50
270.0
 51
0.0
  0
LINE
  5
C56
330
1F
100
AcDbEntity
  8
Visible (ISO)
100
AcDbLine
 10
15285.20635051521
 20
-254.4108467116735
 30
0.0
 11
15266.20635051521
 21
-254.4108467116684
 31
0.0
  0
LINE
  5
C57
330
1F
100
AcDbEntity
  8
Visible (ISO)
100
AcDbLine
 10
15291.20635051521
 20
-248.4108467116735
 30
0.0
 11
15291.20635051521
 21
239.5891532883265
 31
0.0
  0
ARC
  5
C58
330
1F
100
AcDbEntity
  8
Visible (ISO)
100
AcDbCircle
 10
15259.20635051518
 20
-248.4108467116657
 30
0.0
 40
6.00000000000038
100
AcDbArc
 50
270.0
 51
0.0
  0
ARC
  5
C59
330
1F
100
AcDbEntity
  8
Visible (ISO)
100
AcDbCircle
 10
15259.20635051518
 20
239.5891532883275
 30
0.0
 40
5.999999999999847
100
AcDbArc
 50
0.0
 51
90.0
  0
LINE
  5
C5A
330
1F
100
AcDbEntity
  8
Visible (ISO)
100
AcDbLine
 10
13600.20635051521
 20
245.5891532883275
 30
0.0
 11
13619.20635051521
 21
245.5891532883334
 31
0.0
  0
LINE
  5
C5B
330
1F
100
AcDbEntity
  8
Visible (ISO)
100
AcDbLine
 10
15240.20635051518
 20
245.5891532883324
 30
0.0
 11
13619.2063505152
 21
245.5891532883334
 31
0.0
  0
LINE
  5
C5C
330
1F
100
AcDbEntity
  8
Visible (ISO)
100
AcDbLine
 10
15240.20635051518
 20
245.5891532883324
 30
0.0
 11
15259.20635051518
 21
245.5891532883275
 31
0.0
  0
ARC
  5
C5D
330
1F
100
AcDbEntity
  8
Visible (ISO)
100
AcDbCircle
 10
13600.20635051521
 20
-248.4108467116648
 30
0.0
 40
5.999999999999741
100
AcDbArc
 50
180.0
 51
270.0
  0
LINE
  5
C5E
330
1F
100
AcDbEntity
  8
Visible (ISO)
100
AcDbLine
 10
13619.20635051521
 20
-254.4108467116585
 30
0.0
 11
13600.20635051521
 21
-254.4108467116648
 31
0.0
  0
LINE
  5
C5F
330
1F
100
AcDbEntity
  8
Visible (ISO)
100
AcDbLine
 10
13619.20635051521
 20
-254.4108467116585
 30
0.0
 11
15240.20635051518
 21
-254.4108467116593
 31
0.0
  0
LINE
  5
C60
330
1F
100
AcDbEntity
  8
Visible (ISO)
100
AcDbLine
 10
15259.20635051518
 20
-254.4108467116657
 30
0.0
 11
15240.20635051518
 21
-254.4108467116607
 31
0.0
  0
ARC
  5
C61
330
1F
100
AcDbEntity
  8
Visible (ISO)
100
AcDbCircle
 10
13600.20635051521
 20
239.5891532883283
 30
0.0
 40
5.999999999999847
100
AcDbArc
 50
90.0
 51
180.0
  0
LINE
  5
C62
330
1F
100
AcDbEntity
  8
Visible (ISO)
100
AcDbLine
 10
15265.20635051518
 20
-248.4108467116657
 30
0.0
 11
15265.20635051518
 21
239.5891532883265
 31
0.0
  0
LINE
  5
C63
330
1F
100
AcDbEntity
  8
Visible (ISO)
100
AcDbLine
 10
13594.20635051521
 20
239.5891532883283
 30
0.0
 11
13594.20635051521
 21
-248.4108467116648
 31
0.0
  0
ARC
  5
C64
330
1F
100
AcDbEntity
  8
Visible (ISO)
100
AcDbCircle
 10
13608.70635051521
 20
-272.4108467116744
 30
0.0
 40
6.000000000000056
100
AcDbArc
 50
180.0
 51
270.0
  0
LINE
  5
C65
330
1F
100
AcDbEntity
  8
Visible (ISO)
100
AcDbLine
 10
13602.70635051521
 20
-272.4108467116744
 30
0.0
 11
13602.70635051521
 21
-254.4108467116735
 31
0.0
  0
ARC
  5
C66
330
1F
100
AcDbEntity
  8
Visible (ISO)
100
AcDbCircle
 10
14146.70635051521
 20
-272.4108467116725
 30
0.0
 40
6.000000000000023
100
AcDbArc
 50
270.0
 51
0.0
  0
LINE
  5
C67
330
1F
100
AcDbEntity
  8
Visible (ISO)
100
AcDbLine
 10
14152.70635051521
 20
-254.4108467116735
 30
0.0
 11
14152.70635051521
 21
-272.4108467116725
 31
0.0
  0
LINE
  5
C68
330
1F
100
AcDbEntity
  8
Visible (ISO)
100
AcDbLine
 10
13608.70635051521
 20
-278.4108467116744
 30
0.0
 11
14146.70635051521
 21
-278.4108467116725
 31
0.0
  0
ARC
  5
C69
330
1F
100
AcDbEntity
  8
Visible (ISO)
100
AcDbCircle
 10
14160.70635051521
 20
-272.4108467116725
 30
0.0
 40
6.000000000000094
100
AcDbArc
 50
180.0
 51
270.0
  0
LINE
  5
C6A
330
1F
100
AcDbEntity
  8
Visible (ISO)
100
AcDbLine
 10
14154.70635051521
 20
-272.4108467116725
 30
0.0
 11
14154.70635051521
 21
-254.4108467116735
 31
0.0
  0
ARC
  5
C6B
330
1F
100
AcDbEntity
  8
Visible (ISO)
100
AcDbCircle
 10
14698.70635051521
 20
-272.4108467116707
 30
0.0
 40
5.999999999999988
100
AcDbArc
 50
270.0
 51
0.0
  0
LINE
  5
C6C
330
1F
100
AcDbEntity
  8
Visible (ISO)
100
AcDbLine
 10
14704.70635051521
 20
-254.4108467116735
 30
0.0
 11
14704.70635051521
 21
-272.4108467116717
 31
0.0
  0
LINE
  5
C6D
330
1F
100
AcDbEntity
  8
Visible (ISO)
100
AcDbLine
 10
14160.70635051521
 20
-278.4108467116725
 30
0.0
 11
14698.70635051521
 21
-278.4108467116707
 31
0.0
  0
ARC
  5
C6E
330
1F
100
AcDbEntity
  8
Visible (ISO)
100
AcDbCircle
 10
14712.70635051521
 20
-272.4108467116707
 30
0.0
 40
6.000000000000094
100
AcDbArc
 50
180.0
 51
270.0
  0
LINE
  5
C6F
330
1F
100
AcDbEntity
  8
Visible (ISO)
100
AcDbLine
 10
14706.70635051521
 20
-272.4108467116717
 30
0.0
 11
14706.70635051521
 21
-254.4108467116735
 31
0.0
  0
ARC
  5
C70
330
1F
100
AcDbEntity
  8
Visible (ISO)
100
AcDbCircle
 10
15250.70635051521
 20
-272.4108467116698
 30
0.0
 40
5.999999999999986
100
AcDbArc
 50
270.0
 51
0.0
  0
LINE
  5
C71
330
1F
100
AcDbEntity
  8
Visible (ISO)
100
AcDbLine
 10
15256.70635051521
 20
-254.4108467116735
 30
0.0
 11
15256.70635051521
 21
-272.4108467116698
 31
0.0
  0
LINE
  5
C72
330
1F
100
AcDbEntity
  8
Visible (ISO)
100
AcDbLine
 10
14712.70635051521
 20
-278.4108467116707
 30
0.0
 11
15250.70635051521
 21
-278.4108467116685
 31
0.0
  0
LINE
  5
C73
330
1F
100
AcDbEntity
  8
Visible (ISO)
100
AcDbLine
 10
14704.70635051521
 20
-259.4108467116866
 30
0.0
 11
14706.08419077799
 21
-259.4108467116898
 31
0.0
  0
LINE
  5
C74
330
1F
100
AcDbEntity
  8
Visible (ISO)
100
AcDbLine
 10
14706.08419077799
 20
-254.4108467116966
 30
0.0
 11
14706.08419077799
 21
-259.4108467116885
 31
0.0
  0
ARC
  5
C75
330
1F
100
AcDbEntity
  8
Visible (ISO)
100
AcDbCircle
 10
11471.6967947944
 20
242.1138460906668
 30
0.0
 40
6.000000000000007
100
AcDbArc
 50
180.0
 51
270.0
  0
ARC
  5
C76
330
1F
100
AcDbEntity
  8
Visible (ISO)
100
AcDbCircle
 10
11959.69679479439
 20
242.1138460906668
 30
0.0
 40
5.999999999999912
100
AcDbArc
 50
270.0
 51
0.0
  0
LINE
  5
C77
330
1F
100
AcDbEntity
  8
Visible (ISO)
100
AcDbLine
 10
11465.6967947944
 20
243.1138460906668
 30
0.0
 11
11465.6967947944
 21
242.1138460906668
 31
0.0
  0
LINE
  5
C78
330
1F
100
AcDbEntity
  8
Visible (ISO)
100
AcDbLine
 10
11965.69679479439
 20
242.1138460906668
 30
0.0
 11
11965.69679479439
 21
243.1138460906668
 31
0.0
  0
LINE
  5
C79
330
1F
100
AcDbEntity
  8
Visible (ISO)
100
AcDbLine
 10
11965.69679479439
 20
262.1138460906668
 30
0.0
 11
11965.69679479439
 21
243.1138460906668
 31
0.0
  0
ARC
  5
C7A
330
1F
100
AcDbEntity
  8
Visible (ISO)
100
AcDbCircle
 10
11471.69679479439
 20
262.1138460906668
 30
0.0
 40
5.999999999999982
100
AcDbArc
 50
90.0
 51
180.0
  0
LINE
  5
C7B
330
1F
100
AcDbEntity
  8
Visible (ISO)
100
AcDbLine
 10
11465.6967947944
 20
243.1138460906668
 30
0.0
 11
11465.69679479439
 21
262.1138460906668
 31
0.0
  0
ARC
  5
C7C
330
1F
100
AcDbEntity
  8
Visible (ISO)
100
AcDbCircle
 10
11959.69679479439
 20
262.1138460906668
 30
0.0
 40
5.999999999999947
100
AcDbArc
 50
0.0
 51
90.0
  0
LINE
  5
C7D
330
1F
100
AcDbEntity
  8
Visible (ISO)
100
AcDbLine
 10
11959.69679479439
 20
268.1138460906668
 30
0.0
 11
11471.69679479439
 21
268.1138460906668
 31
0.0
  0
ARC
  5
C7E
330
1F
100
AcDbEntity
  8
Visible (ISO)
100
AcDbCircle
 10
11959.6967947944
 20
230.1138460906705
 30
0.0
 40
6.000000000000013
100
AcDbArc
 50
0.0
 51
90.0
  0
ARC
  5
C7F
330
1F
100
AcDbEntity
  8
Visible (ISO)
100
AcDbCircle
 10
11471.6967947944
 20
230.1138460906705
 30
0.0
 40
6.000000000000013
100
AcDbArc
 50
90.0
 51
180.0
  0
LINE
  5
C80
330
1F
100
AcDbEntity
  8
Visible (ISO)
100
AcDbLine
 10
11965.6967947944
 20
230.1138460906705
 30
0.0
 11
11965.69679479441
 21
211.1138460906695
 31
0.0
  0
LINE
  5
C81
330
1F
100
AcDbEntity
  8
Visible (ISO)
100
AcDbLine
 10
11965.69679479441
 20
-366.8861539093295
 30
0.0
 11
11965.69679479441
 21
211.1138460906695
 31
0.0
  0
ARC
  5
C82
330
1F
100
AcDbEntity
  8
Visible (ISO)
100
AcDbCircle
 10
11959.6967947944
 20
-375.8861539093296
 30
0.0
 40
5.999999999999976
100
AcDbArc
 50
270.0
 51
0.0
  0
LINE
  5
C83
330
1F
100
AcDbEntity
  8
Visible (ISO)
100
AcDbLine
 10
11965.69679479441
 20
-366.8861539093295
 30
0.0
 11
11965.6967947944
 21
-375.8861539093296
 31
0.0
  0
LINE
  5
C84
330
1F
100
AcDbEntity
  8
Visible (ISO)
100
AcDbLine
 10
11465.69679479441
 20
211.1138460906695
 30
0.0
 11
11465.6967947944
 21
230.1138460906705
 31
0.0
  0
LINE
  5
C85
330
1F
100
AcDbEntity
  8
Visible (ISO)
100
AcDbLine
 10
11465.69679479441
 20
211.1138460906695
 30
0.0
 11
11465.69679479441
 21
-366.8861539093295
 31
0.0
  0
ARC
  5
C86
330
1F
100
AcDbEntity
  8
Visible (ISO)
100
AcDbCircle
 10
11471.69679479441
 20
-375.8861539093296
 30
0.0
 40
6.000000000000084
100
AcDbArc
 50
180.0
 51
270.0
  0
LINE
  5
C87
330
1F
100
AcDbEntity
  8
Visible (ISO)
100
AcDbLine
 10
11465.6967947944
 20
-375.8861539093296
 30
0.0
 11
11465.69679479441
 21
-366.8861539093295
 31
0.0
  0
LINE
  5
C88
330
1F
100
AcDbEntity
  8
Visible (ISO)
100
AcDbLine
 10
11959.6967947944
 20
236.1138460906705
 30
0.0
 11
11471.6967947944
 21
236.1138460906705
 31
0.0
  0
LINE
  5
C89
330
1F
100
AcDbEntity
  8
Visible (ISO)
100
AcDbLine
 10
11471.69679479441
 20
-381.8861539093295
 30
0.0
 11
11959.6967947944
 21
-381.8861539093295
 31
0.0
  0
LINE
  5
C8A
330
1F
100
AcDbEntity
  8
Visible (ISO)
100
AcDbLine
 10
11467.2246588394
 20
234.1138460906686
 30
0.0
 11
11466.6967947944
 21
234.1138460906686
 31
0.0
  0
ARC
  5
C8B
330
1F
100
AcDbEntity
  8
Visible (ISO)
100
AcDbCircle
 10
11466.6967947944
 20
-216.8861539093323
 30
0.0
 40
24.99999999999998
100
AcDbArc
 50
180.0
 51
267.707557223994
  0
LINE
  5
C8C
330
1F
100
AcDbEntity
  8
Visible (ISO)
100
AcDbLine
 10
11441.6967947944
 20
209.1138460906686
 30
0.0
 11
11441.6967947944
 21
-216.8861539093323
 31
0.0
  0
ARC
  5
C8D
330
1F
100
AcDbEntity
  8
Visible (ISO)
100
AcDbCircle
 10
11466.6967947944
 20
209.1138460906686
 30
0.0
 40
25.00000000000004
100
AcDbArc
 50
90.0
 51
180.0
  0
MTEXT
  5
C8E
330
1F
100
AcDbEntity
  8
Text
370
     9
100
AcDbMText
 10
10420.88464419708
 20
-100.2138106394513
 30
0.0
 40
160.0842719051806
 41
647.4567212677968
 46
0.0
 71
     7
 72
     1
  1
{\fApercu|b1|i0|c0|p34;\W1.0004;65}
 73
     1
 44
1.0
  0
MTEXT
  5
C8F
330
1F
100
AcDbEntity
  8
Text
370
     9
100
AcDbMText
 10
14305.95817079754
 20
523.2245830896326
 30
0.0
 40
160.0842719051806
 41
647.4567212677968
 46
0.0
 71
     7
 72
     1
  1
{\fApercu|b1|i0|c0|p34;\W1.0004;172}
 73
     1
 44
1.0
  0
MTEXT
  5
C90
330
1F
100
AcDbEntity
  8
Text
370
     9
100
AcDbMText
 10
11583.9736543145
 20
538.5878737616231
 30
0.0
 40
160.0842719051806
 41
647.4567212677968
 46
0.0
 71
     7
 72
     1
  1
{\fApercu|b1|i0|c0|p34;\W1.0004;52}
 73
     1
 44
1.0
  0
MTEXT
  5
C91
330
1F
100
AcDbEntity
  8
Text
370
     9
100
AcDbMText
 10
15485.06815931881
 20
-88.88232755400441
 30
0.0
 40
160.0842719051806
 41
647.4567212677968
 46
0.0
 71
     7
 72
     1
  1
{\fApercu|b1|i0|c0|p34;\W1.0004;52}
 73
     1
 44
1.0
  0
MTEXT
  5
C92
330
1F
100
AcDbEntity
  8
Text
370
     9
100
AcDbMText
 10
14099.82699726187
 20
-742.4883776788483
 30
0.0
 40
160.0842719051806
 41
647.4567212677968
 46
0.0
 71
     7
 72
     1
  1
{\fApercu|b1|i0|c0|p34;\W1.0004;OLV172_1}
 73
     1
 44
1.0
  0
ARC
  5
C93
330
1F
100
AcDbEntity
  8
Visible (ISO)
100
AcDbCircle
 10
16745.52174001487
 20
239.5891571683028
 30
0.0
 40
6.000000000000062
100
AcDbArc
 50
59.99999999999946
 51
90.0
  0
ARC
  5
C94
330
1F
100
AcDbEntity
  8
Visible (ISO)
100
AcDbCircle
 10
16745.52174001487
 20
-248.4108428316927
 30
0.0
 40
6.000000000000002
100
AcDbArc
 50
270.0
 51
299.9999999998163
  0
LINE
  5
C95
330
1F
100
AcDbEntity
  8
Visible (ISO)
100
AcDbLine
 10
16744.52174001487
 20
-254.4108428316927
 30
0.0
 11
16745.52174001487
 21
-254.4108428316927
 31
0.0
  0
LINE
  5
C96
330
1F
100
AcDbEntity
  8
Visible (ISO)
100
AcDbLine
 10
16745.52174001487
 20
245.5891571683028
 30
0.0
 11
16744.52174001487
 21
245.5891571683028
 31
0.0
  0
ARC
  5
C97
330
1F
100
AcDbEntity
  8
Visible (ISO)
100
AcDbCircle
 10
16725.52174001487
 20
-248.4108428316927
 30
0.0
 40
6.000000000000028
100
AcDbArc
 50
180.0
 51
270.0
  0
LINE
  5
C98
330
1F
100
AcDbEntity
  8
Visible (ISO)
100
AcDbLine
 10
16744.52174001487
 20
-254.4108428316927
 30
0.0
 11
16725.52174001487
 21
-254.4108428316927
 31
0.0
  0
ARC
  5
C99
330
1F
100
AcDbEntity
  8
Visible (ISO)
100
AcDbCircle
 10
16725.52174001487
 20
239.5891571683028
 30
0.0
 40
6.000000000000072
100
AcDbArc
 50
90.0
 51
180.0
  0
LINE
  5
C9A
330
1F
100
AcDbEntity
  8
Visible (ISO)
100
AcDbLine
 10
16725.52174001487
 20
245.5891571683028
 30
0.0
 11
16744.52174001487
 21
245.5891571683028
 31
0.0
  0
LINE
  5
C9B
330
1F
100
AcDbEntity
  8
Visible (ISO)
100
AcDbLine
 10
16719.52174001487
 20
239.5891571683028
 30
0.0
 11
16719.52174001487
 21
-248.4108428316927
 31
0.0
  0
ARC
  5
C9C
330
1F
100
AcDbEntity
  8
Visible (ISO)
100
AcDbCircle
 10
18968.52174001496
 20
-248.4108428316945
 30
0.0
 40
5.999999999999706
100
AcDbArc
 50
239.9999999992788
 51
270.0
  0
ARC
  5
C9D
330
1F
100
AcDbEntity
  8
Visible (ISO)
100
AcDbCircle
 10
18968.52174001496
 20
239.5891571683014
 30
0.0
 40
5.999999999999469
100
AcDbArc
 50
90.0
 51
120.0000000007212
  0
LINE
  5
C9E
330
1F
100
AcDbEntity
  8
Visible (ISO)
100
AcDbLine
 10
18969.52174001496
 20
245.5891571682996
 30
0.0
 11
18968.52174001496
 21
245.5891571682996
 31
0.0
  0
LINE
  5
C9F
330
1F
100
AcDbEntity
  8
Visible (ISO)
100
AcDbLine
 10
18968.52174001496
 20
-254.4108428316954
 30
0.0
 11
18969.52174001496
 21
-254.4108428316954
 31
0.0
  0
ARC
  5
CA0
330
1F
100
AcDbEntity
  8
Visible (ISO)
100
AcDbCircle
 10
18988.52174001497
 20
239.589157168301
 30
0.0
 40
6.000000000000028
100
AcDbArc
 50
0.0
 51
90.0
  0
LINE
  5
CA1
330
1F
100
AcDbEntity
  8
Visible (ISO)
100
AcDbLine
 10
18969.52174001496
 20
245.5891571682996
 30
0.0
 11
18988.52174001497
 21
245.5891571682996
 31
0.0
  0
ARC
  5
CA2
330
1F
100
AcDbEntity
  8
Visible (ISO)
100
AcDbCircle
 10
18988.52174001497
 20
-248.4108428316945
 30
0.0
 40
6.000000000000072
100
AcDbArc
 50
270.0
 51
0.0
  0
LINE
  5
CA3
330
1F
100
AcDbEntity
  8
Visible (ISO)
100
AcDbLine
 10
18988.52174001497
 20
-254.4108428316954
 30
0.0
 11
18969.52174001496
 21
-254.4108428316954
 31
0.0
  0
LINE
  5
CA4
330
1F
100
AcDbEntity
  8
Visible (ISO)
100
AcDbLine
 10
18994.52174001496
 20
-248.4108428316945
 30
0.0
 11
18994.52174001496
 21
239.589157168301
 31
0.0
  0
ARC
  5
CA5
330
1F
100
AcDbEntity
  8
Visible (ISO)
100
AcDbCircle
 10
18962.52174001483
 20
-248.4108428316945
 30
0.0
 40
6.000000000000807
100
AcDbArc
 50
270.0
 51
0.0
  0
ARC
  5
CA6
330
1F
100
AcDbEntity
  8
Visible (ISO)
100
AcDbCircle
 10
18962.52174001483
 20
239.5891571682978
 30
0.0
 40
5.999999999999882
100
AcDbArc
 50
0.0
 51
90.0
  0
LINE
  5
CA7
330
1F
100
AcDbEntity
  8
Visible (ISO)
100
AcDbLine
 10
16751.52174001487
 20
245.5891571682996
 30
0.0
 11
16770.52174001486
 21
245.5891571682996
 31
0.0
  0
LINE
  5
CA8
330
1F
100
AcDbEntity
  8
Visible (ISO)
100
AcDbLine
 10
18943.52174001483
 20
245.5891571682978
 30
0.0
 11
16770.52174001486
 21
245.5891571682996
 31
0.0
  0
LINE
  5
CA9
330
1F
100
AcDbEntity
  8
Visible (ISO)
100
AcDbLine
 10
18943.52174001483
 20
245.5891571682978
 30
0.0
 11
18962.52174001483
 21
245.5891571682978
 31
0.0
  0
ARC
  5
CAA
330
1F
100
AcDbEntity
  8
Visible (ISO)
100
AcDbCircle
 10
16751.52174001486
 20
-248.4108428316927
 30
0.0
 40
5.999999999999919
100
AcDbArc
 50
180.0
 51
270.0
  0
LINE
  5
CAB
330
1F
100
AcDbEntity
  8
Visible (ISO)
100
AcDbLine
 10
16770.52174001486
 20
-254.4108428316927
 30
0.0
 11
16751.52174001487
 21
-254.4108428316927
 31
0.0
  0
LINE
  5
CAC
330
1F
100
AcDbEntity
  8
Visible (ISO)
100
AcDbLine
 10
16770.52174001486
 20
-254.4108428316927
 30
0.0
 11
18943.52174001483
 21
-254.4108428316954
 31
0.0
  0
LINE
  5
CAD
330
1F
100
AcDbEntity
  8
Visible (ISO)
100
AcDbLine
 10
18962.52174001483
 20
-254.4108428316954
 30
0.0
 11
18943.52174001483
 21
-254.4108428316954
 31
0.0
  0
ARC
  5
CAE
330
1F
100
AcDbEntity
  8
Visible (ISO)
100
AcDbCircle
 10
16751.52174001487
 20
239.5891571682996
 30
0.0
 40
6.00000000000038
100
AcDbArc
 50
90.0
 51
180.0
  0
LINE
  5
CAF
330
1F
100
AcDbEntity
  8
Visible (ISO)
100
AcDbLine
 10
18968.52174001483
 20
-248.4108428316945
 30
0.0
 11
18968.52174001483
 21
239.5891571682978
 31
0.0
  0
LINE
  5
CB0
330
1F
100
AcDbEntity
  8
Visible (ISO)
100
AcDbLine
 10
16745.52174001487
 20
239.5891571682991
 30
0.0
 11
16745.52174001487
 21
-248.4108428316927
 31
0.0
  0
ARC
  5
CB1
330
1F
100
AcDbEntity
  8
Visible (ISO)
100
AcDbCircle
 10
16760.02174001487
 20
-272.4108428316927
 30
0.0
 40
6.000000000000056
100
AcDbArc
 50
180.0
 51
270.0
  0
LINE
  5
CB2
330
1F
100
AcDbEntity
  8
Visible (ISO)
100
AcDbLine
 10
16754.02174001487
 20
-272.4108428316913
 30
0.0
 11
16754.02174001487
 21
-254.4108428316963
 31
0.0
  0
ARC
  5
CB3
330
1F
100
AcDbEntity
  8
Visible (ISO)
100
AcDbCircle
 10
17298.02174001487
 20
-272.4108428316904
 30
0.0
 40
6.000000000000023
100
AcDbArc
 50
270.0
 51
0.0
  0
LINE
  5
CB4
330
1F
100
AcDbEntity
  8
Visible (ISO)
100
AcDbLine
 10
17304.02174001487
 20
-254.4108428316972
 30
0.0
 11
17304.02174001487
 21
-272.4108428316904
 31
0.0
  0
LINE
  5
CB5
330
1F
100
AcDbEntity
  8
Visible (ISO)
100
AcDbLine
 10
16760.02174001487
 20
-278.4108428316927
 30
0.0
 11
17298.02174001487
 21
-278.4108428316904
 31
0.0
  0
ARC
  5
CB6
330
1F
100
AcDbEntity
  8
Visible (ISO)
100
AcDbCircle
 10
17864.02174001487
 20
-272.4108428316895
 30
0.0
 40
6.000000000000047
100
AcDbArc
 50
180.0
 51
270.0
  0
LINE
  5
CB7
330
1F
100
AcDbEntity
  8
Visible (ISO)
100
AcDbLine
 10
17858.02174001487
 20
-272.4108428316881
 30
0.0
 11
17858.02174001487
 21
-254.4108428316972
 31
0.0
  0
ARC
  5
CB8
330
1F
100
AcDbEntity
  8
Visible (ISO)
100
AcDbCircle
 10
18402.02174001487
 20
-272.4108428316881
 30
0.0
 40
6.000000000000013
100
AcDbArc
 50
270.0
 51
0.0
  0
LINE
  5
CB9
330
1F
100
AcDbEntity
  8
Visible (ISO)
100
AcDbLine
 10
18408.02174001487
 20
-254.4108428316981
 30
0.0
 11
18408.02174001487
 21
-272.4108428316881
 31
0.0
  0
LINE
  5
CBA
330
1F
100
AcDbEntity
  8
Visible (ISO)
100
AcDbLine
 10
17864.02174001487
 20
-278.4108428316895
 30
0.0
 11
18402.02174001487
 21
-278.4108428316881
 31
0.0
  0
ARC
  5
CBB
330
1F
100
AcDbEntity
  8
Visible (ISO)
100
AcDbCircle
 10
17312.02174001487
 20
-272.4108428316904
 30
0.0
 40
6.000000000000094
100
AcDbArc
 50
180.0
 51
270.0
  0
LINE
  5
CBC
330
1F
100
AcDbEntity
  8
Visible (ISO)
100
AcDbLine
 10
17306.02174001487
 20
-272.4108428316904
 30
0.0
 11
17306.02174001487
 21
-254.4108428316963
 31
0.0
  0
ARC
  5
CBD
330
1F
100
AcDbEntity
  8
Visible (ISO)
100
AcDbCircle
 10
17850.02174001487
 20
-272.4108428316881
 30
0.0
 40
5.999999999999986
100
AcDbArc
 50
270.0
 51
0.0
  0
LINE
  5
CBE
330
1F
100
AcDbEntity
  8
Visible (ISO)
100
AcDbLine
 10
17856.02174001487
 20
-254.4108428316963
 30
0.0
 11
17856.02174001487
 21
-272.4108428316881
 31
0.0
  0
LINE
  5
CBF
330
1F
100
AcDbEntity
  8
Visible (ISO)
100
AcDbLine
 10
17312.02174001487
 20
-278.4108428316904
 30
0.0
 11
17850.02174001487
 21
-278.4108428316881
 31
0.0
  0
ARC
  5
CC0
330
1F
100
AcDbEntity
  8
Visible (ISO)
100
AcDbCircle
 10
18416.02174001487
 20
-272.4108428316881
 30
0.0
 40
6.000000000000094
100
AcDbArc
 50
180.0
 51
270.0
  0
LINE
  5
CC1
330
1F
100
AcDbEntity
  8
Visible (ISO)
100
AcDbLine
 10
18410.02174001487
 20
-272.4108428316881
 30
0.0
 11
18410.02174001487
 21
-254.4108428316972
 31
0.0
  0
ARC
  5
CC2
330
1F
100
AcDbEntity
  8
Visible (ISO)
100
AcDbCircle
 10
18954.02174001487
 20
-272.4108428316863
 30
0.0
 40
5.999999999999986
100
AcDbArc
 50
270.0
 51
0.0
  0
LINE
  5
CC3
330
1F
100
AcDbEntity
  8
Visible (ISO)
100
AcDbLine
 10
18960.02174001487
 20
-254.4108428316981
 30
0.0
 11
18960.02174001487
 21
-272.4108428316863
 31
0.0
  0
LINE
  5
CC4
330
1F
100
AcDbEntity
  8
Visible (ISO)
100
AcDbLine
 10
18416.02174001487
 20
-278.4108428316881
 30
0.0
 11
18954.02174001487
 21
-278.4108428316863
 31
0.0
  0
MTEXT
  5
CC5
330
1F
100
AcDbEntity
  8
Text
370
     9
100
AcDbMText
 10
17733.27356029719
 20
523.2245869695985
 30
0.0
 40
160.0842719051806
 41
647.4567212677968
 46
0.0
 71
     7
 72
     1
  1
{\fApercu|b1|i0|c0|p34;\W1.0004;227}
 73
     1
 44
1.0
  0
MTEXT
  5
CC6
330
1F
100
AcDbEntity
  8
Text
370
     9
100
AcDbMText
 10
19188.38354881856
 20
-88.88232755400441
 30
0.0
 40
160.0842719051806
 41
647.4567212677968
 46
0.0
 71
     7
 72
     1
  1
{\fApercu|b1|i0|c0|p34;\W1.0004;52}
 73
     1
 44
1.0
  0
MTEXT
  5
CC7
330
1F
100
AcDbEntity
  8
Text
370
     9
100
AcDbMText
 10
17534.14238676153
 20
-742.4883737988661
 30
0.0
 40
160.0842719051806
 41
647.4567212677968
 46
0.0
 71
     7
 72
     1
  1
{\fApercu|b1|i0|c0|p34;\W1.0004;OLV227_1}
 73
     1
 44
1.0
  0
LINE
  5
D06
330
1F
100
AcDbEntity
  8
0
100
AcDbLine
 10
11465.69679479441
 20
80.69181853620818
 30
0.0
 11
11441.6967947944
 21
80.69181853620818
 31
0.0
  0
LINE
  5
D2B
330
1F
100
AcDbEntity
  8
0
100
AcDbLine
 10
10196.76327250075
 20
82.69181853620819
 30
0.0
 11
9646.763272500756
 21
82.69181853620827
 31
0.0
  0
LINE
  5
D2C
330
1F
100
AcDbEntity
  8
0
100
AcDbLine
 10
9092.763272500759
 20
82.69181853620834
 30
0.0
 11
8542.763272500755
 21
82.69181853620843
 31
0.0
  0
LINE
  5
D2E
330
1F
100
AcDbEntity
  8
0
100
AcDbLine
 10
9092.763272500759
 20
80.69181853620836
 30
0.0
 11
8542.763272500755
 21
80.69181853620843
 31
0.0
  0
LINE
  5
D2F
330
1F
100
AcDbEntity
  8
0
100
AcDbLine
 10
9644.763272500757
 20
82.69181853620827
 30
0.0
 11
9094.763272500756
 21
82.69181853620834
 31
0.0
  0
LINE
  5
D30
330
1F
100
AcDbEntity
  8
0
100
AcDbLine
 10
9644.763272500757
 20
80.69181853620827
 30
0.0
 11
9094.763272500756
 21
80.69181853620834
 31
0.0
  0
LINE
  5
D3F
330
1F
100
AcDbEntity
  8
0
100
AcDbLine
 10
10196.76327250075
 20
80.69181853620827
 30
0.0
 11
9646.763272500756
 21
80.69181853620825
 31
0.0
  0
ARC
  5
DC0
330
1F
100
AcDbEntity
  8
Visible (ISO)
100
AcDbCircle
 10
8527.172764118716
 20
-988.040582798505
 30
0.0
 40
6.000000000000002
100
AcDbArc
 50
0.0
 51
90.0
  0
LINE
  5
DC1
330
1F
100
AcDbEntity
  8
Visible (ISO)
100
AcDbLine
 10
8527.172764118716
 20
-982.040582798505
 30
0.0
 11
8526.172764118717
 21
-982.040582798505
 31
0.0
  0
ARC
  5
DC2
330
1F
100
AcDbEntity
  8
Visible (ISO)
100
AcDbCircle
 10
8526.172764118717
 20
-1007.040582798505
 30
0.0
 40
24.99999999999995
100
AcDbArc
 50
90.0
 51
180.0
  0
LINE
  5
DC3
330
1F
100
AcDbEntity
  8
Visible (ISO)
100
AcDbLine
 10
8501.172764118718
 20
-1007.040582798505
 30
0.0
 11
8501.172764118718
 21
-1585.040582798501
 31
0.0
  0
ARC
  5
DC4
330
1F
100
AcDbEntity
  8
Visible (ISO)
100
AcDbCircle
 10
8516.172764118717
 20
-1585.040582798501
 30
0.0
 40
14.99999999999995
100
AcDbArc
 50
180.0
 51
270.0
  0
LINE
  5
DC5
330
1F
100
AcDbEntity
  8
Visible (ISO)
100
AcDbLine
 10
8516.172764118717
 20
-1600.040582798501
 30
0.0
 11
8518.172764118718
 21
-1600.040582798501
 31
0.0
  0
ARC
  5
DC6
330
1F
100
AcDbEntity
  8
Visible (ISO)
100
AcDbCircle
 10
8518.172764118718
 20
-1585.040582798501
 30
0.0
 40
14.99999999999993
100
AcDbArc
 50
270.0
 51
0.0
  0
LINE
  5
DC7
330
1F
100
AcDbEntity
  8
Visible (ISO)
100
AcDbLine
 10
8533.172764118717
 20
-1585.040582798501
 30
0.0
 11
8533.172764118717
 21
-988.040582798505
 31
0.0
  0
ARC
  5
DC8
330
1F
100
AcDbEntity
  8
Visible (ISO)
100
AcDbCircle
 10
10748.17276411872
 20
-988.0405827985013
 30
0.0
 40
5.999999999999943
100
AcDbArc
 50
90.0
 51
180.0
  0
LINE
  5
DC9
330
1F
100
AcDbEntity
  8
Visible (ISO)
100
AcDbLine
 10
10749.17276411872
 20
-982.0405827985014
 30
0.0
 11
10748.17276411872
 21
-982.0405827985014
 31
0.0
  0
ARC
  5
DCA
330
1F
100
AcDbEntity
  8
Visible (ISO)
100
AcDbCircle
 10
10759.17276411872
 20
-1585.040582798501
 30
0.0
 40
14.99999999999996
100
AcDbArc
 50
270.0
 51
0.0
  0
LINE
  5
DCB
330
1F
100
AcDbEntity
  8
Visible (ISO)
100
AcDbLine
 10
10774.17276411872
 20
-1585.040582798501
 30
0.0
 11
10774.17276411872
 21
-1007.040582798501
 31
0.0
  0
ARC
  5
DCC
330
1F
100
AcDbEntity
  8
Visible (ISO)
100
AcDbCircle
 10
10749.17276411872
 20
-1007.040582798501
 30
0.0
 40
25.0
100
AcDbArc
 50
0.0
 51
90.0
  0
LINE
  5
DCD
330
1F
100
AcDbEntity
  8
Visible (ISO)
100
AcDbLine
 10
10757.17276411872
 20
-1600.040582798501
 30
0.0
 11
10759.17276411872
 21
-1600.040582798501
 31
0.0
  0
ARC
  5
DCE
330
1F
100
AcDbEntity
  8
Visible (ISO)
100
AcDbCircle
 10
10757.17276411872
 20
-1585.040582798501
 30
0.0
 40
14.99999999999998
100
AcDbArc
 50
180.0
 51
270.0
  0
LINE
  5
DCF
330
1F
100
AcDbEntity
  8
Visible (ISO)
100
AcDbLine
 10
10742.17276411872
 20
-988.0405827985013
 30
0.0
 11
10742.17276411872
 21
-1585.040582798501
 31
0.0
  0
ARC
  5
DD0
330
1F
100
AcDbEntity
  8
Visible (ISO)
100
AcDbCircle
 10
8533.172764118717
 20
-976.0405827985051
 30
0.0
 40
5.999999999999835
100
AcDbArc
 50
180.0
 51
270.0
  0
LINE
  5
DD1
330
1F
100
AcDbEntity
  8
Visible (ISO)
100
AcDbLine
 10
8533.172764118717
 20
-982.040582798505
 30
0.0
 11
10192.17276411868
 21
-982.040582798505
 31
0.0
  0
ARC
  5
DD2
330
1F
100
AcDbEntity
  8
Visible (ISO)
100
AcDbCircle
 10
10742.17276411869
 20
-976.0405827985051
 30
0.0
 40
5.99999999999991
100
AcDbArc
 50
270.0
 51
0.0
  0
LINE
  5
DD3
330
1F
100
AcDbEntity
  8
Visible (ISO)
100
AcDbLine
 10
10748.17276411869
 20
-976.0405827985051
 30
0.0
 11
10748.17276411869
 21
-975.040582798505
 31
0.0
  0
LINE
  5
DD4
330
1F
100
AcDbEntity
  8
Visible (ISO)
100
AcDbLine
 10
8527.172764118716
 20
-975.040582798505
 30
0.0
 11
8527.172764118716
 21
-976.0405827985051
 31
0.0
  0
ARC
  5
DD5
330
1F
100
AcDbEntity
  8
Visible (ISO)
100
AcDbCircle
 10
8552.172764118717
 20
-975.040582798505
 30
0.0
 40
24.99999999999988
100
AcDbArc
 50
90.0
 51
180.0
  0
LINE
  5
DD6
330
1F
100
AcDbEntity
  8
Visible (ISO)
100
AcDbLine
 10
10173.17276411868
 20
-950.040582798505
 30
0.0
 11
8552.172764118717
 21
-950.040582798505
 31
0.0
  0
ARC
  5
DD7
330
1F
100
AcDbEntity
  8
Visible (ISO)
100
AcDbCircle
 10
10723.17276411869
 20
-975.040582798505
 30
0.0
 40
24.99999999999973
100
AcDbArc
 50
0.0
 51
90.0
  0
LINE
  5
DD8
330
1F
100
AcDbEntity
  8
Visible (ISO)
100
AcDbLine
 10
8535.172764118707
 20
-982.040582798505
 30
0.0
 11
8538.24694084659
 21
-985.1147595263883
 31
0.0
  0
LINE
  5
DD9
330
1F
100
AcDbEntity
  8
Visible (ISO)
100
AcDbLine
 10
8535.672764118718
 20
-1429.540582798515
 30
0.0
 11
8533.172764118717
 21
-1432.040582798515
 31
0.0
  0
LINE
  5
DDA
330
1F
100
AcDbEntity
  8
Visible (ISO)
100
AcDbLine
 10
8533.172764118717
 20
-988.0405827985033
 30
0.0
 11
8533.172764118717
 21
-982.040582798505
 31
0.0
  0
LINE
  5
DDB
330
1F
100
AcDbEntity
  8
Visible (ISO)
100
AcDbLine
 10
10742.17276411872
 20
-1432.040582798507
 30
0.0
 11
10739.67276411871
 21
-1429.540582798504
 31
0.0
  0
LINE
  5
DDC
330
1F
100
AcDbEntity
  8
Visible (ISO)
100
AcDbLine
 10
10739.67276411872
 20
-990.5405827985095
 30
0.0
 11
10742.17276411872
 21
-988.040582798505
 31
0.0
  0
ARC
  5
DDD
330
1F
100
AcDbEntity
  8
Visible (ISO)
100
AcDbCircle
 10
9080.922764118717
 20
-989.5405827985095
 30
0.0
 40
5.000000000000391
100
AcDbArc
 50
341.8051276604107
 51
68.76755576825456
  0
LINE
  5
DDE
330
1F
100
AcDbEntity
  8
Visible (ISO)
100
AcDbLine
 10
8538.246940846562
 20
-985.1147595263601
 30
0.0
 11
8535.172764118717
 21
-982.040582798514
 31
0.0
  0
LINE
  5
DDF
330
1F
100
AcDbEntity
  8
Visible (ISO)
100
AcDbLine
 10
10744.17276411885
 20
-982.0405827984959
 30
0.0
 11
10738.97708280386
 21
-987.2362641134833
 31
0.0
  0
LINE
  5
DE0
330
1F
100
AcDbEntity
  8
Visible (ISO)
100
AcDbLine
 10
9085.672764118699
 20
-999.0405827985105
 30
0.0
 11
9087.672764118698
 21
-999.0405827985105
 31
0.0
  0
LINE
  5
DE1
330
1F
100
AcDbEntity
  8
Visible (ISO)
100
AcDbLine
 10
10187.67276411874
 20
-999.0405827985032
 30
0.0
 11
10189.67276411874
 21
-999.0405827985032
 31
0.0
  0
LINE
  5
DE2
330
1F
100
AcDbEntity
  8
Visible (ISO)
100
AcDbLine
 10
10742.17276411877
 20
-982.0405827984959
 30
0.0
 11
10744.17276411885
 21
-982.0405827984959
 31
0.0
  0
LINE
  5
DE3
330
1F
100
AcDbEntity
  8
Visible (ISO)
100
AcDbLine
 10
10189.67276411872
 20
-1415.040582798516
 30
0.0
 11
10187.67276411872
 21
-1415.040582798516
 31
0.0
  0
LINE
  5
DE4
330
1F
100
AcDbEntity
  8
Visible (ISO)
100
AcDbLine
 10
9087.672764118721
 20
-1415.040582798516
 30
0.0
 11
9085.672764118717
 21
-1415.040582798516
 31
0.0
  0
LINE
  5
DE5
330
1F
100
AcDbEntity
  8
Visible (ISO)
100
AcDbLine
 10
10742.17276411872
 20
-1432.040582798517
 30
0.0
 11
10739.67276411872
 21
-1432.040582798517
 31
0.0
  0
LINE
  5
DE6
330
1F
100
AcDbEntity
  8
Visible (ISO)
100
AcDbLine
 10
10189.67276411872
 20
-1432.040582798517
 30
0.0
 11
10187.67276411872
 21
-1432.040582798517
 31
0.0
  0
LINE
  5
DE7
330
1F
100
AcDbEntity
  8
Visible (ISO)
100
AcDbLine
 10
9087.672764118721
 20
-1432.040582798516
 30
0.0
 11
9085.672764118717
 21
-1432.040582798516
 31
0.0
  0
LINE
  5
DE8
330
1F
100
AcDbEntity
  8
Visible (ISO)
100
AcDbLine
 10
8535.67276411872
 20
-1432.040582798515
 30
0.0
 11
8533.172764118717
 21
-1432.040582798515
 31
0.0
  0
LINE
  5
DE9
330
1F
100
AcDbEntity
  8
Visible (ISO)
100
AcDbLine
 10
8533.172764118717
 20
-1432.040582798515
 30
0.0
 11
8535.672764118718
 21
-1429.540582798514
 31
0.0
  0
LINE
  5
DEA
330
1F
100
AcDbEntity
  8
Visible (ISO)
100
AcDbLine
 10
10739.67276411872
 20
-1429.54058279852
 30
0.0
 11
10742.17276411872
 21
-1432.040582798517
 31
0.0
  0
LINE
  5
DEB
330
1F
100
AcDbEntity
  8
Visible (ISO)
100
AcDbLine
 10
9087.672764118721
 20
-1437.040582798514
 30
0.0
 11
9085.672764118717
 21
-1437.040582798514
 31
0.0
  0
LINE
  5
DEC
330
1F
100
AcDbEntity
  8
Visible (ISO)
100
AcDbLine
 10
9085.672764118717
 20
-999.040582798514
 30
0.0
 11
9087.672764118718
 21
-999.040582798514
 31
0.0
  0
LINE
  5
DED
330
1F
100
AcDbEntity
  8
Visible (ISO)
100
AcDbLine
 10
9087.672764118721
 20
-1433.040582798515
 30
0.0
 11
9085.672764118717
 21
-1433.040582798515
 31
0.0
  0
LINE
  5
DEE
330
1F
100
AcDbEntity
  8
Visible (ISO)
100
AcDbLine
 10
10187.67276411872
 20
-1437.040582798514
 30
0.0
 11
10189.67276411872
 21
-1437.040582798514
 31
0.0
  0
LINE
  5
DEF
330
1F
100
AcDbEntity
  8
Visible (ISO)
100
AcDbLine
 10
10189.67276411872
 20
-1433.040582798515
 30
0.0
 11
10187.67276411872
 21
-1433.040582798515
 31
0.0
  0
LINE
  5
DF0
330
1F
100
AcDbEntity
  8
Visible (ISO)
100
AcDbLine
 10
10187.67276411872
 20
-999.0405827985151
 30
0.0
 11
10189.67276411872
 21
-999.0405827985151
 31
0.0
  0
ARC
  5
DF1
330
1F
100
AcDbEntity
  8
Visible (ISO)
100
AcDbCircle
 10
8541.672764118718
 20
-990.0405827985041
 30
0.0
 40
5.999999999999986
100
AcDbArc
 50
90.0
 51
180.0
  0
LINE
  5
DF2
330
1F
100
AcDbEntity
  8
Visible (ISO)
100
AcDbLine
 10
8535.672764118718
 20
-1009.040582798505
 30
0.0
 11
8535.672764118718
 21
-990.040582798505
 31
0.0
  0
LINE
  5
DF3
330
1F
100
AcDbEntity
  8
Visible (ISO)
100
AcDbLine
 10
8535.672764118718
 20
-1009.040582798505
 30
0.0
 11
8535.672764118718
 21
-1435.040582798504
 31
0.0
  0
ARC
  5
DF4
330
1F
100
AcDbEntity
  8
Visible (ISO)
100
AcDbCircle
 10
8541.672764118718
 20
-1454.040582798504
 30
0.0
 40
6.000000000000056
100
AcDbArc
 50
180.0
 51
270.0
  0
LINE
  5
DF5
330
1F
100
AcDbEntity
  8
Visible (ISO)
100
AcDbLine
 10
8535.672764118718
 20
-1454.040582798504
 30
0.0
 11
8535.672764118718
 21
-1435.040582798504
 31
0.0
  0
ARC
  5
DF6
330
1F
100
AcDbEntity
  8
Visible (ISO)
100
AcDbCircle
 10
9079.67276411872
 20
-1454.040582798504
 30
0.0
 40
6.000000000000023
100
AcDbArc
 50
270.0
 51
0.0
  0
LINE
  5
DF7
330
1F
100
AcDbEntity
  8
Visible (ISO)
100
AcDbLine
 10
9085.67276411872
 20
-1435.040582798504
 30
0.0
 11
9085.67276411872
 21
-1454.040582798504
 31
0.0
  0
LINE
  5
DF8
330
1F
100
AcDbEntity
  8
Visible (ISO)
100
AcDbLine
 10
9085.67276411872
 20
-1435.040582798504
 30
0.0
 11
9085.67276411872
 21
-1009.040582798505
 31
0.0
  0
ARC
  5
DF9
330
1F
100
AcDbEntity
  8
Visible (ISO)
100
AcDbCircle
 10
9079.672764118717
 20
-990.0405827985041
 30
0.0
 40
6.000000000000128
100
AcDbArc
 50
0.0
 51
90.0
  0
LINE
  5
DFA
330
1F
100
AcDbEntity
  8
Visible (ISO)
100
AcDbLine
 10
9085.672764118717
 20
-990.040582798505
 30
0.0
 11
9085.672764118717
 21
-1009.040582798505
 31
0.0
  0
LINE
  5
DFB
330
1F
100
AcDbEntity
  8
Visible (ISO)
100
AcDbLine
 10
9079.672764118717
 20
-984.0405827985049
 30
0.0
 11
8541.672764118718
 21
-984.0405827985049
 31
0.0
  0
LINE
  5
DFC
330
1F
100
AcDbEntity
  8
Visible (ISO)
100
AcDbLine
 10
8541.672764118718
 20
-1460.040582798504
 30
0.0
 11
9079.67276411872
 21
-1460.040582798504
 31
0.0
  0
ARC
  5
DFD
330
1F
100
AcDbEntity
  8
Visible (ISO)
100
AcDbCircle
 10
9093.67276411872
 20
-990.0405827985041
 30
0.0
 40
6.000000000000023
100
AcDbArc
 50
90.0
 51
180.0
  0
LINE
  5
DFE
330
1F
100
AcDbEntity
  8
Visible (ISO)
100
AcDbLine
 10
9087.672764118718
 20
-1009.040582798505
 30
0.0
 11
9087.672764118718
 21
-990.040582798505
 31
0.0
  0
LINE
  5
DFF
330
1F
100
AcDbEntity
  8
Visible (ISO)
100
AcDbLine
 10
9087.672764118721
 20
-1009.040582798505
 30
0.0
 11
9087.672764118721
 21
-1435.040582798506
 31
0.0
  0
ARC
  5
E00
330
1F
100
AcDbEntity
  8
Visible (ISO)
100
AcDbCircle
 10
9093.67276411872
 20
-1454.040582798505
 30
0.0
 40
6.000000000000128
100
AcDbArc
 50
180.0
 51
270.0
  0
LINE
  5
E01
330
1F
100
AcDbEntity
  8
Visible (ISO)
100
AcDbLine
 10
9087.672764118721
 20
-1454.040582798505
 30
0.0
 11
9087.672764118721
 21
-1435.040582798506
 31
0.0
  0
ARC
  5
E02
330
1F
100
AcDbEntity
  8
Visible (ISO)
100
AcDbCircle
 10
10181.67276411872
 20
-1454.040582798505
 30
0.0
 40
6.000000000000023
100
AcDbArc
 50
270.0
 51
0.0
  0
LINE
  5
E03
330
1F
100
AcDbEntity
  8
Visible (ISO)
100
AcDbLine
 10
10187.67276411872
 20
-1435.040582798505
 30
0.0
 11
10187.67276411872
 21
-1454.040582798505
 31
0.0
  0
LINE
  5
E04
330
1F
100
AcDbEntity
  8
Visible (ISO)
100
AcDbLine
 10
10187.67276411872
 20
-1435.040582798505
 30
0.0
 11
10187.67276411872
 21
-1009.040582798504
 31
0.0
  0
ARC
  5
E05
330
1F
100
AcDbEntity
  8
Visible (ISO)
100
AcDbCircle
 10
10181.67276411871
 20
-990.0405827985032
 30
0.0
 40
6.000000000000094
100
AcDbArc
 50
0.0
 51
90.0
  0
LINE
  5
E06
330
1F
100
AcDbEntity
  8
Visible (ISO)
100
AcDbLine
 10
10187.67276411872
 20
-990.0405827985032
 30
0.0
 11
10187.67276411872
 21
-1009.040582798504
 31
0.0
  0
LINE
  5
E07
330
1F
100
AcDbEntity
  8
Visible (ISO)
100
AcDbLine
 10
9631.672764118718
 20
-984.0405827985041
 30
0.0
 11
9093.67276411872
 21
-984.0405827985049
 31
0.0
  0
LINE
  5
E08
330
1F
100
AcDbEntity
  8
Visible (ISO)
100
AcDbLine
 10
9093.67276411872
 20
-1460.040582798506
 30
0.0
 11
9631.672764118722
 21
-1460.040582798505
 31
0.0
  0
ARC
  5
E09
330
1F
100
AcDbEntity
  8
Visible (ISO)
100
AcDbCircle
 10
10195.67276411872
 20
-990.0405827985032
 30
0.0
 40
6.000000000000023
100
AcDbArc
 50
90.0
 51
180.0
  0
LINE
  5
E0A
330
1F
100
AcDbEntity
  8
Visible (ISO)
100
AcDbLine
 10
10189.67276411872
 20
-1009.040582798504
 30
0.0
 11
10189.67276411872
 21
-990.0405827985032
 31
0.0
  0
LINE
  5
E0B
330
1F
100
AcDbEntity
  8
Visible (ISO)
100
AcDbLine
 10
10189.67276411872
 20
-1009.040582798504
 30
0.0
 11
10189.67276411872
 21
-1435.040582798504
 31
0.0
  0
ARC
  5
E0C
330
1F
100
AcDbEntity
  8
Visible (ISO)
100
AcDbCircle
 10
10195.67276411872
 20
-1454.040582798504
 30
0.0
 40
6.000000000000127
100
AcDbArc
 50
180.0
 51
270.0
  0
LINE
  5
E0D
330
1F
100
AcDbEntity
  8
Visible (ISO)
100
AcDbLine
 10
10189.67276411872
 20
-1454.040582798504
 30
0.0
 11
10189.67276411872
 21
-1435.040582798504
 31
0.0
  0
ARC
  5
E0E
330
1F
100
AcDbEntity
  8
Visible (ISO)
100
AcDbCircle
 10
10733.67276411872
 20
-1454.040582798503
 30
0.0
 40
6.000000000000023
100
AcDbArc
 50
270.0
 51
0.0
  0
LINE
  5
E0F
330
1F
100
AcDbEntity
  8
Visible (ISO)
100
AcDbLine
 10
10739.67276411872
 20
-1435.040582798503
 30
0.0
 11
10739.67276411872
 21
-1454.040582798503
 31
0.0
  0
LINE
  5
E10
330
1F
100
AcDbEntity
  8
Visible (ISO)
100
AcDbLine
 10
10739.67276411872
 20
-1435.040582798503
 30
0.0
 11
10739.67276411872
 21
-1009.040582798503
 31
0.0
  0
ARC
  5
E11
330
1F
100
AcDbEntity
  8
Visible (ISO)
100
AcDbCircle
 10
10733.67276411872
 20
-990.0405827985032
 30
0.0
 40
6.000000000000093
100
AcDbArc
 50
0.0
 51
90.0
  0
LINE
  5
E12
330
1F
100
AcDbEntity
  8
Visible (ISO)
100
AcDbLine
 10
10739.67276411872
 20
-990.0405827985032
 30
0.0
 11
10739.67276411872
 21
-1009.040582798503
 31
0.0
  0
LINE
  5
E13
330
1F
100
AcDbEntity
  8
Visible (ISO)
100
AcDbLine
 10
10733.67276411872
 20
-984.0405827985032
 30
0.0
 11
10195.67276411872
 21
-984.0405827985041
 31
0.0
  0
LINE
  5
E14
330
1F
100
AcDbEntity
  8
Visible (ISO)
100
AcDbLine
 10
10195.67276411872
 20
-1460.040582798505
 30
0.0
 11
10733.67276411872
 21
-1460.040582798503
 31
0.0
  0
ARC
  5
E15
330
1F
100
AcDbEntity
  8
Visible (ISO)
100
AcDbCircle
 10
10171.55060438149
 20
-1068.040582798503
 30
0.0
 40
17.49999999999998
100
AcDbArc
 50
337.1119097554603
 51
22.8880902445397
  0
ARC
  5
E16
330
1F
100
AcDbEntity
  8
Visible (ISO)
100
AcDbCircle
 10
10171.55060438149
 20
-1376.040582798504
 30
0.0
 40
17.49999999999997
100
AcDbArc
 50
337.1119097554603
 51
22.8880902445397
  0
LINE
  5
E17
330
1F
100
AcDbEntity
  8
Visible (ISO)
100
AcDbLine
 10
10742.17276411872
 20
-1457.040582798517
 30
0.0
 11
10738.86891654141
 21
-1457.040582798517
 31
0.0
  0
LINE
  5
E18
330
1F
100
AcDbEntity
  8
Visible (ISO)
100
AcDbLine
 10
10190.47661169602
 20
-1457.040582798517
 30
0.0
 11
10186.86891654142
 21
-1457.040582798517
 31
0.0
  0
LINE
  5
E19
330
1F
100
AcDbEntity
  8
Visible (ISO)
100
AcDbLine
 10
9088.476611696021
 20
-1457.040582798516
 30
0.0
 11
9084.868916541418
 21
-1457.040582798516
 31
0.0
  0
LINE
  5
E1A
330
1F
100
AcDbEntity
  8
Visible (ISO)
100
AcDbLine
 10
8536.47661169602
 20
-1457.040582798515
 30
0.0
 11
8533.172764118722
 21
-1457.040582798515
 31
0.0
  0
LINE
  5
E1B
330
1F
100
AcDbEntity
  8
0
100
AcDbLine
 10
10739.67276411872
 20
-1143.289534099488
 30
0.0
 11
10189.67276411872
 21
-1143.289534099488
 31
0.0
  0
LINE
  5
E1C
330
1F
100
AcDbEntity
  8
0
100
AcDbLine
 10
9637.672764118722
 20
-1143.289534099488
 30
0.0
 11
9087.672764118721
 21
-1143.289534099488
 31
0.0
  0
LINE
  5
E1D
330
1F
100
AcDbEntity
  8
0
100
AcDbLine
 10
9085.672764118724
 20
-1143.289534099488
 30
0.0
 11
8535.672764118718
 21
-1143.289534099488
 31
0.0
  0
LINE
  5
E1E
330
1F
100
AcDbEntity
  8
0
100
AcDbLine
 10
10739.67276411872
 20
-1141.289534099488
 30
0.0
 11
10189.67276411872
 21
-1141.289534099488
 31
0.0
  0
LINE
  5
E1F
330
1F
100
AcDbEntity
  8
0
100
AcDbLine
 10
9637.672764118722
 20
-1141.289534099488
 30
0.0
 11
9087.672764118721
 21
-1141.289534099488
 31
0.0
  0
LINE
  5
E20
330
1F
100
AcDbEntity
  8
0
100
AcDbLine
 10
9085.672764118724
 20
-1141.289534099488
 30
0.0
 11
8535.672764118718
 21
-1141.289534099488
 31
0.0
  0
LINE
  5
E3A
330
1F
100
AcDbEntity
  8
Visible (ISO)
100
AcDbLine
 10
9637.67276411874
 20
-999.0405827985041
 30
0.0
 11
9639.672764118742
 21
-999.0405827985041
 31
0.0
  0
LINE
  5
E3B
330
1F
100
AcDbEntity
  8
Visible (ISO)
100
AcDbLine
 10
9639.672764118721
 20
-1415.040582798517
 30
0.0
 11
9637.672764118722
 21
-1415.040582798517
 31
0.0
  0
LINE
  5
E3C
330
1F
100
AcDbEntity
  8
Visible (ISO)
100
AcDbLine
 10
9639.672764118721
 20
-1432.040582798518
 30
0.0
 11
9637.672764118722
 21
-1432.040582798518
 31
0.0
  0
LINE
  5
E3D
330
1F
100
AcDbEntity
  8
Visible (ISO)
100
AcDbLine
 10
9637.672764118722
 20
-1437.040582798515
 30
0.0
 11
9639.672764118721
 21
-1437.040582798515
 31
0.0
  0
LINE
  5
E3E
330
1F
100
AcDbEntity
  8
Visible (ISO)
100
AcDbLine
 10
9639.672764118721
 20
-1433.040582798516
 30
0.0
 11
9637.672764118722
 21
-1433.040582798516
 31
0.0
  0
LINE
  5
E3F
330
1F
100
AcDbEntity
  8
Visible (ISO)
100
AcDbLine
 10
9637.672764118718
 20
-999.040582798516
 30
0.0
 11
9639.672764118721
 21
-999.040582798516
 31
0.0
  0
ARC
  5
E40
330
1F
100
AcDbEntity
  8
Visible (ISO)
100
AcDbCircle
 10
9631.672764118722
 20
-1454.040582798506
 30
0.0
 40
6.000000000000023
100
AcDbArc
 50
270.0
 51
0.0
  0
LINE
  5
E41
330
1F
100
AcDbEntity
  8
Visible (ISO)
100
AcDbLine
 10
9637.672764118722
 20
-1435.040582798506
 30
0.0
 11
9637.672764118722
 21
-1454.040582798506
 31
0.0
  0
LINE
  5
E42
330
1F
100
AcDbEntity
  8
Visible (ISO)
100
AcDbLine
 10
9637.672764118722
 20
-1435.040582798506
 30
0.0
 11
9637.672764118722
 21
-1009.040582798505
 31
0.0
  0
ARC
  5
E43
330
1F
100
AcDbEntity
  8
Visible (ISO)
100
AcDbCircle
 10
9631.672764118718
 20
-990.0405827985041
 30
0.0
 40
6.000000000000094
100
AcDbArc
 50
0.0
 51
90.0
  0
LINE
  5
E44
330
1F
100
AcDbEntity
  8
Visible (ISO)
100
AcDbLine
 10
9637.672764118722
 20
-990.0405827985041
 30
0.0
 11
9637.672764118722
 21
-1009.040582798505
 31
0.0
  0
ARC
  5
E45
330
1F
100
AcDbEntity
  8
Visible (ISO)
100
AcDbCircle
 10
9645.672764118721
 20
-990.0405827985041
 30
0.0
 40
6.000000000000023
100
AcDbArc
 50
90.0
 51
180.0
  0
LINE
  5
E46
330
1F
100
AcDbEntity
  8
Visible (ISO)
100
AcDbLine
 10
9639.672764118721
 20
-1009.040582798505
 30
0.0
 11
9639.672764118721
 21
-990.0405827985041
 31
0.0
  0
LINE
  5
E47
330
1F
100
AcDbEntity
  8
Visible (ISO)
100
AcDbLine
 10
9639.672764118721
 20
-1009.040582798505
 30
0.0
 11
9639.672764118721
 21
-1435.040582798505
 31
0.0
  0
ARC
  5
E48
330
1F
100
AcDbEntity
  8
Visible (ISO)
100
AcDbCircle
 10
9645.672764118721
 20
-1454.040582798505
 30
0.0
 40
6.000000000000127
100
AcDbArc
 50
180.0
 51
270.0
  0
LINE
  5
E49
330
1F
100
AcDbEntity
  8
Visible (ISO)
100
AcDbLine
 10
9639.672764118721
 20
-1454.040582798505
 30
0.0
 11
9639.672764118721
 21
-1435.040582798505
 31
0.0
  0
ARC
  5
E4A
330
1F
100
AcDbEntity
  8
Visible (ISO)
100
AcDbCircle
 10
9621.550604381493
 20
-1068.040582798504
 30
0.0
 40
17.49999999999998
100
AcDbArc
 50
337.1119097554358
 51
22.88809024456416
  0
ARC
  5
E4B
330
1F
100
AcDbEntity
  8
Visible (ISO)
100
AcDbCircle
 10
9621.550604381493
 20
-1376.040582798505
 30
0.0
 40
17.49999999999997
100
AcDbArc
 50
337.1119097554358
 51
22.88809024456416
  0
LINE
  5
E4C
330
1F
100
AcDbEntity
  8
Visible (ISO)
100
AcDbLine
 10
9640.476611696021
 20
-1457.040582798518
 30
0.0
 11
9636.868916541418
 21
-1457.040582798518
 31
0.0
  0
LINE
  5
E53
330
1F
100
AcDbEntity
  8
0
100
AcDbLine
 10
9645.672764118721
 20
-1460.040582798505
 30
0.0
 11
10181.67276411872
 21
-1460.040582798505
 31
0.0
  0
LINE
  5
E54
330
1F
100
AcDbEntity
  8
0
100
AcDbLine
 10
9639.672764118721
 20
-1143.289534099488
 30
0.0
 11
10187.67276411872
 21
-1143.289534099488
 31
0.0
  0
LINE
  5
E55
330
1F
100
AcDbEntity
  8
0
100
AcDbLine
 10
10187.67276411872
 20
-1141.289534099488
 30
0.0
 11
9639.672764118721
 21
-1141.289534099488
 31
0.0
  0
LINE
  5
E56
330
1F
100
AcDbEntity
  8
0
100
AcDbLine
 10
9645.672764118721
 20
-984.0405827985041
 30
0.0
 11
10181.67276411871
 21
-984.0405827985041
 31
0.0
  0
LINE
  5
E57
330
1F
100
AcDbEntity
  8
0
100
AcDbLine
 10
10173.17276411868
 20
-950.040582798505
 30
0.0
 11
10723.17276411869
 21
-950.040582798505
 31
0.0
  0
LINE
  5
E58
330
1F
100
AcDbEntity
  8
0
100
AcDbLine
 10
10742.17276411869
 20
-982.040582798505
 30
0.0
 11
10192.17276411868
 21
-982.040582798505
 31
0.0
  0
ARC
  5
E95
330
1F
100
AcDbEntity
  8
Visible (ISO)
100
AcDbCircle
 10
9639.672764118721
 20
-1585.040582798501
 30
0.0
 40
14.99999999999996
100
AcDbArc
 50
270.0
 51
0.0
  0
LINE
  5
E96
330
1F
100
AcDbEntity
  8
Visible (ISO)
100
AcDbLine
 10
9654.672764118719
 20
-1585.040582798501
 30
0.0
 11
9654.672764118719
 21
-1460.040582798505
 31
0.0
  0
LINE
  5
E97
330
1F
100
AcDbEntity
  8
Visible (ISO)
100
AcDbLine
 10
9637.672764118718
 20
-1600.040582798501
 30
0.0
 11
9639.672764118721
 21
-1600.040582798501
 31
0.0
  0
ARC
  5
E98
330
1F
100
AcDbEntity
  8
Visible (ISO)
100
AcDbCircle
 10
9637.672764118718
 20
-1585.040582798501
 30
0.0
 40
15.0
100
AcDbArc
 50
179.9999999999967
 51
270.0
  0
LINE
  5
E99
330
1F
100
AcDbEntity
  8
Visible (ISO)
100
AcDbLine
 10
9622.672764118719
 20
-1460.040582798505
 30
0.0
 11
9622.672764118719
 21
-1585.040582798501
 31
0.0
  0
ENDSEC
  0
SECTION
  2
OBJECTS
  0
DICTIONARY
  5
C
330
0
100
AcDbDictionary
281
     1
  3
ACAD_CIP_PREVIOUS_PRODUCT_INFO
350
1A5
  3
ACAD_COLOR
350
73
  3
ACAD_DETAILVIEWSTYLE
350
1AB
  3
ACAD_GROUP
350
D
  3
ACAD_LAYOUT
350
1A
  3
ACAD_MATERIAL
350
72
  3
ACAD_MLEADERSTYLE
350
D7
  3
ACAD_MLINESTYLE
350
17
  3
ACAD_PLOTSETTINGS
350
19
  3
ACAD_PLOTSTYLENAME
350
E
  3
ACAD_SCALELIST
350
B6
  3
ACAD_SECTIONVIEWSTYLE
350
1A8
  3
ACAD_TABLESTYLE
350
86
  3
ACAD_VISUALSTYLE
350
99
  3
ACDB_RECOMPOSE_DATA
350
EB5
  3
AcDbVariableDictionary
350
66
  0
DICTIONARY
  5
18E
330
2
100
AcDbDictionary
280
     1
281
     1
  3
ACAD_LAYERSTATES
360
18F
  0
DICTIONARY
  5
E6
330
10
100
AcDbDictionary
280
     1
281
     1
  0
DICTIONARY
  5
15D
330
1F
100
AcDbDictionary
280
     1
281
     1
  3
ACAD_SORTENTS
360
D2D
  0
DICTIONARY
  5
64C
330
64A
100
AcDbDictionary
280
     1
281
     1
  0
DICTIONARY
  5
CFD
330
CFB
100
AcDbDictionary
280
     1
281
     1
  0
XRECORD
  5
1A5
102
{ACAD_REACTORS
330
C
102
}
330
C
100
AcDbXrecord
280
     1
300
ACD
300
2023
300

  0
DICTIONARY
  5
73
102
{ACAD_REACTORS
330
C
102
}
330
C
100
AcDbDictionary
281
     1
  0
DICTIONARY
  5
1AB
102
{ACAD_REACTORS
330
C
102
}
330
C
100
AcDbDictionary
281
     1
  3
Imperial24
350
1AC
  3
Metric50
350
367
  0
DICTIONARY
  5
D
102
{ACAD_REACTORS
330
C
102
}
330
C
100
AcDbDictionary
281
     1
  0
DICTIONARY
  5
1A
102
{ACAD_REACTORS
330
C
102
}
330
C
100
AcDbDictionary
281
     1
  3
Layout1
350
59
  3
Layout2
350
5E
  3
Model
350
22
  0
DICTIONARY
  5
72
102
{ACAD_REACTORS
330
C
102
}
330
C
100
AcDbDictionary
281
     1
  3
ByBlock
350
97
  3
ByLayer
350
96
  3
Global
350
98
  0
DICTIONARY
  5
D7
102
{ACAD_REACTORS
330
C
102
}
330
C
100
AcDbDictionary
281
     1
  3
Annotative
350
E5
  3
Standard
350
D8
  0
DICTIONARY
  5
17
102
{ACAD_REACTORS
330
C
102
}
330
C
100
AcDbDictionary
281
     1
  3
Standard
350
18
  0
DICTIONARY
  5
19
102
{ACAD_REACTORS
330
C
102
}
330
C
100
AcDbDictionary
281
     1
  0
ACDBDICTIONARYWDFLT
  5
E
102
{ACAD_REACTORS
330
C
102
}
330
C
100
AcDbDictionary
281
     1
  3
Normal
350
F
100
AcDbDictionaryWithDefault
340
F
  0
DICTIONARY
  5
B6
102
{ACAD_REACTORS
330
C
102
}
330
C
100
AcDbDictionary
281
     1
  3
A0
350
B7
  3
A1
350
124
  3
A2
350
125
  3
A3
350
126
  3
A4
350
127
  3
A5
350
128
  3
A6
350
129
  3
A7
350
12A
  3
A8
350
12B
  3
A9
350
12C
  3
B0
350
12D
  3
B1
350
12E
  3
B2
350
12F
  3
B3
350
130
  3
B4
350
131
  3
B5
350
132
  3
B6
350
133
  3
B7
350
134
  3
B8
350
135
  3
B9
350
136
  3
C0
350
137
  3
C1
350
138
  3
C2
350
139
  3
C3
350
13A
  3
C4
350
13B
  3
C5
350
13C
  3
C6
350
13D
  3
C7
350
13E
  3
C8
350
13F
  3
C9
350
140
  3
D0
350
141
  3
D1
350
142
  3
D2
350
143
  0
DICTIONARY
  5
1A8
102
{ACAD_REACTORS
330
C
102
}
330
C
100
AcDbDictionary
281
     1
  3
Imperial24
350
1AA
  3
Metric50
350
366
  0
DICTIONARY
  5
86
102
{ACAD_REACTORS
330
C
102
}
330
C
100
AcDbDictionary
281
     1
  3
Standard
350
87
  0
DICTIONARY
  5
99
102
{ACAD_REACTORS
330
C
102
}
330
C
100
AcDbDictionary
281
     1
  3
2dWireframe
350
9F
  3
Basic
350
9E
  3
Brighten
350
A5
  3
ColorChange
350
A9
  3
Conceptual
350
A2
  3
Dim
350
A4
  3
EdgeColorOff
350
175
  3
Facepattern
350
A8
  3
Flat
350
9A
  3
FlatWithEdges
350
9B
  3
Gouraud
350
9C
  3
GouraudWithEdges
350
9D
  3
Hidden
350
A1
  3
JitterOff
350
173
  3
Linepattern
350
A7
  3
OverhangOff
350
174
  3
Realistic
350
A3
  3
Shaded
350
182
  3
Shaded with edges
350
181
  3
Shades of Gray
350
17E
  3
Sketchy
350
17F
  3
Thicken
350
A6
  3
Wireframe
350
A0
  3
X-Ray
350
180
  0
XRECORD
  5
EB5
102
{ACAD_REACTORS
330
C
102
}
330
C
100
AcDbXrecord
280
     1
 90
        1
330
87
  0
DICTIONARY
  5
66
102
{ACAD_REACTORS
330
C
102
}
330
C
100
AcDbDictionary
281
     1
  3
CANNOSCALE
350
F0
  3
CMLEADERSTYLE
350
EF
  3
CTABLESTYLE
350
89
  3
CVIEWDETAILSTYLE
350
1B7
  3
CVIEWSECTIONSTYLE
350
1B8
  3
DIMASSOC
350
67
  3
HIDETEXT
350
6B
  3
LAYEREVAL
350
14D
  3
LAYERNOTIFY
350
14E
  0
DICTIONARY
  5
18F
102
{ACAD_REACTORS
330
18E
102
}
330
18E
100
AcDbDictionary
281
     1
  0
SORTENTSTABLE
  5
D2D
102
{ACAD_REACTORS
330
15D
102
}
330
15D
100
AcDbSortentsTable
330
1F
331
D2B
  5
D2F
331
D2C
  5
D3F
331
D2F
  5
D30
331
D30
  5
D2C
331
D3F
  5
D2B
  0
ACDBDETAILVIEWSTYLE
  5
1AC
102
{ACAD_REACTORS
330
1AB
102
}
330
1AB
100
AcDbModelDocViewStyle
 70
     0
  3
Imperial24
290
     0
300
Imperial24
 90
        0
100
AcDbDetailViewStyle
 70
     0
 71
     0
 90
        3
 71
     1
340
11
 62
   256
 40
0.24
340
0
 62
   256
 40
0.24
300

 40
0.36
280
     3
 71
     2
340
16
 90
       25
 62
   256
 71
     3
340
11
 62
   256
 40
0.24
 90
        1
 40
0.75
 90
        1
300
%<\AcVar ViewType \f "%tc1">% %<\AcVar ViewDetailId>%\PSCALE %<\AcVar ViewScale \f "%sn">%
 71
     4
340
16
 90
       25
 62
   256
340
16
 90
       25
 62
   256
280
     0
  0
ACDBDETAILVIEWSTYLE
  5
367
102
{ACAD_REACTORS
330
1AB
102
}
330
1AB
100
AcDbModelDocViewStyle
 70
     0
  3
Metric50
290
     0
300
Metric50
 90
        0
100
AcDbDetailViewStyle
 70
     0
 71
     0
 90
        3
 71
     1
340
11
 62
   256
 40
5.0
340
0
 62
   256
 40
5.0
300

 40
0.0
280
     1
 71
     2
340
16
 90
       25
 62
   256
 71
     3
340
11
 62
   256
 40
5.0
 90
        0
 40
15.0
 90
        1
300
%<\AcVar ViewDetailId>% (%<\AcVar ViewScale \f "%sn">%)
 71
     4
340
16
 90
       25
 62
   256
340
16
 90
       25
 62
   256
280
     0
  0
LAYOUT
  5
59
102
{ACAD_REACTORS
330
1A
102
}
330
1A
100
AcDbPlotSettings
  1

  2
None
  4

  6

 40
0.0
 41
0.0
 42
0.0
 43
0.0
 44
0.0
 45
0.0
 46
0.0
 47
0.0
 48
0.0
 49
0.0
140
0.0
141
0.0
142
1.0
143
1.0
 70
   688
 72
     0
 73
     0
 74
     5
  7

 75
    16
147
1.0
 76
     0
 77
     2
 78
   300
148
0.0
149
0.0
100
AcDbLayout
  1
Layout1
 70
     1
 71
     1
 10
0.0
 20
0.0
 11
12.0
 21
9.0
 12
0.0
 22
0.0
 32
0.0
 14
0.0
 24
0.0
 34
0.0
 15
0.0
 25
0.0
 35
0.0
146
0.0
 13
0.0
 23
0.0
 33
0.0
 16
1.0
 26
0.0
 36
0.0
 17
0.0
 27
1.0
 37
0.0
 76
     0
330
58
  0
LAYOUT
  5
5E
102
{ACAD_REACTORS
330
1A
102
}
330
1A
100
AcDbPlotSettings
  1

  2
None
  4

  6

 40
0.0
 41
0.0
 42
0.0
 43
0.0
 44
0.0
 45
0.0
 46
0.0
 47
0.0
 48
0.0
 49
0.0
140
0.0
141
0.0
142
1.0
143
1.0
 70
   688
 72
     0
 73
     0
 74
     5
  7

 75
    16
147
1.0
 76
     0
 77
     2
 78
   300
148
0.0
149
0.0
100
AcDbLayout
  1
Layout2
 70
     1
 71
     2
 10
0.0
 20
0.0
 11
12.0
 21
9.0
 12
0.0
 22
0.0
 32
0.0
 14
0.0
 24
0.0
 34
0.0
 15
0.0
 25
0.0
 35
0.0
146
0.0
 13
0.0
 23
0.0
 33
0.0
 16
1.0
 26
0.0
 36
0.0
 17
0.0
 27
1.0
 37
0.0
 76
     0
330
5D
  0
LAYOUT
  5
22
102
{ACAD_XDICTIONARY
360
194
102
}
102
{ACAD_REACTORS
330
1A
102
}
330
1A
100
AcDbPlotSettings
  1

  2
none_device
  4
ANSI_A_(8.50_x_11.00_Inches)
  6

 40
6.349999904632568
 41
19.04999923706055
 42
6.350006103515625
 43
19.04998779296875
 44
215.8999938964844
 45
279.3999938964844
 46
0.0
 47
0.0
 48
0.0
 49
0.0
140
0.0
141
0.0
142
1.0
143
2.584895464708373
 70
 11952
 72
     0
 73
     1
 74
     0
  7

 75
     0
147
0.3868628397755418
 76
     0
 77
     2
 78
   300
148
0.0
149
0.0
100
AcDbLayout
  1
Model
 70
     1
 71
     0
 10
0.0
 20
0.0
 11
12.0
 21
9.0
 12
0.0
 22
0.0
 32
0.0
 14
0.0
 24
0.0
 34
0.0
 15
0.0
 25
0.0
 35
0.0
146
0.0
 13
0.0
 23
0.0
 33
0.0
 16
1.0
 26
0.0
 36
0.0
 17
0.0
 27
1.0
 37
0.0
 76
     0
330
1F
331
94
  0
MATERIAL
  5
97
102
{ACAD_XDICTIONARY
360
188
102
}
102
{ACAD_REACTORS
330
72
102
}
330
72
100
AcDbMaterial
  1
ByBlock
 94
       63
  0
MATERIAL
  5
96
102
{ACAD_XDICTIONARY
360
186
102
}
102
{ACAD_REACTORS
330
72
102
}
330
72
100
AcDbMaterial
  1
ByLayer
 94
       63
  0
MATERIAL
  5
98
102
{ACAD_XDICTIONARY
360
110
102
}
102
{ACAD_REACTORS
330
72
102
}
330
72
100
AcDbMaterial
  1
Global
 43
0.0208000000566244
 43
0.0
 43
0.0
 43
0.0
 43
0.0
 43
0.0208000000566244
 43
0.0
 43
0.0
 43
0.0
 43
0.0
 43
1.0
 43
0.0
 43
0.0
 43
0.0
 43
0.0
 43
1.0
 49
0.0208000000566244
 49
0.0
 49
0.0
 49
0.0
 49
0.0
 49
0.0208000000566244
 49
0.0
 49
0.0
 49
0.0
 49
0.0
 49
1.0
 49
0.0
 49
0.0
 49
0.0
 49
0.0
 49
1.0
142
0.0208000000566244
142
0.0
142
0.0
142
0.0
142
0.0
142
0.0208000000566244
142
0.0
142
0.0
142
0.0
142
0.0
142
1.0
142
0.0
142
0.0
142
0.0
142
0.0
142
1.0
144
0.0208000000566244
144
0.0
144
0.0
144
0.0
144
0.0
144
0.0208000000566244
144
0.0
144
0.0
144
0.0
144
0.0
144
1.0
144
0.0
144
0.0
144
0.0
144
0.0
144
1.0
 94
       63
1001
ACAD
1070
    -1
1070
     3
1070
     0
1000

1071
        0
1070
     0
  0
MLEADERSTYLE
  5
E5
102
{ACAD_REACTORS
330
D7
102
}
330
D7
100
AcDbMLeaderStyle
179
     2
170
     2
171
     1
172
     0
 90
        2
 40
0.0
 41
0.0
173
     1
 91
-1056964608
340
14
 92
       -2
290
     1
 42
0.09
291
     1
 43
0.36
  3
Standard
 44
0.18
300

342
11
174
     1
178
     1
175
     1
176
     0
 93
-1056964608
 45
0.18
292
     0
297
     0
 46
0.18
 94
-1056964608
 47
1.0
 49
1.0
140
1.0
293
     1
141
0.0
294
     1
177
     0
142
1.0
295
     0
296
     1
143
0.125
271
     0
272
     9
273
     9
298
     0
  0
MLEADERSTYLE
  5
D8
102
{ACAD_REACTORS
330
D7
102
}
330
D7
100
AcDbMLeaderStyle
179
     2
170
     2
171
     1
172
     0
 90
        2
 40
0.0
 41
0.0
173
     1
 91
-1056964608
340
14
 92
       -2
290
     1
 42
0.09
291
     1
 43
0.36
  3
Standard
 44
0.18
300

342
11
174
     1
178
     1
175
     1
176
     0
 93
-1056964608
 45
0.18
292
     0
297
     0
 46
0.18
 94
-1056964608
 47
1.0
 49
1.0
140
1.0
293
     1
141
0.0
294
     1
177
     0
142
1.0
295
     0
296
     0
143
0.125
271
     0
272
     9
273
     9
298
     0
  0
MLINESTYLE
  5
18
102
{ACAD_REACTORS
330
17
102
}
330
17
100
AcDbMlineStyle
  2
STANDARD
 70
     0
  3

 62
   256
 51
90.0
 52
90.0
 71
     2
 49
0.5
 62
   256
  6
BYLAYER
 49
-0.5
 62
   256
  6
BYLAYER
  0
ACDBPLACEHOLDER
  5
F
102
{ACAD_REACTORS
330
E
102
}
330
E
  0
SCALE
  5
B7
102
{ACAD_REACTORS
330
B6
102
}
330
B6
100
AcDbScale
 70
     0
300
1:1
140
1.0
141
1.0
290
     1
  0
SCALE
  5
124
102
{ACAD_REACTORS
330
B6
102
}
330
B6
100
AcDbScale
 70
     0
300
1:2
140
1.0
141
2.0
290
     0
  0
SCALE
  5
125
102
{ACAD_REACTORS
330
B6
102
}
330
B6
100
AcDbScale
 70
     0
300
1:4
140
1.0
141
4.0
290
     0
  0
SCALE
  5
126
102
{ACAD_REACTORS
330
B6
102
}
330
B6
100
AcDbScale
 70
     0
300
1:5
140
1.0
141
5.0
290
     0
  0
SCALE
  5
127
102
{ACAD_REACTORS
330
B6
102
}
330
B6
100
AcDbScale
 70
     0
300
1:8
140
1.0
141
8.0
290
     0
  0
SCALE
  5
128
102
{ACAD_REACTORS
330
B6
102
}
330
B6
100
AcDbScale
 70
     0
300
1:10
140
1.0
141
10.0
290
     0
  0
SCALE
  5
129
102
{ACAD_REACTORS
330
B6
102
}
330
B6
100
AcDbScale
 70
     0
300
1:16
140
1.0
141
16.0
290
     0
  0
SCALE
  5
12A
102
{ACAD_REACTORS
330
B6
102
}
330
B6
100
AcDbScale
 70
     0
300
1:20
140
1.0
141
20.0
290
     0
  0
SCALE
  5
12B
102
{ACAD_REACTORS
330
B6
102
}
330
B6
100
AcDbScale
 70
     0
300
1:30
140
1.0
141
30.0
290
     0
  0
SCALE
  5
12C
102
{ACAD_REACTORS
330
B6
102
}
330
B6
100
AcDbScale
 70
     0
300
1:40
140
1.0
141
40.0
290
     0
  0
SCALE
  5
12D
102
{ACAD_REACTORS
330
B6
102
}
330
B6
100
AcDbScale
 70
     0
300
1:50
140
1.0
141
50.0
290
     0
  0
SCALE
  5
12E
102
{ACAD_REACTORS
330
B6
102
}
330
B6
100
AcDbScale
 70
     0
300
1:100
140
1.0
141
100.0
290
     0
  0
SCALE
  5
12F
102
{ACAD_REACTORS
330
B6
102
}
330
B6
100
AcDbScale
 70
     0
300
2:1
140
2.0
141
1.0
290
     0
  0
SCALE
  5
130
102
{ACAD_REACTORS
330
B6
102
}
330
B6
100
AcDbScale
 70
     0
300
4:1
140
4.0
141
1.0
290
     0
  0
SCALE
  5
131
102
{ACAD_REACTORS
330
B6
102
}
330
B6
100
AcDbScale
 70
     0
300
8:1
140
8.0
141
1.0
290
     0
  0
SCALE
  5
132
102
{ACAD_REACTORS
330
B6
102
}
330
B6
100
AcDbScale
 70
     0
300
10:1
140
10.0
141
1.0
290
     0
  0
SCALE
  5
133
102
{ACAD_REACTORS
330
B6
102
}
330
B6
100
AcDbScale
 70
     0
300
100:1
140
100.0
141
1.0
290
     0
  0
SCALE
  5
134
102
{ACAD_REACTORS
330
B6
102
}
330
B6
100
AcDbScale
 70
     0
300
1/128" = 1'-0"
140
0.0078125
141
12.0
290
     0
  0
SCALE
  5
135
102
{ACAD_REACTORS
330
B6
102
}
330
B6
100
AcDbScale
 70
     0
300
1/64" = 1'-0"
140
0.015625
141
12.0
290
     0
  0
SCALE
  5
136
102
{ACAD_REACTORS
330
B6
102
}
330
B6
100
AcDbScale
 70
     0
300
1/32" = 1'-0"
140
0.03125
141
12.0
290
     0
  0
SCALE
  5
137
102
{ACAD_REACTORS
330
B6
102
}
330
B6
100
AcDbScale
 70
     0
300
1/16" = 1'-0"
140
0.0625
141
12.0
290
     0
  0
SCALE
  5
138
102
{ACAD_REACTORS
330
B6
102
}
330
B6
100
AcDbScale
 70
     0
300
3/32" = 1'-0"
140
0.09375
141
12.0
290
     0
  0
SCALE
  5
139
102
{ACAD_REACTORS
330
B6
102
}
330
B6
100
AcDbScale
 70
     0
300
1/8" = 1'-0"
140
0.125
141
12.0
290
     0
  0
SCALE
  5
13A
102
{ACAD_REACTORS
330
B6
102
}
330
B6
100
AcDbScale
 70
     0
300
3/16" = 1'-0"
140
0.1875
141
12.0
290
     0
  0
SCALE
  5
13B
102
{ACAD_REACTORS
330
B6
102
}
330
B6
100
AcDbScale
 70
     0
300
1/4" = 1'-0"
140
0.25
141
12.0
290
     0
  0
SCALE
  5
13C
102
{ACAD_REACTORS
330
B6
102
}
330
B6
100
AcDbScale
 70
     0
300
3/8" = 1'-0"
140
0.375
141
12.0
290
     0
  0
SCALE
  5
13D
102
{ACAD_REACTORS
330
B6
102
}
330
B6
100
AcDbScale
 70
     0
300
1/2" = 1'-0"
140
0.5
141
12.0
290
     0
  0
SCALE
  5
13E
102
{ACAD_REACTORS
330
B6
102
}
330
B6
100
AcDbScale
 70
     0
300
3/4" = 1'-0"
140
0.75
141
12.0
290
     0
  0
SCALE
  5
13F
102
{ACAD_REACTORS
330
B6
102
}
330
B6
100
AcDbScale
 70
     0
300
1" = 1'-0"
140
1.0
141
12.0
290
     0
  0
SCALE
  5
140
102
{ACAD_REACTORS
330
B6
102
}
330
B6
100
AcDbScale
 70
     0
300
1-1/2" = 1'-0"
140
1.5
141
12.0
290
     0
  0
SCALE
  5
141
102
{ACAD_REACTORS
330
B6
102
}
330
B6
100
AcDbScale
 70
     0
300
3" = 1'-0"
140
3.0
141
12.0
290
     0
  0
SCALE
  5
142
102
{ACAD_REACTORS
330
B6
102
}
330
B6
100
AcDbScale
 70
     0
300
6" = 1'-0"
140
6.0
141
12.0
290
     0
  0
SCALE
  5
143
102
{ACAD_REACTORS
330
B6
102
}
330
B6
100
AcDbScale
 70
     0
300
1'-0" = 1'-0"
140
12.0
141
12.0
290
     0
  0
ACDBSECTIONVIEWSTYLE
  5
1AA
102
{ACAD_REACTORS
330
1A8
102
}
330
1A8
100
AcDbModelDocViewStyle
 70
     0
  3
Imperial24
290
     0
300
Imperial24
 90
        0
100
AcDbSectionViewStyle
 70
     0
 71
     0
 90
       78
 71
     1
340
11
 62
   256
 40
0.24
340
0
340
0
 62
   256
 40
0.24
300
I, O, Q, S, X, Z
 40
0.48
 90
        3
 40
0.18
 90
        1
 71
     2
340
16
 90
       25
 62
   256
340
16
 90
       50
 62
   256
 40
0.24
 40
0.0
 40
0.24
 71
     3
340
11
 62
   256
 40
0.24
 90
        1
 40
0.75
 90
        1
300
%<\AcVar ViewType \f "%tc1">% %<\AcVar ViewSectionStartId>%-%<\AcVar ViewSectionEndId>%\PSCALE %<\AcVar ViewScale \f "%sn">%
 71
     4
 62
   256
 62
   257
300
ANSI31
 40
1.0
 90
        0
290
     0
290
     0
 90
        6
 40
0.0
 40
1.570796326794896
 40
0.2617993877991494
 40
1.308996938995747
 40
-0.2617993877991494
 40
1.832595714594046
  0
ACDBSECTIONVIEWSTYLE
  5
366
102
{ACAD_REACTORS
330
1A8
102
}
330
1A8
100
AcDbModelDocViewStyle
 70
     0
  3
Metric50
290
     0
300
Metric50
 90
        0
100
AcDbSectionViewStyle
 70
     0
 71
     0
 90
      102
 71
     1
340
11
 62
   256
 40
5.0
340
0
340
0
 62
   256
 40
5.0
300
I, O, Q, S, X, Z
 40
10.0
 90
        0
 40
2.5
 90
        0
 71
     2
340
16
 90
       25
 62
   256
340
16
 90
       50
 62
   256
 40
5.0
 40
2.5
 40
5.0
 71
     3
340
11
 62
   256
 40
5.0
 90
        0
 40
15.0
 90
        1
300
%<\AcVar ViewSectionStartId>%-%<\AcVar ViewSectionEndId>% (%<\AcVar ViewScale \f "%sn">%)
 71
     4
 62
   256
 62
   257
300
ANSI31
 40
1.0
 90
        0
290
     0
290
     0
 90
        6
 40
0.0
 40
1.570796326794896
 40
0.2617993877991494
 40
1.308996938995747
 40
-0.2617993877991494
 40
1.832595714594046
  0
TABLESTYLE
  5
87
102
{ACAD_XDICTIONARY
360
104
102
}
102
{ACAD_REACTORS
330
86
102
}
330
86
100
AcDbTableStyle
280
     0
  3
Standard
 70
     0
 71
     0
 40
0.06
 41
0.06
280
     0
281
     0
  7
Standard
140
0.18
170
     2
 62
     0
 63
     7
283
     0
 90
      512
 91
        0
  1

274
    -2
284
     1
 64
     0
275
    -2
285
     1
 65
     0
276
    -2
286
     1
 66
     0
277
    -2
287
     1
 67
     0
278
    -2
288
     1
 68
     0
279
    -2
289
     1
 69
     0
  7
Standard
140
0.25
170
     5
 62
     0
 63
     7
283
     0
 90
      512
 91
        0
  1

274
    -2
284
     1
 64
     0
275
    -2
285
     1
 65
     0
276
    -2
286
     1
 66
     0
277
    -2
287
     1
 67
     0
278
    -2
288
     1
 68
     0
279
    -2
289
     1
 69
     0
  7
Standard
140
0.18
170
     5
 62
     0
 63
     7
283
     0
 90
      512
 91
        0
  1

274
    -2
284
     1
 64
     0
275
    -2
285
     1
 65
     0
276
    -2
286
     1
 66
     0
277
    -2
287
     1
 67
     0
278
    -2
288
     1
 68
     0
279
    -2
289
     1
 69
     0
  0
VISUALSTYLE
  5
9F
102
{ACAD_REACTORS
330
99
102
}
330
99
100
AcDbVisualStyle
  2
2dWireframe
 70
     4
177
     3
291
     0
 70
    58
 90
        0
176
     1
 90
        2
176
     1
 90
        1
176
     1
 90
        0
176
     1
 40
0.6
176
     1
 40
30.0
176
     1
 62
     7
420
 16777215
176
     1
 90
        1
176
     1
 90
        4
176
     1
 62
     7
176
     1
 62
   257
176
     1
 90
        1
176
     1
 90
        1
176
     1
 40
1.0
176
     1
 90
        0
176
     1
 62
   257
176
     1
 40
1.0
176
     1
 90
        1
176
     1
 90
        6
176
     1
 90
        2
176
     1
 62
     7
176
     1
 90
        5
176
     1
 90
        0
176
     1
 90
        0
176
     1
290
     0
176
     1
 90
        1
176
     1
 40
0.0
176
     1
 90
        0
176
     1
290
     1
176
     1
290
     1
176
     1
290
     0
176
     1
290
     0
176
     1
290
     0
176
     1
290
     0
176
     1
290
     0
176
     1
290
     0
176
     1
290
     0
176
     1
 90
       50
176
     1
 40
0.0
176
     1
 40
1.0
176
     1
 90
        0
176
     1
 62
    18
420
        0
176
     1
 90
       50
176
     1
 90
        3
176
     1
 62
     5
420
      255
176
     1
290
     0
176
     1
 90
       50
176
     1
 90
       50
176
     1
 90
       50
176
     1
290
     0
176
     1
 90
       50
176
     1
 62
   256
176
     0
 40
1.0
176
     0
 90
        2
176
     1
  1
strokes_ogs.tif
176
     1
290
     0
176
     1
 40
1.0
176
     1
 40
1.0
176
     1
  0
VISUALSTYLE
  5
9E
102
{ACAD_REACTORS
330
99
102
}
330
99
100
AcDbVisualStyle
  2
Basic
 70
     7
177
     3
291
     1
 70
    58
 90
        1
176
     1
 90
        0
176
     1
 90
        1
176
     1
 90
        0
176
     1
 40
0.6
176
     1
 40
30.0
176
     1
 62
     7
420
 16777215
176
     1
 90
        0
176
     1
 90
        4
176
     1
 62
     7
176
     1
 62
   257
176
     1
 90
        1
176
     1
 90
        1
176
     1
 40
1.0
176
     1
 90
        8
176
     1
 62
     7
176
     1
 40
1.0
176
     1
 90
        1
176
     1
 90
        6
176
     1
 90
        2
176
     1
 62
     7
176
     1
 90
        5
176
     1
 90
        0
176
     1
 90
        0
176
     1
290
     0
176
     1
 90
        1
176
     1
 40
0.0
176
     1
 90
        0
176
     1
290
     0
176
     1
290
     1
176
     1
290
     1
176
     1
290
     0
176
     1
290
     0
176
     1
290
     0
176
     1
290
     0
176
     1
290
     0
176
     1
290
     0
176
     1
 90
       50
176
     1
 40
0.0
176
     1
 40
1.0
176
     1
 90
        0
176
     1
 62
    18
420
        0
176
     1
 90
       50
176
     1
 90
        3
176
     1
 62
     5
420
      255
176
     1
290
     0
176
     1
 90
       50
176
     1
 90
       50
176
     1
 90
       50
176
     1
290
     0
176
     1
 90
       50
176
     1
 62
   256
176
     0
 40
1.0
176
     0
 90
        2
176
     1
  1
strokes_ogs.tif
176
     1
290
     0
176
     1
 40
1.0
176
     1
 40
1.0
176
     1
  0
VISUALSTYLE
  5
A5
102
{ACAD_REACTORS
330
99
102
}
330
99
100
AcDbVisualStyle
  2
Brighten
 70
    12
177
     3
291
     1
 70
    58
 90
        2
176
     1
 90
        2
176
     1
 90
        1
176
     1
 90
        0
176
     1
 40
0.6
176
     1
 40
30.0
176
     1
 62
     7
420
 16777215
176
     1
 90
        1
176
     1
 90
        4
176
     1
 62
     7
176
     1
 62
   257
176
     1
 90
        1
176
     1
 90
        1
176
     1
 40
1.0
176
     1
 90
        8
176
     1
 62
     7
176
     1
 40
1.0
176
     1
 90
        1
176
     1
 90
        6
176
     1
 90
        2
176
     1
 62
     7
176
     1
 90
        5
176
     1
 90
        0
176
     1
 90
        0
176
     1
290
     0
176
     1
 90
        1
176
     1
 40
50.0
176
     1
 90
        0
176
     1
290
     0
176
     1
290
     1
176
     1
290
     1
176
     1
290
     0
176
     1
290
     0
176
     1
290
     0
176
     1
290
     0
176
     1
290
     0
176
     1
290
     0
176
     1
 90
       50
176
     1
 40
0.0
176
     1
 40
1.0
176
     1
 90
        0
176
     1
 62
    18
420
        0
176
     1
 90
       50
176
     1
 90
        3
176
     1
 62
     5
420
      255
176
     1
290
     0
176
     1
 90
       50
176
     1
 90
       50
176
     1
 90
       50
176
     1
290
     0
176
     1
 90
       50
176
     1
 62
   256
176
     0
 40
1.0
176
     0
 90
        2
176
     1
  1
strokes_ogs.tif
176
     1
290
     0
176
     1
 40
1.0
176
     1
 40
1.0
176
     1
  0
VISUALSTYLE
  5
A9
102
{ACAD_REACTORS
330
99
102
}
330
99
100
AcDbVisualStyle
  2
ColorChange
 70
    16
177
     3
291
     1
 70
    58
 90
        2
176
     1
 90
        2
176
     1
 90
        3
176
     1
 90
        0
176
     1
 40
0.6
176
     1
 40
30.0
176
     1
 62
     8
420
  8421504
176
     1
 90
        1
176
     1
 90
        4
176
     1
 62
     7
176
     1
 62
   257
176
     1
 90
        1
176
     1
 90
        1
176
     1
 40
1.0
176
     1
 90
        8
176
     1
 62
     8
420
  8421504
176
     1
 40
1.0
176
     1
 90
        1
176
     1
 90
        6
176
     1
 90
        2
176
     1
 62
     7
176
     1
 90
        5
176
     1
 90
        0
176
     1
 90
        0
176
     1
290
     0
176
     1
 90
        1
176
     1
 40
0.0
176
     1
 90
        0
176
     1
290
     0
176
     1
290
     1
176
     1
290
     1
176
     1
290
     0
176
     1
290
     0
176
     1
290
     0
176
     1
290
     0
176
     1
290
     0
176
     1
290
     0
176
     1
 90
       50
176
     1
 40
0.0
176
     1
 40
1.0
176
     1
 90
        0
176
     1
 62
    18
420
        0
176
     1
 90
       50
176
     1
 90
        3
176
     1
 62
     5
420
      255
176
     1
290
     0
176
     1
 90
       50
176
     1
 90
       50
176
     1
 90
       50
176
     1
290
     0
176
     1
 90
       50
176
     1
 62
   256
176
     0
 40
1.0
176
     0
 90
        2
176
     1
  1
strokes_ogs.tif
176
     1
290
     0
176
     1
 40
1.0
176
     1
 40
1.0
176
     1
  0
VISUALSTYLE
  5
A2
102
{ACAD_REACTORS
330
99
102
}
330
99
100
AcDbVisualStyle
  2
Conceptual
 70
     9
177
     3
291
     0
 70
    58
 90
        3
176
     1
 90
        2
176
     1
 90
        1
176
     1
 90
        0
176
     1
 40
0.6
176
     1
 40
30.0
176
     1
 62
     7
420
 16777215
176
     1
 90
        2
176
     1
 90
        2
176
     1
 62
     7
176
     1
 62
   257
176
     1
 90
        1
176
     1
 90
        1
176
     1
 40
40.0
176
     1
 90
        8
176
     1
 62
     7
176
     1
 40
1.0
176
     1
 90
        1
176
     1
 90
        6
176
     1
 90
        2
176
     1
 62
     7
176
     1
 90
        3
176
     1
 90
        0
176
     1
 90
        0
176
     1
290
     0
176
     1
 90
        1
176
     1
 40
0.0
176
     1
 90
        0
176
     1
290
     0
176
     1
290
     1
176
     1
290
     1
176
     1
290
     0
176
     1
290
     0
176
     1
290
     0
176
     1
290
     0
176
     1
290
     0
176
     1
290
     0
176
     1
 90
       50
176
     1
 40
0.0
176
     1
 40
1.0
176
     1
 90
        0
176
     1
 62
    18
420
        0
176
     1
 90
       50
176
     1
 90
        3
176
     1
 62
     5
420
      255
176
     1
290
     0
176
     1
 90
       50
176
     1
 90
       50
176
     1
 90
       50
176
     1
290
     0
176
     1
 90
       50
176
     1
 62
   256
176
     0
 40
1.0
176
     0
 90
        2
176
     1
  1
strokes_ogs.tif
176
     1
290
     0
176
     1
 40
1.0
176
     1
 40
1.0
176
     1
  0
VISUALSTYLE
  5
A4
102
{ACAD_REACTORS
330
99
102
}
330
99
100
AcDbVisualStyle
  2
Dim
 70
    11
177
     3
291
     1
 70
    58
 90
        2
176
     1
 90
        2
176
     1
 90
        1
176
     1
 90
        0
176
     1
 40
0.6
176
     1
 40
30.0
176
     1
 62
     7
420
 16777215
176
     1
 90
        1
176
     1
 90
        4
176
     1
 62
     7
176
     1
 62
   257
176
     1
 90
        1
176
     1
 90
        1
176
     1
 40
1.0
176
     1
 90
        8
176
     1
 62
     7
176
     1
 40
1.0
176
     1
 90
        1
176
     1
 90
        6
176
     1
 90
        2
176
     1
 62
     7
176
     1
 90
        5
176
     1
 90
        0
176
     1
 90
        0
176
     1
290
     0
176
     1
 90
        1
176
     1
 40
-50.0
176
     1
 90
        0
176
     1
290
     0
176
     1
290
     1
176
     1
290
     1
176
     1
290
     0
176
     1
290
     0
176
     1
290
     0
176
     1
290
     0
176
     1
290
     0
176
     1
290
     0
176
     1
 90
       50
176
     1
 40
0.0
176
     1
 40
1.0
176
     1
 90
        0
176
     1
 62
    18
420
        0
176
     1
 90
       50
176
     1
 90
        3
176
     1
 62
     5
420
      255
176
     1
290
     0
176
     1
 90
       50
176
     1
 90
       50
176
     1
 90
       50
176
     1
290
     0
176
     1
 90
       50
176
     1
 62
   256
176
     0
 40
1.0
176
     0
 90
        2
176
     1
  1
strokes_ogs.tif
176
     1
290
     0
176
     1
 40
1.0
176
     1
 40
1.0
176
     1
  0
VISUALSTYLE
  5
175
102
{ACAD_REACTORS
330
99
102
}
330
99
100
AcDbVisualStyle
  2
EdgeColorOff
 70
    22
177
     3
291
     1
 70
    58
 90
        2
176
     0
 90
        2
176
     0
 90
        0
176
     0
 90
        0
176
     0
 40
0.6
176
     0
 40
30.0
176
     0
 62
     7
420
 16777215
176
     0
 90
        1
176
     0
 90
        4
176
     0
 62
     7
176
     0
 62
   257
176
     0
 90
        1
176
     0
 90
        1
176
     0
 40
1.0
176
     0
 90
        8
176
     2
 62
     7
176
     0
 40
1.0
176
     0
 90
        1
176
     0
 90
        6
176
     0
 90
        2
176
     0
 62
     7
176
     0
 90
        5
176
     0
 90
        0
176
     0
 90
        0
176
     0
290
     0
176
     0
 90
        1
176
     0
 40
0.0
176
     0
 90
        0
176
     0
290
     0
176
     1
290
     1
176
     1
290
     1
176
     1
290
     0
176
     1
290
     0
176
     1
290
     0
176
     1
290
     0
176
     1
290
     0
176
     1
290
     0
176
     1
 90
       50
176
     1
 40
0.0
176
     1
 40
1.0
176
     1
 90
        0
176
     1
 62
    18
420
        0
176
     1
 90
       50
176
     1
 90
        3
176
     1
 62
     5
420
      255
176
     1
290
     0
176
     1
 90
       50
176
     1
 90
       50
176
     1
 90
       50
176
     1
290
     0
176
     1
 90
       50
176
     1
 62
   256
176
     0
 40
1.0
176
     0
 90
        2
176
     1
  1
strokes_ogs.tif
176
     1
290
     0
176
     1
 40
1.0
176
     1
 40
1.0
176
     1
  0
VISUALSTYLE
  5
A8
102
{ACAD_REACTORS
330
99
102
}
330
99
100
AcDbVisualStyle
  2
Facepattern
 70
    15
177
     3
291
     1
 70
    58
 90
        2
176
     1
 90
        2
176
     1
 90
        1
176
     1
 90
        0
176
     1
 40
0.6
176
     1
 40
30.0
176
     1
 62
     7
420
 16777215
176
     1
 90
        1
176
     1
 90
        4
176
     1
 62
     7
176
     1
 62
   257
176
     1
 90
        1
176
     1
 90
        1
176
     1
 40
1.0
176
     1
 90
        8
176
     1
 62
     7
176
     1
 40
1.0
176
     1
 90
        1
176
     1
 90
        6
176
     1
 90
        2
176
     1
 62
     7
176
     1
 90
        5
176
     1
 90
        0
176
     1
 90
        0
176
     1
290
     0
176
     1
 90
        1
176
     1
 40
0.0
176
     1
 90
        0
176
     1
290
     0
176
     1
290
     1
176
     1
290
     1
176
     1
290
     0
176
     1
290
     0
176
     1
290
     0
176
     1
290
     0
176
     1
290
     0
176
     1
290
     0
176
     1
 90
       50
176
     1
 40
0.0
176
     1
 40
1.0
176
     1
 90
        0
176
     1
 62
    18
420
        0
176
     1
 90
       50
176
     1
 90
        3
176
     1
 62
     5
420
      255
176
     1
290
     0
176
     1
 90
       50
176
     1
 90
       50
176
     1
 90
       50
176
     1
290
     0
176
     1
 90
       50
176
     1
 62
   256
176
     0
 40
1.0
176
     0
 90
        2
176
     1
  1
strokes_ogs.tif
176
     1
290
     0
176
     1
 40
1.0
176
     1
 40
1.0
176
     1
  0
VISUALSTYLE
  5
9A
102
{ACAD_REACTORS
330
99
102
}
330
99
100
AcDbVisualStyle
  2
Flat
 70
     0
177
     3
291
     1
 70
    58
 90
        2
176
     1
 90
        1
176
     1
 90
        1
176
     1
 90
        2
176
     1
 40
0.6
176
     1
 40
30.0
176
     1
 62
     7
420
 16777215
176
     1
 90
        0
176
     1
 90
        0
176
     1
 62
     7
176
     1
 62
   257
176
     1
 90
        1
176
     1
 90
        1
176
     1
 40
1.0
176
     1
 90
        8
176
     1
 62
     7
176
     1
 40
1.0
176
     1
 90
        1
176
     1
 90
        6
176
     1
 90
        2
176
     1
 62
     7
176
     1
 90
        5
176
     1
 90
        0
176
     1
 90
        0
176
     1
290
     0
176
     1
 90
       13
176
     1
 40
0.0
176
     1
 90
        0
176
     1
290
     0
176
     1
290
     1
176
     1
290
     1
176
     1
290
     0
176
     1
290
     0
176
     1
290
     0
176
     1
290
     0
176
     1
290
     0
176
     1
290
     0
176
     1
 90
       50
176
     1
 40
0.0
176
     1
 40
1.0
176
     1
 90
        0
176
     1
 62
    18
420
        0
176
     1
 90
       50
176
     1
 90
        3
176
     1
 62
     5
420
      255
176
     1
290
     0
176
     1
 90
       50
176
     1
 90
       50
176
     1
 90
       50
176
     1
290
     0
176
     1
 90
       50
176
     1
 62
   256
176
     0
 40
1.0
176
     0
 90
        2
176
     1
  1
strokes_ogs.tif
176
     1
290
     0
176
     1
 40
1.0
176
     1
 40
1.0
176
     1
  0
VISUALSTYLE
  5
9B
102
{ACAD_REACTORS
330
99
102
}
330
99
100
AcDbVisualStyle
  2
FlatWithEdges
 70
     1
177
     3
291
     1
 70
    58
 90
        2
176
     1
 90
        1
176
     1
 90
        1
176
     1
 90
        2
176
     1
 40
0.6
176
     1
 40
30.0
176
     1
 62
     7
420
 16777215
176
     1
 90
        1
176
     1
 90
        0
176
     1
 62
     7
176
     1
 62
   257
176
     1
 90
        1
176
     1
 90
        1
176
     1
 40
1.0
176
     1
 90
        0
176
     1
 62
   257
176
     1
 40
1.0
176
     1
 90
        1
176
     1
 90
        6
176
     1
 90
        2
176
     1
 62
     7
176
     1
 90
        5
176
     1
 90
        0
176
     1
 90
        0
176
     1
290
     0
176
     1
 90
       13
176
     1
 40
0.0
176
     1
 90
        0
176
     1
290
     0
176
     1
290
     1
176
     1
290
     1
176
     1
290
     0
176
     1
290
     0
176
     1
290
     0
176
     1
290
     0
176
     1
290
     0
176
     1
290
     0
176
     1
 90
       50
176
     1
 40
0.0
176
     1
 40
1.0
176
     1
 90
        0
176
     1
 62
    18
420
        0
176
     1
 90
       50
176
     1
 90
        3
176
     1
 62
     5
420
      255
176
     1
290
     0
176
     1
 90
       50
176
     1
 90
       50
176
     1
 90
       50
176
     1
290
     0
176
     1
 90
       50
176
     1
 62
   256
176
     0
 40
1.0
176
     0
 90
        2
176
     1
  1
strokes_ogs.tif
176
     1
290
     0
176
     1
 40
1.0
176
     1
 40
1.0
176
     1
  0
VISUALSTYLE
  5
9C
102
{ACAD_REACTORS
330
99
102
}
330
99
100
AcDbVisualStyle
  2
Gouraud
 70
     2
177
     3
291
     1
 70
    58
 90
        2
176
     1
 90
        2
176
     1
 90
        1
176
     1
 90
        2
176
     1
 40
0.6
176
     1
 40
30.0
176
     1
 62
     7
420
 16777215
176
     1
 90
        0
176
     1
 90
        0
176
     1
 62
     7
176
     1
 62
   257
176
     1
 90
        1
176
     1
 90
        1
176
     1
 40
1.0
176
     1
 90
        0
176
     1
 62
     7
176
     1
 40
1.0
176
     1
 90
        1
176
     1
 90
        6
176
     1
 90
        2
176
     1
 62
     7
176
     1
 90
        5
176
     1
 90
        0
176
     1
 90
        0
176
     1
290
     0
176
     1
 90
       13
176
     1
 40
0.0
176
     1
 90
        0
176
     1
290
     0
176
     1
290
     1
176
     1
290
     1
176
     1
290
     0
176
     1
290
     0
176
     1
290
     0
176
     1
290
     0
176
     1
290
     0
176
     1
290
     0
176
     1
 90
       50
176
     1
 40
0.0
176
     1
 40
1.0
176
     1
 90
        0
176
     1
 62
    18
420
        0
176
     1
 90
       50
176
     1
 90
        3
176
     1
 62
     5
420
      255
176
     1
290
     0
176
     1
 90
       50
176
     1
 90
       50
176
     1
 90
       50
176
     1
290
     0
176
     1
 90
       50
176
     1
 62
   256
176
     0
 40
1.0
176
     0
 90
        2
176
     1
  1
strokes_ogs.tif
176
     1
290
     0
176
     1
 40
1.0
176
     1
 40
1.0
176
     1
  0
VISUALSTYLE
  5
9D
102
{ACAD_REACTORS
330
99
102
}
330
99
100
AcDbVisualStyle
  2
GouraudWithEdges
 70
     3
177
     3
291
     1
 70
    58
 90
        2
176
     1
 90
        2
176
     1
 90
        1
176
     1
 90
        2
176
     1
 40
0.6
176
     1
 40
30.0
176
     1
 62
     7
420
 16777215
176
     1
 90
        1
176
     1
 90
        0
176
     1
 62
     7
176
     1
 62
   257
176
     1
 90
        1
176
     1
 90
        1
176
     1
 40
1.0
176
     1
 90
        0
176
     1
 62
   257
176
     1
 40
1.0
176
     1
 90
        1
176
     1
 90
        6
176
     1
 90
        2
176
     1
 62
     7
176
     1
 90
        5
176
     1
 90
        0
176
     1
 90
        0
176
     1
290
     0
176
     1
 90
       13
176
     1
 40
0.0
176
     1
 90
        0
176
     1
290
     0
176
     1
290
     1
176
     1
290
     1
176
     1
290
     0
176
     1
290
     0
176
     1
290
     0
176
     1
290
     0
176
     1
290
     0
176
     1
290
     0
176
     1
 90
       50
176
     1
 40
0.0
176
     1
 40
1.0
176
     1
 90
        0
176
     1
 62
    18
420
        0
176
     1
 90
       50
176
     1
 90
        3
176
     1
 62
     5
420
      255
176
     1
290
     0
176
     1
 90
       50
176
     1
 90
       50
176
     1
 90
       50
176
     1
290
     0
176
     1
 90
       50
176
     1
 62
   256
176
     0
 40
1.0
176
     0
 90
        2
176
     1
  1
strokes_ogs.tif
176
     1
290
     0
176
     1
 40
1.0
176
     1
 40
1.0
176
     1
  0
VISUALSTYLE
  5
A1
102
{ACAD_REACTORS
330
99
102
}
330
99
100
AcDbVisualStyle
  2
Hidden
 70
     6
177
     3
291
     0
 70
    58
 90
        1
176
     1
 90
        2
176
     1
 90
        2
176
     1
 90
        0
176
     1
 40
0.6
176
     1
 40
30.0
176
     1
 62
     7
420
 16777215
176
     1
 90
        2
176
     1
 90
        2
176
     1
 62
     7
176
     1
 62
   257
176
     1
 90
        2
176
     1
 90
        1
176
     1
 40
40.0
176
     1
 90
        0
176
     1
 62
   257
176
     1
 40
1.0
176
     1
 90
        1
176
     1
 90
        6
176
     1
 90
        2
176
     1
 62
     7
176
     1
 90
        3
176
     1
 90
        0
176
     1
 90
        0
176
     1
290
     0
176
     1
 90
        1
176
     1
 40
0.0
176
     1
 90
        0
176
     1
290
     0
176
     1
290
     1
176
     1
290
     1
176
     1
290
     0
176
     1
290
     0
176
     1
290
     0
176
     1
290
     0
176
     1
290
     0
176
     1
290
     0
176
     1
 90
       50
176
     1
 40
0.0
176
     1
 40
1.0
176
     1
 90
        0
176
     1
 62
    18
420
        0
176
     1
 90
       50
176
     1
 90
        3
176
     1
 62
     5
420
      255
176
     1
290
     0
176
     1
 90
       50
176
     1
 90
       50
176
     1
 90
       50
176
     1
290
     0
176
     1
 90
       50
176
     1
 62
   256
176
     0
 40
1.0
176
     0
 90
        2
176
     1
  1
strokes_ogs.tif
176
     1
290
     0
176
     1
 40
1.0
176
     1
 40
1.0
176
     1
  0
VISUALSTYLE
  5
173
102
{ACAD_REACTORS
330
99
102
}
330
99
100
AcDbVisualStyle
  2
JitterOff
 70
    20
177
     3
291
     1
 70
    58
 90
        2
176
     0
 90
        2
176
     0
 90
        0
176
     0
 90
        0
176
     0
 40
0.6
176
     0
 40
30.0
176
     0
 62
     7
420
 16777215
176
     0
 90
        1
176
     0
 90
        4
176
     0
 62
     7
176
     0
 62
   257
176
     0
 90
        1
176
     0
 90
        1
176
     0
 40
1.0
176
     0
 90
       10
176
     2
 62
     7
176
     0
 40
1.0
176
     0
 90
        1
176
     0
 90
        6
176
     0
 90
        2
176
     0
 62
     7
176
     0
 90
        5
176
     0
 90
        0
176
     0
 90
        0
176
     0
290
     0
176
     0
 90
        1
176
     0
 40
0.0
176
     0
 90
        0
176
     0
290
     0
176
     1
290
     1
176
     1
290
     1
176
     1
290
     0
176
     1
290
     0
176
     1
290
     0
176
     1
290
     0
176
     1
290
     0
176
     1
290
     0
176
     1
 90
       50
176
     1
 40
0.0
176
     1
 40
1.0
176
     1
 90
        0
176
     1
 62
    18
420
        0
176
     1
 90
       50
176
     1
 90
        3
176
     1
 62
     5
420
      255
176
     1
290
     0
176
     1
 90
       50
176
     1
 90
       50
176
     1
 90
       50
176
     1
290
     0
176
     1
 90
       50
176
     1
 62
   256
176
     0
 40
1.0
176
     0
 90
        2
176
     1
  1
strokes_ogs.tif
176
     1
290
     0
176
     1
 40
1.0
176
     1
 40
1.0
176
     1
  0
VISUALSTYLE
  5
A7
102
{ACAD_REACTORS
330
99
102
}
330
99
100
AcDbVisualStyle
  2
Linepattern
 70
    14
177
     3
291
     1
 70
    58
 90
        2
176
     1
 90
        2
176
     1
 90
        1
176
     1
 90
        0
176
     1
 40
0.6
176
     1
 40
30.0
176
     1
 62
     7
420
 16777215
176
     1
 90
        1
176
     1
 90
        4
176
     1
 62
     7
176
     1
 62
   257
176
     1
 90
        7
176
     1
 90
        7
176
     1
 40
1.0
176
     1
 90
        8
176
     1
 62
     7
176
     1
 40
1.0
176
     1
 90
        1
176
     1
 90
        6
176
     1
 90
        2
176
     1
 62
     7
176
     1
 90
        5
176
     1
 90
        0
176
     1
 90
        0
176
     1
290
     0
176
     1
 90
        1
176
     1
 40
0.0
176
     1
 90
        0
176
     1
290
     0
176
     1
290
     1
176
     1
290
     1
176
     1
290
     0
176
     1
290
     0
176
     1
290
     0
176
     1
290
     0
176
     1
290
     0
176
     1
290
     0
176
     1
 90
       50
176
     1
 40
0.0
176
     1
 40
1.0
176
     1
 90
        0
176
     1
 62
    18
420
        0
176
     1
 90
       50
176
     1
 90
        3
176
     1
 62
     5
420
      255
176
     1
290
     0
176
     1
 90
       50
176
     1
 90
       50
176
     1
 90
       50
176
     1
290
     0
176
     1
 90
       50
176
     1
 62
   256
176
     0
 40
1.0
176
     0
 90
        2
176
     1
  1
strokes_ogs.tif
176
     1
290
     0
176
     1
 40
1.0
176
     1
 40
1.0
176
     1
  0
VISUALSTYLE
  5
174
102
{ACAD_REACTORS
330
99
102
}
330
99
100
AcDbVisualStyle
  2
OverhangOff
 70
    21
177
     3
291
     1
 70
    58
 90
        2
176
     0
 90
        2
176
     0
 90
        0
176
     0
 90
        0
176
     0
 40
0.6
176
     0
 40
30.0
176
     0
 62
     7
420
 16777215
176
     0
 90
        1
176
     0
 90
        4
176
     0
 62
     7
176
     0
 62
   257
176
     0
 90
        1
176
     0
 90
        1
176
     0
 40
1.0
176
     0
 90
        9
176
     2
 62
     7
176
     0
 40
1.0
176
     0
 90
        1
176
     0
 90
        6
176
     0
 90
        2
176
     0
 62
     7
176
     0
 90
        5
176
     0
 90
        0
176
     0
 90
        0
176
     0
290
     0
176
     0
 90
        1
176
     0
 40
0.0
176
     0
 90
        0
176
     0
290
     0
176
     1
290
     1
176
     1
290
     1
176
     1
290
     0
176
     1
290
     0
176
     1
290
     0
176
     1
290
     0
176
     1
290
     0
176
     1
290
     0
176
     1
 90
       50
176
     1
 40
0.0
176
     1
 40
1.0
176
     1
 90
        0
176
     1
 62
    18
420
        0
176
     1
 90
       50
176
     1
 90
        3
176
     1
 62
     5
420
      255
176
     1
290
     0
176
     1
 90
       50
176
     1
 90
       50
176
     1
 90
       50
176
     1
290
     0
176
     1
 90
       50
176
     1
 62
   256
176
     0
 40
1.0
176
     0
 90
        2
176
     1
  1
strokes_ogs.tif
176
     1
290
     0
176
     1
 40
1.0
176
     1
 40
1.0
176
     1
  0
VISUALSTYLE
  5
A3
102
{ACAD_REACTORS
330
99
102
}
330
99
100
AcDbVisualStyle
  2
Realistic
 70
     8
177
     3
291
     0
 70
    58
 90
        2
176
     1
 90
        3
176
     1
 90
        0
176
     1
 90
        2
176
     1
 40
0.6
176
     1
 40
30.0
176
     1
 62
     7
420
 16777215
176
     1
 90
        0
176
     1
 90
        0
176
     1
 62
     7
176
     1
 62
   257
176
     1
 90
        1
176
     1
 90
        1
176
     1
 40
1.0
176
     1
 90
        8
176
     1
 62
   257
176
     1
 40
1.0
176
     1
 90
        1
176
     1
 90
        6
176
     1
 90
        2
176
     1
 62
     7
176
     1
 90
        3
176
     1
 90
        0
176
     1
 90
        0
176
     1
290
     0
176
     1
 90
       13
176
     1
 40
0.0
176
     1
 90
        0
176
     1
290
     0
176
     1
290
     1
176
     1
290
     1
176
     1
290
     0
176
     1
290
     0
176
     1
290
     0
176
     1
290
     0
176
     1
290
     0
176
     1
290
     0
176
     1
 90
       50
176
     1
 40
0.0
176
     1
 40
1.0
176
     1
 90
        0
176
     1
 62
    18
420
        0
176
     1
 90
       50
176
     1
 90
        3
176
     1
 62
     5
420
      255
176
     1
290
     0
176
     1
 90
       50
176
     1
 90
       50
176
     1
 90
       50
176
     1
290
     0
176
     1
 90
       50
176
     1
 62
   256
176
     0
 40
1.0
176
     0
 90
        2
176
     1
  1
strokes_ogs.tif
176
     1
290
     0
176
     1
 40
1.0
176
     1
 40
1.0
176
     1
  0
VISUALSTYLE
  5
182
102
{ACAD_REACTORS
330
99
102
}
330
99
100
AcDbVisualStyle
  2
Shaded
 70
    27
177
     3
291
     0
 70
    58
 90
        2
176
     1
 90
        2
176
     1
 90
        1
176
     1
 90
        2
176
     1
 40
0.6
176
     1
 40
30.0
176
     1
 62
     7
420
 16777215
176
     1
 90
        0
176
     1
 90
        4
176
     1
 62
     7
176
     1
 62
   257
176
     1
 90
        1
176
     1
 90
        1
176
     1
 40
1.0
176
     1
 90
        8
176
     1
 62
   257
176
     1
 40
1.0
176
     1
 90
        1
176
     1
 90
        6
176
     1
 90
        2
176
     1
 62
     8
420
  7895160
176
     1
 90
        3
176
     1
 90
        0
176
     1
 90
        0
176
     1
290
     0
176
     1
 90
        5
176
     1
 40
0.0
176
     1
 90
        0
176
     1
290
     0
176
     1
290
     1
176
     1
290
     1
176
     1
290
     0
176
     1
290
     0
176
     1
290
     0
176
     1
290
     0
176
     1
290
     0
176
     1
290
     0
176
     1
 90
       50
176
     1
 40
0.0
176
     1
 40
1.0
176
     1
 90
        0
176
     1
 62
    18
420
        0
176
     1
 90
       50
176
     1
 90
        3
176
     1
 62
     5
420
      255
176
     1
290
     0
176
     1
 90
       50
176
     1
 90
       50
176
     1
 90
       50
176
     1
290
     0
176
     1
 90
       50
176
     1
 62
   256
176
     0
 40
1.0
176
     0
 90
        2
176
     1
  1
strokes_ogs.tif
176
     1
290
     0
176
     1
 40
1.0
176
     1
 40
1.0
176
     1
  0
VISUALSTYLE
  5
181
102
{ACAD_REACTORS
330
99
102
}
330
99
100
AcDbVisualStyle
  2
Shaded with edges
 70
    26
177
     3
291
     0
 70
    58
 90
        2
176
     1
 90
        2
176
     1
 90
        1
176
     1
 90
        2
176
     1
 40
0.6
176
     1
 40
30.0
176
     1
 62
     7
420
 16777215
176
     1
 90
        1
176
     1
 90
        2
176
     1
 62
     7
176
     1
 62
   257
176
     1
 90
        2
176
     1
 90
        1
176
     1
 40
1.0
176
     1
 90
        8
176
     1
 62
   257
176
     1
 40
1.0
176
     1
 90
        1
176
     1
 90
        6
176
     1
 90
        2
176
     1
 62
     7
176
     1
 90
        3
176
     1
 90
        0
176
     1
 90
        0
176
     1
290
     0
176
     1
 90
        5
176
     1
 40
0.0
176
     1
 90
        0
176
     1
290
     0
176
     1
290
     1
176
     1
290
     1
176
     1
290
     0
176
     1
290
     0
176
     1
290
     0
176
     1
290
     0
176
     1
290
     0
176
     1
290
     0
176
     1
 90
       50
176
     1
 40
0.0
176
     1
 40
1.0
176
     1
 90
        0
176
     1
 62
    18
420
        0
176
     1
 90
       50
176
     1
 90
        3
176
     1
 62
     5
420
      255
176
     1
290
     0
176
     1
 90
       50
176
     1
 90
       50
176
     1
 90
       50
176
     1
290
     0
176
     1
 90
       50
176
     1
 62
   256
176
     0
 40
1.0
176
     0
 90
        2
176
     1
  1
strokes_ogs.tif
176
     1
290
     0
176
     1
 40
1.0
176
     1
 40
1.0
176
     1
  0
VISUALSTYLE
  5
17E
102
{ACAD_REACTORS
330
99
102
}
330
99
100
AcDbVisualStyle
  2
Shades of Gray
 70
    23
177
     3
291
     0
 70
    58
 90
        2
176
     1
 90
        2
176
     1
 90
        3
176
     1
 90
        0
176
     1
 40
0.6
176
     1
 40
30.0
176
     1
 62
     7
420
 16777215
176
     1
 90
        2
176
     1
 90
        2
176
     1
 62
     7
176
     1
 62
     7
176
     1
 90
        1
176
     1
 90
        1
176
     1
 40
40.0
176
     1
 90
        8
176
     1
 62
     7
176
     1
 40
1.0
176
     1
 90
        1
176
     1
 90
        6
176
     1
 90
        2
176
     1
 62
     7
176
     1
 90
        3
176
     1
 90
        0
176
     1
 90
        0
176
     1
290
     0
176
     1
 90
        1
176
     1
 40
0.0
176
     1
 90
        0
176
     1
290
     0
176
     1
290
     1
176
     1
290
     1
176
     1
290
     0
176
     1
290
     0
176
     1
290
     0
176
     1
290
     0
176
     1
290
     0
176
     1
290
     0
176
     1
 90
       50
176
     1
 40
0.0
176
     1
 40
1.0
176
     1
 90
        0
176
     1
 62
    18
420
        0
176
     1
 90
       50
176
     1
 90
        3
176
     1
 62
     5
420
      255
176
     1
290
     0
176
     1
 90
       50
176
     1
 90
       50
176
     1
 90
       50
176
     1
290
     0
176
     1
 90
       50
176
     1
 62
   256
176
     0
 40
1.0
176
     0
 90
        2
176
     1
  1
strokes_ogs.tif
176
     1
290
     0
176
     1
 40
1.0
176
     1
 40
1.0
176
     1
  0
VISUALSTYLE
  5
17F
102
{ACAD_REACTORS
330
99
102
}
330
99
100
AcDbVisualStyle
  2
Sketchy
 70
    24
177
     3
291
     0
 70
    58
 90
        1
176
     1
 90
        2
176
     1
 90
        2
176
     1
 90
        0
176
     1
 40
0.6
176
     1
 40
30.0
176
     1
 62
     7
420
 16777215
176
     1
 90
        2
176
     1
 90
        2
176
     1
 62
     7
176
     1
 62
     7
176
     1
 90
        1
176
     1
 90
        1
176
     1
 40
40.0
176
     1
 90
       11
176
     1
 62
     7
176
     1
 40
1.0
176
     1
 90
        1
176
     1
 90
        6
176
     1
 90
        2
176
     1
 62
     7
176
     1
 90
        6
176
     1
 90
        0
176
     1
 90
        0
176
     1
290
     0
176
     1
 90
        1
176
     1
 40
0.0
176
     1
 90
        0
176
     1
290
     0
176
     1
290
     1
176
     1
290
     1
176
     1
290
     0
176
     1
290
     0
176
     1
290
     0
176
     1
290
     0
176
     1
290
     0
176
     1
290
     0
176
     1
 90
       50
176
     1
 40
0.0
176
     1
 40
1.0
176
     1
 90
        0
176
     1
 62
    18
420
        0
176
     1
 90
       50
176
     1
 90
        3
176
     1
 62
     5
420
      255
176
     1
290
     0
176
     1
 90
       50
176
     1
 90
       50
176
     1
 90
       50
176
     1
290
     0
176
     1
 90
       50
176
     1
 62
   256
176
     0
 40
1.0
176
     0
 90
        2
176
     1
  1
strokes_ogs.tif
176
     1
290
     0
176
     1
 40
1.0
176
     1
 40
1.0
176
     1
  0
VISUALSTYLE
  5
A6
102
{ACAD_REACTORS
330
99
102
}
330
99
100
AcDbVisualStyle
  2
Thicken
 70
    13
177
     3
291
     1
 70
    58
 90
        2
176
     1
 90
        2
176
     1
 90
        1
176
     1
 90
        0
176
     1
 40
0.6
176
     1
 40
30.0
176
     1
 62
     7
420
 16777215
176
     1
 90
        1
176
     1
 90
        4
176
     1
 62
     7
176
     1
 62
   257
176
     1
 90
        1
176
     1
 90
        1
176
     1
 40
1.0
176
     1
 90
       12
176
     1
 62
     7
176
     1
 40
1.0
176
     1
 90
        1
176
     1
 90
        6
176
     1
 90
        2
176
     1
 62
     7
176
     1
 90
        5
176
     1
 90
        0
176
     1
 90
        0
176
     1
290
     0
176
     1
 90
        1
176
     1
 40
0.0
176
     1
 90
        0
176
     1
290
     0
176
     1
290
     1
176
     1
290
     1
176
     1
290
     0
176
     1
290
     0
176
     1
290
     0
176
     1
290
     0
176
     1
290
     0
176
     1
290
     0
176
     1
 90
       50
176
     1
 40
0.0
176
     1
 40
1.0
176
     1
 90
        0
176
     1
 62
    18
420
        0
176
     1
 90
       50
176
     1
 90
        3
176
     1
 62
     5
420
      255
176
     1
290
     0
176
     1
 90
       50
176
     1
 90
       50
176
     1
 90
       50
176
     1
290
     0
176
     1
 90
       50
176
     1
 62
   256
176
     0
 40
1.0
176
     0
 90
        2
176
     1
  1
strokes_ogs.tif
176
     1
290
     0
176
     1
 40
1.0
176
     1
 40
1.0
176
     1
  0
VISUALSTYLE
  5
A0
102
{ACAD_REACTORS
330
99
102
}
330
99
100
AcDbVisualStyle
  2
Wireframe
 70
     5
177
     3
291
     0
 70
    58
 90
        0
176
     1
 90
        2
176
     1
 90
        0
176
     1
 90
        0
176
     1
 40
0.6
176
     1
 40
30.0
176
     1
 62
     7
420
 16777215
176
     1
 90
        1
176
     1
 90
        4
176
     1
 62
     7
176
     1
 62
   257
176
     1
 90
        1
176
     1
 90
        1
176
     1
 40
1.0
176
     1
 90
        0
176
     1
 62
   257
176
     1
 40
1.0
176
     1
 90
        1
176
     1
 90
        6
176
     1
 90
        2
176
     1
 62
     7
176
     1
 90
        3
176
     1
 90
        0
176
     1
 90
        0
176
     1
290
     0
176
     1
 90
        1
176
     1
 40
0.0
176
     1
 90
        0
176
     1
290
     0
176
     1
290
     1
176
     1
290
     1
176
     1
290
     0
176
     1
290
     0
176
     1
290
     0
176
     1
290
     0
176
     1
290
     0
176
     1
290
     0
176
     1
 90
       50
176
     1
 40
0.0
176
     1
 40
1.0
176
     1
 90
        0
176
     1
 62
    18
420
        0
176
     1
 90
       50
176
     1
 90
        3
176
     1
 62
     5
420
      255
176
     1
290
     0
176
     1
 90
       50
176
     1
 90
       50
176
     1
 90
       50
176
     1
290
     0
176
     1
 90
       50
176
     1
 62
   256
176
     0
 40
1.0
176
     0
 90
        2
176
     1
  1
strokes_ogs.tif
176
     1
290
     0
176
     1
 40
1.0
176
     1
 40
1.0
176
     1
  0
VISUALSTYLE
  5
180
102
{ACAD_REACTORS
330
99
102
}
330
99
100
AcDbVisualStyle
  2
X-Ray
 70
    25
177
     3
291
     0
 70
    58
 90
        2
176
     1
 90
        2
176
     1
 90
        1
176
     1
 90
        1
176
     1
 40
0.5
176
     1
 40
30.0
176
     1
 62
     7
420
 16777215
176
     1
 90
        1
176
     1
 90
        0
176
     1
 62
     7
176
     1
 62
   257
176
     1
 90
        1
176
     1
 90
        1
176
     1
 40
1.0
176
     1
 90
        8
176
     1
 62
     7
176
     1
 40
1.0
176
     1
 90
        1
176
     1
 90
        6
176
     1
 90
        2
176
     1
 62
     7
176
     1
 90
        3
176
     1
 90
        0
176
     1
 90
        0
176
     1
290
     0
176
     1
 90
       13
176
     1
 40
0.0
176
     1
 90
        0
176
     1
290
     0
176
     1
290
     1
176
     1
290
     1
176
     1
290
     0
176
     1
290
     0
176
     1
290
     0
176
     1
290
     0
176
     1
290
     0
176
     1
290
     0
176
     1
 90
       50
176
     1
 40
0.0
176
     1
 40
1.0
176
     1
 90
        0
176
     1
 62
    18
420
        0
176
     1
 90
       50
176
     1
 90
        3
176
     1
 62
     5
420
      255
176
     1
290
     0
176
     1
 90
       50
176
     1
 90
       50
176
     1
 90
       50
176
     1
290
     0
176
     1
 90
       50
176
     1
 62
   256
176
     0
 40
1.0
176
     0
 90
        2
176
     1
  1
strokes_ogs.tif
176
     1
290
     0
176
     1
 40
1.0
176
     1
 40
1.0
176
     1
  0
DICTIONARYVAR
  5
F0
102
{ACAD_REACTORS
330
66
102
}
330
66
100
DictionaryVariables
280
     0
  1
1:1
  0
DICTIONARYVAR
  5
EF
102
{ACAD_REACTORS
330
66
102
}
330
66
100
DictionaryVariables
280
     0
  1
STANDARD
  0
DICTIONARYVAR
  5
89
102
{ACAD_REACTORS
330
66
102
}
330
66
100
DictionaryVariables
280
     0
  1
STANDARD
  0
DICTIONARYVAR
  5
1B7
102
{ACAD_REACTORS
330
66
102
}
330
66
100
DictionaryVariables
280
     0
  1
Imperial24
  0
DICTIONARYVAR
  5
1B8
102
{ACAD_REACTORS
330
66
102
}
330
66
100
DictionaryVariables
280
     0
  1
Imperial24
  0
DICTIONARYVAR
  5
67
102
{ACAD_REACTORS
330
66
102
}
330
66
100
DictionaryVariables
280
     0
  1
2
  0
DICTIONARYVAR
  5
6B
102
{ACAD_REACTORS
330
66
102
}
330
66
100
DictionaryVariables
280
     0
  1
1
  0
DICTIONARYVAR
  5
14D
102
{ACAD_REACTORS
330
66
102
}
330
66
100
DictionaryVariables
280
     0
  1
0
  0
DICTIONARYVAR
  5
14E
102
{ACAD_REACTORS
330
66
102
}
330
66
100
DictionaryVariables
280
     0
  1
0
  0
DICTIONARY
  5
194
330
22
100
AcDbDictionary
280
     1
281
     1
  0
DICTIONARY
  5
188
330
97
100
AcDbDictionary
280
     1
281
     1
  3
FBXASSET
360
189
  0
DICTIONARY
  5
186
330
96
100
AcDbDictionary
280
     1
281
     1
  3
FBXASSET
360
187
  0
DICTIONARY
  5
110
330
98
100
AcDbDictionary
280
     1
281
     1
  3
BUMPTILE
360
112
  3
DIFFUSETILE
360
111
  3
FBXASSET
360
18A
  3
OPACITYTILE
360
113
  3
REFLECTIONTILE
360
114
  0
DICTIONARY
  5
104
330
87
100
AcDbDictionary
280
     1
281
     1
  3
ACAD_ROUNDTRIP_2008_TABLESTYLE_CELLSTYLEMAP
360
EB4
  0
XRECORD
  5
189
102
{ACAD_REACTORS
330
188
102
}
330
188
100
AcDbXrecord
280
     1
 70
     1
 90
429727718
  1
508B35C9-AEE7-456F-BE74-D52651303AC6
310
504B03040A0000080000B670623B3DEE336E79000000790000001B0000006175746F6465736B2D64657369676E2D7061636B6167652E786D6C3C3F786D6C2076657273696F6E3D22312E302220656E636F64696E673D227574662D3822203F3E3C666F726D6174733E3C666F726D61743E687474703A2F2F736368656D612E
310
6175746F6465736B2E636F6D2F64657369676E2D7061636B6167652F323030393C2F666F726D61743E3C2F666F726D6174733E504B0304140006080800B670623BD486FD9CA0000000F4000000130000005B436F6E74656E745F54797065735D2E786D6C7D8EC10E82300C865F65E91D8A1E8C310C0EEA1BF002731658846E
310
D98AC1B77784ABF1D8FE5FBFBF75BBCE937A534CCEB38643598122B6FEE978D0B0485F9C41B54DDD7D022595594E1A469170414C76A4D9A4D207E29CF43ECE46F218070CC6BECC4078ACAA135ACF422C856C0E68EA1BF5669944DDD7BCDE7B1F8E415D77AECB980613C2E4AC91FC167A2B244592486606FC29C8FD7F045B9A
310
EF7053A7E60B504B0304140006080800B670623B28ED286BEB0000007C01000008000000636F72652E786D6C8D90416EC3201045AF82665B6183218D6D61A254764FD00B204C5C94182C03558F5F9C3852BBEB6A467FFE9B197D71FA9E6FE8CBACC17AD7012D0820E3B41FAD9B3A48F1826B40272956EFE32F1B20A766D3C1
310
268314D3EAD3B24BDABB685CCCAAF3A3D94515828980F42D371D04FD696655A814B3235C8B45E9AB9A4C419F5D8653B2237A1CB163DE672FD6AC209BF3C08E0D1B30EB19C3FC9D72FCC6EB231EFA33EDE96BDD341517E5064B11EDFCBCAF57A3A2194156843498524CAA0FCA5B7268F9E185D42D21A2DCEC7FA0B48CFF8492
310
759155FBBB0F2C80A4F991FB408A72CB22977B50B96EB9C91F504B0304140006080800B670623B55019EA25F0000007C00000007000000636E782E786D6C4DCB3B0E80201045D1AD90E915ED2CF8AC45050C11660C8261F98AB1B07AC9C97D42D718D865D3E909258CFD00CCE24AC6E326A164D74DC0B4128928FF32603847
310
2BA13128B1252AC747C6BAB984FC68F0B87FE8960A5C09FE86CFB69FBA01504B0304140006080800B670623B7BC41AC871010000D40300000C0000006662782F636F72652E786D6CC553ED6E8320147D15C2DF4501B56B6D90A64BBB27D80B50A5CE54C120983EFEAE1F4DD7A56BBA5FF3879273EEE59E7310BE393735EA95
310
ED2AA333CC428A91D2B9292A5D66D8BB63B0C26823B835C67D2BC348CB46657880B1E0A535BE9DA1DC68A7B403549B42CDA0EC3AE530CA6B5864B8CB3F552343E91D5474A7B095F949962A6421D0502778E72C0840D390E18DC5F170E664C205F7BE2A66B62A605A75AC94C522DDEEE3651AEF837817C741F2CE92E02D592D
310
83FD6ECB76EC7595A651C2C9D02CB8AB9A8BBADC2AE954814544691A3016D0E883256BBA58278B17BA5A53CAC9507ED3E4DBE2C9265F691747B3DCA9ADC382819091F8E1162272A8933DE82182932144F88C09DF060D8140C84E1EEA8B8F1340BDCA9DB1093085F157AA97B557309586747CD0EF0B4EA64E983A6E0EAEEFCE
310
889E9EF17847386AA94B30211D2C0FDE0D3AF9A4610EAD5536E8DD1969631B593F67E381C33F5157F17725E5A636F6BF1491F980C8FC7B90E13E8A2F504B0304140006080800B670623B70102A487D0000009D0000000B0000006662782F636E782E786D6C4DCCD10A83201886E15B91FFDC95A5C30335ACCDFB886521330D
310
A76397BF1A1DECE883878F57749FD5A3B74D2F17830472A901D9F088930B8B849267CC01754AA418F3DF0D5018572BE160506249B16C274D761E8BCFBB7A179E27F65CB39A0F14D396184C9921B81F34C3ACA1B4B99ABB6E6F062A25AA5F69DF23ACBE504B0304140006080800B670623B3610CA3329010000120200003100
310
00006662782F42384135303843342D343331462D343546312D424341352D3532343432364645413344462F636F72652E786D6C8D515B6EC32010BC0AE22B55850D0E446E848992B43E412FE000495162B07854397EA176A4F62F3F2C9A9D991D58BEBB8F37F0AD7D30CE76905418026DA553C65E3A98E219B510EC04F7CEC5
310
3F3408EC30EA0E16180A7EF12E4D0B249D8DDAC68C5AA7F4020E21E80881BCE54B0783FCD2E3500D296646B856D320AFC34557A4CAEDCC133C449F0380794839A138B47B86DB2345744D7A44594FD0E1B867883594369BFE63BF7EEF793D0B054FC9A8456E548E63CE46FB674D8A58F068C6477CE9F510B582A2C1F80D1182
310
70F349E816B32D65AFB8DD62CCEB42FF274A937A52948C8DEB66893BCB021484D7734370E5D2E9F608A3EF93F3119479ABA0E50B14B8C298119A43CCC4FCFCECB8A18B6388CEE7EF5D5D4F994BD86CBBA182D76543B9FCAE2FD7B24DF103504B0304140006080800B670623B1B8617914E0100003303000030000000666278
310
2F42384135303843342D343331462D343546312D424341352D3532343432364645413344462F636E782E786D6CD593C16EC32010447F0571AD6CE3D489D20813A9877E410FBD62D82434182CC055F3F75D1292E692438FBD206B7698593D61BEFD1E2DF982108D773D6D6B460938E5B571FB9ECE6957AD29D90A1EBC4F7736
310
4A9C1CA1A759A682EF839FA72269D8C9D92654AD71C72206887E0E0A22CAF926B15E498B01E0AA19451807D01A34B919F16B070157417138917400F2F6FA41FCF0092A45DEE414C19BDC21783E4BD39D891265658C3D8DEA00A3ACE59CBC8678ACB54CB26EEB6BD7839D7E9348BE70AD9C8321B9BCA7F9A4A26C542347DEE0
310
50F09802D22BA6749A800A394DD62899107273365E3C82CFC6A55557BC06C10774B7ABE7AEC3B0F34CF06446280E154026D0542C187BA9DAB6628BF7B6DBB0E5A65B3EB1F58631DE64BBE083F7B65CC218087E22CABB042E51D1F2268F1FE12B3EA24D40D63E9CFE00120194D60B9D5BC67FE6D39CDF37E20AF817881F504B
310
0304140006080800B670623BBFEF2E3B690500003C100000340000006662782F42384135303843342D343331462D343546312D424341352D3532343432364645413344462F6F626A656374732E786D6CAD575D739B3814FD2B0CFB0C98D84E931D4227B6938EA793B6534F3BFB90198F0099B001899144EAECAFDF231018B0
310
D37A3FFC609090EEE7B94757C1FB7D915B2F54C88CB31BDB7727B64559CC938CA53776A576CE956DBD0F03C1B9EA2DB32D460A7A63EB693B0C52C1ABD24C257447AA5C8D66EF177F5832A68CDA569C13296F6C193FD182B8A4523CA1F2D94D88226EBADBBBBEDB2C1C8A4D05299F46424B222853B014F30C52ACC6287F389C
310
D85E1878FA7B18E87FB36AFAF62AAFF667A83F635211161F291B8999FAB3D5DDC5FCDA99CF6653677679E13B8BFBC5CAF1DF4D27CBCBE5F2FAF6EE1A8AA51290642C117467871F101B91C581D77CEA2C36869F3229E68CD1B8F61F1ED6361B89092D294B90C78C4A68EB793D190E7D1D9BDEE7A91E1B95FDE9F3BCEAEFE809
310
6A6D6F9F7D4B79F4275C90E7A04248AA51D5C4C738DAE06F72885AC4796EBE65D22A88A22223B995679120E2D50EB1542F098381188D4EA111AE3DB043FF20AF6F2B4AE3D7D83D65E5AECA730D4D3BAC91BD05FEA992B565D95F549CD6069B90AB2A63EACA38A45E4B6A87D781574F86817E4C2FCCC72690D62E2729520E37
310
9BAF234797BAF6D62B3BFC781FED37BA1E4F2B2F052FA9501A3E80569BB8F6A9A364D4FA67654E6F803383981F82F21591FF84F23D9882BC896C3FDBCF8C162508933B2E0AE4C69DD43F6BD2BE38DDDBF10BF86CB4FA784D37F3AF16075E67EC9030DECA1FC0A55373F5DFF3378C591FA9BDF485C10B0A8C8BA909E5262639
310
A8E72163488806A595734C81CB77D1DE0ED7604A303B76913CEC0272F412782FF88EFF4636D8AA56DF7B322474C4B767303F625997056C7B032C473C592B36CEBD15F3F9FF5233B7ABCDC74D257624A60F8658567497B14CE1EC3C80B76FD02011038F9EE9EB0F2E12387A9C844D3F09855125116D1D731DF8B43D2CF4E0A0
310
79A020C6BE946BCE0B7EA1E1219331CD73C228AF5A2DDD31A4B1DA918CE91350854D40A71723140BFA92E94E62B0626016CEFA5864A50E5977E8753CEDBEE1CBB7F52780D20E17AF0BA0F5F9B02A3AD07DCC732EB6D1EBB661421BE0C39E21BABF0FE16D22EA6929407C8DE596724C88B749B6DB5512BC7B228ADFD7CB7EA6
310
3A22397E690BA8D5D8D4E40CEC8CDA23C2C0B7D5898640101CEC9C6D331CE328CB93CAFBBAC70A642DF70DF95155945B52F08AA973C23469FD69ADEF84F7BB18F983A8F8C90E37F5D35980B2139A1C523540813E824EF83448CF7C72B598CE97D7CEEDDDDD3B6736BFBC771677EF66CE6A7E7139F7A793E9EDF2B2B3A8B624
310
0CDA13AA5F8388264EC4A0129909F3B7F5A16CEDF08128E97D680ACA4B9BE7B7B58BB638F0B00700EF36AE8B32A705658A68F83EE897FC2B41573190D1CCAF0B92D233A47CFEB019D9809933F67DD1A5467F8CF69AD9A5AE859342D45355448C64F968A371DC2D596ADC6E43D93D1B466F877A64E2893E54F23C4B40388995
310
525E5005DA3983ED45412510D3EFCA13737B3863F74BD30F2A12E5B4B5E489A025CE25500DB855B11ACE5BBFA185D35DD48D8DC3CE7DC69F2944DB42AA6F6CF09BCA622ADD08C7A36E7C6AE18000BAB08E040135C2D21C9D75B3A91B77BB746C403F38018DFE6EC939DD92F16B40BC05294B9CDA035AAD6D330AE27FE4786B
310
8E45145EA34A75BE1C263A676A35A8ACC6297337400BF16C54EF515F3F77CB77EB3583889C754FFA29081AA98E2222ADEF05DA3E63D2EDEA8B8756C05A7FB6CABC4A91CBF325398202CC952E70A008A830324BA200D5E5EF8F5F04C75DB4B0EE3340E071C98B823333B83577596BF3849B69F2085AA0FAFA212F26BEFF5877
310
FDE622B28D88A42E49E43326DA82D31E8CB006401E1DA726059ECEC168F97A6599036306A135688F9AD2E61A6EA178F4CD51974A9F2CCB9F36FE5EBD14601068D9C3BF01504B0304140006080000B670623B000000000000000000000000350000006662782F42384135303843342D343331462D343546312D424341352D35
310
32343432364645413344462F76657274696365732E62696E504B0304140006080800B670623BF270F1330600000004000000360000006662782F42384135303843342D343331462D343546312D424341352D3532343432364645413344462F747269616E676C65732E62696E636660600000504B0304140006080000B67062
310
3B000000000000000000000000370000006662782F42384135303843342D343331462D343546312D424341352D3532343432364645413344462F617474726962757465732E62696E504B0304140006080800B670623B08DA0BD19000000041010000360000006662782F42384135303843342D343331462D343546312D4243
310
41352D3532343432364645413344462F6469726563746F72792E786D6C858F410AC3201045AF22B36F53E9A60B35CBEEBAE80D244E44489C6234F4F835464A48035D0DF398FF9F8AF63D0E6CC63039F212F8F9020C7D47C6792B21C5FE7403D62A1188E2E60C98D7234A5830286103A55745067B9D86B8A3CF9C7F90C11DE6
310
07FB144396D7B6A82D282E9A152AD114D5EF2CB866EEE831B8EEA07A7BB5A8D7D61A2BAAEB7FD5F70921FF497D00504B0304140006080800B670623B3B4606F3FE000000A00100003B0000006662782F42384135303843342D343331462D343546312D424341352D3532343432364645413344462F7265736F75726365732F
310
636F72652E786D6C8D504B6E833010BD0A9A6D65B08134808CA354A427E8052C332156828DFCA97AFC9A40A576D7CDCCE87D344F8F9FBEE647F689CE6B6B7A6039850C8DB2A336530F315C4903D94970676DF82583CCC8197B5861107C72362E3BA4AC096842428D1D7107A5F71820538F74F4E0D50D6799CB1892C2DFF345
310
AABB9C306779A2934E701F5C0A906D4FD609C2A1B7D129F4BCD858C163D4E3AED163FAA9AF1A1D88F67CA98E6D35906AA82A52BFB39ABCD5CD915C86331BD86BD3B665CD8BD52C78D0F34F46E550061C419494B6843142CB0F5677F4D0D58717DA7494F26295FF31C565FCA7296A13AA728FBBD93C0896823C09C18BB5AFB4
310
9E65A6BD762BBE01504B010214000A0000080000B670623B3DEE336E79000000790000001B00000000000000000000000000000000006175746F6465736B2D64657369676E2D7061636B6167652E786D6C504B01021400140006080800B670623BD486FD9CA0000000F40000001300000000000000000000000000B2000000
310
5B436F6E74656E745F54797065735D2E786D6C504B01021400140006080800B670623B28ED286BEB0000007C010000080000000000000000000000000083010000636F72652E786D6C504B01021400140006080800B670623B55019EA25F0000007C000000070000000000000000000000000094020000636E782E786D6C50
310
4B01021400140006080800B670623B7BC41AC871010000D40300000C00000000000000000000000000180300006662782F636F72652E786D6C504B01021400140006080800B670623B70102A487D0000009D0000000B00000000000000000000000000B30400006662782F636E782E786D6C504B01021400140006080800B6
310
70623B3610CA3329010000120200003100000000000000000000000000590500006662782F42384135303843342D343331462D343546312D424341352D3532343432364645413344462F636F72652E786D6C504B01021400140006080800B670623B1B8617914E010000330300003000000000000000000000000000D10600
310
006662782F42384135303843342D343331462D343546312D424341352D3532343432364645413344462F636E782E786D6C504B01021400140006080800B670623BBFEF2E3B690500003C10000034000000000000000000000000006D0800006662782F42384135303843342D343331462D343546312D424341352D35323434
310
32364645413344462F6F626A656374732E786D6C504B01021400140006080000B670623B0000000000000000000000003500000000000000000000000000280E00006662782F42384135303843342D343331462D343546312D424341352D3532343432364645413344462F76657274696365732E62696E504B010214001400
310
06080800B670623BF270F133060000000400000036000000000000000000000000007B0E00006662782F42384135303843342D343331462D343546312D424341352D3532343432364645413344462F747269616E676C65732E62696E504B01021400140006080000B670623B00000000000000000000000037000000000000
310
00000000000000D50E00006662782F42384135303843342D343331462D343546312D424341352D3532343432364645413344462F617474726962757465732E62696E504B01021400140006080800B670623B08DA0BD1900000004101000036000000000000000000000000002A0F00006662782F42384135303843342D3433
310
31462D343546312D424341352D3532343432364645413344462F6469726563746F72792E786D6C504B01021400140006080800B670623B3B4606F3FE000000A00100003B000000000000000000000000000E1000006662782F42384135303843342D343331462D343546312D424341352D3532343432364645413344462F72
310
65736F75726365732F636F72652E786D6C504B0506000000000E000E0080040000651100000000
  0
XRECORD
  5
187
102
{ACAD_REACTORS
330
186
102
}
330
186
100
AcDbXrecord
280
     1
 70
     1
 90
429727718
  1
887D55A9-D0DD-414E-B741-A7DCD4DA2B4C
310
504B03040A0000080000B670623B3DEE336E79000000790000001B0000006175746F6465736B2D64657369676E2D7061636B6167652E786D6C3C3F786D6C2076657273696F6E3D22312E302220656E636F64696E673D227574662D3822203F3E3C666F726D6174733E3C666F726D61743E687474703A2F2F736368656D612E
310
6175746F6465736B2E636F6D2F64657369676E2D7061636B6167652F323030393C2F666F726D61743E3C2F666F726D6174733E504B0304140006080800B670623BD486FD9CA0000000F4000000130000005B436F6E74656E745F54797065735D2E786D6C7D8EC10E82300C865F65E91D8A1E8C310C0EEA1BF002731658846E
310
D98AC1B77784ABF1D8FE5FBFBF75BBCE937A534CCEB38643598122B6FEE978D0B0485F9C41B54DDD7D022595594E1A469170414C76A4D9A4D207E29CF43ECE46F218070CC6BECC4078ACAA135ACF422C856C0E68EA1BF5669944DDD7BCDE7B1F8E415D77AECB980613C2E4AC91FC167A2B244592486606FC29C8FD7F045B9A
310
EF7053A7E60B504B0304140006080800B670623BBC1638F5EC0000007C01000008000000636F72652E786D6C8D90416EC3201045AF82665B61836BE2D8C24471DB9CA01740401C94182C03558F5F9C3852BBEB6A467FFE9B197D7EF89E6EE8CB2CC17AD7032D0820E394D7D68D3DA478C67B4007C117EFE32F1B202727D3C3
310
2A83E0E3E2D3BC49CABB685CCCAAF3DA6CA20CC14440EA969B1E82BA98491632C5EC08D76296EA2A4753D06797E194AC468F2356E77DF66CCD02825543D50CACC62D39ED70FDC68EB8FD68F6F8787A6784342D1DDA1D2F5758F068A7E77DB518198D065111D2624A31A93E69DD11D6D5EC85EC3B4278B9DAFF4069D6FF8492
310
75F1B5DADE7D600104CD8FDC0782976B16B9DC83CA75CD4DFC00504B0304140006080800B670623B55019EA25F0000007C00000007000000636E782E786D6C4DCB3B0E80201045D1AD90E915ED2CF8AC45050C11660C8261F98AB1B07AC9C97D42D718D865D3E909258CFD00CCE24AC6E326A164D74DC0B4128928FF326038
310
472BA13128B1252AC747C6BAB984FC68F0B87FE8960A5C09FE86CFB69FBA01504B0304140006080800B670623B3586FFB671010000D40300000C0000006662782F636F72652E786D6CC553ED6E8320147D15C2DF4541A76D6D90A6DDD627D80B50A4CE54C120983EFEAE1F4DD7A55BBA5FF3879273EEE59E7310B6393735EA
310
95ED2AA3731C851423A5A5292A5DE6D8BB63B0C268C39935C67D29C3488B46E578803167A535BE9D2169B453DA01AA4DA16650749D7218C91A1639EEE4876A4428BC838AEE14B6429E44A9C228041AEA38EB9C0501681A32BC313F1ECE8C4C3867DE57C5CC56054CAB8E95B298A7F12E5EEED224C8E87E11242FE936C8DE96
310
AB60BB7F4D295D66D12E5B30323473E6AAE6A24E5A259C2A308F29CD82280A68FC1E256B9AAE93F489AED694323294DF34F9B678B0C957DA3DC7B3DCA9ADC33C022123F1CD2D44E450277AD04338234388F01913BE0D1A0281909D38D4171F27807A259DB1093085F157AA17B557309586747CD0CF0B46A64E983A6E0EAEEF
310
CE881F9EF1FB8E70D44297604238581EBC1B74B249C31C5AAB6CD0BB33D2C636A27ECCC62F0EFF445DC5DF95244D6DEC7F2922F30191F9F720C37DE49F504B0304140006080800B670623B4220A0FF7D0000009D0000000B0000006662782F636E782E786D6C4DCCD10A83201886E15B91FFDCE542CB0335D0EC3E6259C84A
310
C3E9D8E5AF46073BFAE0E1E315DD675BD1DBA5978F41C2FD4600B9F088930F8B849267CC01754AA418F3DF0D50183727E164506249B1EC174D6E1ECB9A0F5D7D785E68DB8151CD286E5A5363CA6B8A39E90D36D40E96B086F55A43A544F52B1D7B86D517504B0304140006080800B670623B2FA3FEDE290100001202000031
310
0000006662782F45374635344235342D363743322D343832342D383044432D4334454645303536354442422F636F72652E786D6C8D515B6EC32010BC0AE22B55850D2E386E848994D7097A0117488A1283C5A3CAF10BB523B57FF961D1ECCCECC0F2ED7DBC816FED8371B687A4C210682B9D32F6D2C314CFA883602BB8772E
310
FEA141608751F7B0C050F08B77695A20E96CD43666D43AA5177008414708E42D5F7A18E4971E876A483133C2B59A06791D2EBA22556E679EE021FA1C00CC43CA09C5717D6274C7286AD7FB06D1AEA1A8C3873DDAD3E3E98859CB0EBB1DAF67A1E02919B5C88DCA71CCD968FFAC49110B1ECDF8882FBD1EA256503418BF2342
310
106E3E08DD60B6A1EC15771B8C795DE8FF4469524F8A92B1F1AD59E2CEB20005E1F5DC105CB9F4797B84D1F7C9F908CABC55D0F2050A5C61CC1AD2F27A26E6E767C7962E8E213A9FBF7775FDCC5CC266DB960A5E970DE5F2BBBE5CCB36C50F504B0304140006080800B670623B1B8617914E01000033030000300000006662
310
782F45374635344235342D363743322D343832342D383044432D4334454645303536354442422F636E782E786D6CD593C16EC32010447F0571AD6CE3D489D20813A9877E410FBD62D82434182CC055F3F75D1292E692438FBD206B7698593D61BEFD1E2DF982108D773D6D6B460938E5B571FB9ECE6957AD29D90A1EBC4F77
310
364A9C1CA1A759A682EF839FA72269D8C9D92654AD71C72206887E0E0A22CAF926B15E498B01E0AA19451807D01A34B919F16B070157417138917400F2F6FA41FCF0092A45DEE414C19BDC21783E4BD39D891265658C3D8DEA00A3ACE59CBC8678ACB54CB26EEB6BD7839D7E9348BE70AD9C8321B9BCA7F9A4A26C542347DE
310
E050F09802D22BA6749A800A394DD62899107273365E3C82CFC6A55557BC06C10774B7ABE7AEC3B0F34CF06446280E154026D0542C187BA9DAB6628BF7B6DBB0E5A65B3EB1F58631DE64BBE083F7B65CC218087E22CABB042E51D1F2268F1FE12B3EA24D40D63E9CFE00120194D60B9D5BC67FE6D39CDF37E20AF817881F50
310
4B0304140006080800B670623B29652116630500003C100000340000006662782F45374635344235342D363743322D343832342D383044432D4334454645303536354442422F6F626A656374732E786D6CAD575D739B3814FD2B0CFB0C989834C90EA1639B24E3E9A6EDD4D3CE3E64C623834CD8006224913AFDF57B040203
310
B65BEF871F0C12D2FD3CF7E8CA7FBFCB33E3957291B2E2D674ED8969D02262715A24B76625B7D6B569BC0F7CCE98EC2D338D82E4F4D654D366E0279C55A59E8AE99654991CCDDECFFF3444440B6A1A514684B83545F44C7362934AB2988A173B2692D8C97667BB76B3702836E1A47C1E092D09A78584A5982F20C5688C7287
310
C389E904BEA3BE07BEFAD7ABA6A75739B53F43FD69212429A20365233153D70BEF2E2E6FAC4BCF9B5ADEBB0BD79ADFCF43CBBD9A4E16EF168B9BD9DD0D140BC921495BC2E9D60C1E101B9E46BED37CEA2CD6861F3329624541A3DA7F7858DBAC25C6B4A4458C3CA654405BCFEBC970E8AAD8F43E4FD558ABEC4F9FE7557F47
310
4F506B7BFBEC5BCA367FC105710E2AB8A00A554D7CB4A30DFE26FBA86D18CBF4B75418399194A72433B274C3097F33032C554B027F2046A1932B842B0FCCC0DDCBEBDB8AD2F835768F59B9ADB24C41D30C6A64AF817F2A456D59FA83F2E3DA60137255A585BCD60EC9B7929AC18DEFD49381AF1ED30BFDB109A4B1CD488294
310
C3CDE6EBC8D185AABD6568061FEE37BB95AAC7E3CA4BCE4ACAA5820FA0D526AE7DAA2869B5EE5999531BE0CC20E6FBA07C41E43FA27CF7A6206F3CDD793B4F6B919C1462CB788EDCD893FA674CDA17AB7B3B7C019F8D561FAEE966FED562DFE98C1D12C6A9FC015C2A35D7FF3D7FC398F591DA4B5FE0BFA2C0189FEA50AE22
310
92817A1ED3020951A03432862970F976B33383259812CC8E5D240BBA801CBCF8CE2BBEE3BF910DB6AAD5F79E05123AE2DB33981FB1ACCB02B69D00CB014FD68AB573A7627EF9BFD4CC2C5C7D58557C4B22FAA88925A4DBB44825CECE3D78FB060D1231F0E885BE7D673C86A3874958F593906B5502D1563157814FDAC3420D
310
F69A070A22EC4B98E23CFF171A1E5311D12C23056555ABA53B8614563B92D17D02AAB009E8F46284624E5F53D5490C560CCCC2591FF1B45421EB0EBD8EA7ED13BE7C5D7E0428CD60FEF60779EB13E6664FF711CB185F6FDED60D139A001FF60CD1FD6D086F1D51474901E26B2CB794A343BC8ED3EDB612E0DD2351FCB65CF4
310
33D511C9E14B5B40ADC6A6263DB0336A8F700DDF56271A024E70B0B3629DE21847591E55DED73D56206AB927E46FAABC5C939C55853C274C93D69FD6FA4E78BF8B11DF898C9ECD60553FAD39283BA6F18984AA23E8884F83F45C5F5F859797B31B2B9C84A1E5B9DE9D35BFF25C6B76152E422F9C5DCC3D847F5801ED09D5AF
310
41441327A25FF15487F9EB725FB666F048A4701E9A827292E6F97569A32DF61DEC01C0BB8DCBBCCC684E0B49147C1FD54BF685A0AB18C868E6973949E819523E3DAC463660E68C7D9F55A9D1EFA3BD7A76A16AE1A810F95CE59B82A4D968A376DC2E8B44BBDD86B27B368CDE0ED548C7137DA860591A83706223A12CA712B4
310
7306DBF39C0A20A6DF95C7FAF670C6EED7A61F946493D1D6926782963813403548A78AE470DEF80D2D9CEAA26E4D1C76F60BFE74219A06527D6B82DF641A51616F703CAAC6A7160E08A00BEB4810A0274592A1B36E3675E36E978A0DE80727A0D6DF2D39A75BD27E0D8837276589537B40ABB56D5A41F48F1C6FCD3188C4EB
310
A6929D2FFB89CE995A4D00AE813BDD032DC48B56BD437DFDDC2DD7AED70C2272D63DE9A72068A45A92F0A4BE17A8A06B9366E16707AD80B1FC649459952097E74BB23805982B55E0401150A165964402AA8BDF9F3E7386BB686EDCA780C0D382E5392BF460A6EFB2C6EA1937D3F809B440D5F5435C4C5CF7A9EEFAF54564BD
310
2182DA24162F98680B4E7930C21A0079709CEAEB99A372305ABE0C0D7D6078105A83F6A0296DAEE1068A47DD1C55A9F4C9B2FC69E3EFD44B81028E963DF81B504B0304140006080000B670623B000000000000000000000000350000006662782F45374635344235342D363743322D343832342D383044432D433445464530
310
3536354442422F76657274696365732E62696E504B0304140006080800B670623BF270F1330600000004000000360000006662782F45374635344235342D363743322D343832342D383044432D4334454645303536354442422F747269616E676C65732E62696E636660600000504B0304140006080000B670623B00000000
310
0000000000000000370000006662782F45374635344235342D363743322D343832342D383044432D4334454645303536354442422F617474726962757465732E62696E504B0304140006080800B670623B08DA0BD19000000041010000360000006662782F45374635344235342D363743322D343832342D383044432D4334
310
454645303536354442422F6469726563746F72792E786D6C858F410AC3201045AF22B36F53E9A60B35CBEEBAE80D244E44489C6234F4F835464A48035D0DF398FF9F8AF63D0E6CC63039F212F8F9020C7D47C6792B21C5FE7403D62A1188E2E60C98D7234A5830286103A55745067B9D86B8A3CF9C7F90C11DE607FB144396
310
D7B6A82D282E9A152AD114D5EF2CB866EEE831B8EEA07A7BB5A8D7D61A2BAAEB7FD5F70921FF497D00504B0304140006080800B670623B6378F24DFF000000A00100003B0000006662782F45374635344235342D363743322D343832342D383044432D4334454645303536354442422F7265736F75726365732F636F72652E
310
786D6C8D504B6E833010BD0A9A6D65B0094E42641C85B639412F6099496225D8C89FAAC7AF09546A77DDCC8CDE47F3F4C4F16B7C149FE88371B603565228D06A37187BED20C50BD9437194C23B177FC9A0B06AC40E6618A4B87A97A615D2CE46B431A3D60DB8822A048C50E8473E3A08FA86A32A558A5911EEE5A4F45D5DB1
310
6465A6B34E8A107D0E502C4FE609D26370C96B0CA25A58295232C3AA3143FE692E063D485EF7F5AEE71BD2D2F39634AFFC44DAF7DD9E9CCE6F9CD25DCBFA762BAAD92C4534E34F46ED51451C40D694B6843142EB0FD61C283F34FC85EE0F948A6A96FF31A569F8A729191B37F51A77B105902C0779125254735F793DCBCC7B
310
EE567E03504B010214000A0000080000B670623B3DEE336E79000000790000001B00000000000000000000000000000000006175746F6465736B2D64657369676E2D7061636B6167652E786D6C504B01021400140006080800B670623BD486FD9CA0000000F40000001300000000000000000000000000B20000005B436F6E
310
74656E745F54797065735D2E786D6C504B01021400140006080800B670623BBC1638F5EC0000007C010000080000000000000000000000000083010000636F72652E786D6C504B01021400140006080800B670623B55019EA25F0000007C000000070000000000000000000000000095020000636E782E786D6C504B010214
310
00140006080800B670623B3586FFB671010000D40300000C00000000000000000000000000190300006662782F636F72652E786D6C504B01021400140006080800B670623B4220A0FF7D0000009D0000000B00000000000000000000000000B40400006662782F636E782E786D6C504B01021400140006080800B670623B2F
310
A3FEDE290100001202000031000000000000000000000000005A0500006662782F45374635344235342D363743322D343832342D383044432D4334454645303536354442422F636F72652E786D6C504B01021400140006080800B670623B1B8617914E010000330300003000000000000000000000000000D2060000666278
310
2F45374635344235342D363743322D343832342D383044432D4334454645303536354442422F636E782E786D6C504B01021400140006080800B670623B29652116630500003C10000034000000000000000000000000006E0800006662782F45374635344235342D363743322D343832342D383044432D4334454645303536
310
354442422F6F626A656374732E786D6C504B01021400140006080000B670623B0000000000000000000000003500000000000000000000000000230E00006662782F45374635344235342D363743322D343832342D383044432D4334454645303536354442422F76657274696365732E62696E504B01021400140006080800
310
B670623BF270F13306000000040000003600000000000000000000000000760E00006662782F45374635344235342D363743322D343832342D383044432D4334454645303536354442422F747269616E676C65732E62696E504B01021400140006080000B670623B0000000000000000000000003700000000000000000000
310
000000D00E00006662782F45374635344235342D363743322D343832342D383044432D4334454645303536354442422F617474726962757465732E62696E504B01021400140006080800B670623B08DA0BD190000000410100003600000000000000000000000000250F00006662782F45374635344235342D363743322D34
310
3832342D383044432D4334454645303536354442422F6469726563746F72792E786D6C504B01021400140006080800B670623B6378F24DFF000000A00100003B00000000000000000000000000091000006662782F45374635344235342D363743322D343832342D383044432D4334454645303536354442422F7265736F75
310
726365732F636F72652E786D6C504B0506000000000E000E0080040000611100000000
  0
XRECORD
  5
112
102
{ACAD_REACTORS
330
110
102
}
330
110
100
AcDbXrecord
280
     1
270
     1
271
     1
  0
XRECORD
  5
111
102
{ACAD_REACTORS
330
110
102
}
330
110
100
AcDbXrecord
280
     1
270
     1
271
     1
  0
XRECORD
  5
18A
102
{ACAD_REACTORS
330
110
102
}
330
110
100
AcDbXrecord
280
     1
 70
     0
 90
1778669749
  1
9BF507EE-FAF7-4A99-A33D-4EE51894BC40
310
504B03040A0000080000B670623B3DEE336E79000000790000001B0000006175746F6465736B2D64657369676E2D7061636B6167652E786D6C3C3F786D6C2076657273696F6E3D22312E302220656E636F64696E673D227574662D3822203F3E3C666F726D6174733E3C666F726D61743E687474703A2F2F736368656D612E
310
6175746F6465736B2E636F6D2F64657369676E2D7061636B6167652F323030393C2F666F726D61743E3C2F666F726D6174733E504B0304140006080800B670623BD486FD9CA0000000F4000000130000005B436F6E74656E745F54797065735D2E786D6C7D8EC10E82300C865F65E91D8A1E8C310C0EEA1BF002731658846E
310
D98AC1B77784ABF1D8FE5FBFBF75BBCE937A534CCEB38643598122B6FEE978D0B0485F9C41B54DDD7D022595594E1A469170414C76A4D9A4D207E29CF43ECE46F218070CC6BECC4078ACAA135ACF422C856C0E68EA1BF5669944DDD7BCDE7B1F8E415D77AECB980613C2E4AC91FC167A2B244592486606FC29C8FD7F045B9A
310
EF7053A7E60B504B0304140006080800B670623BCA089DFFEC0000007C01000008000000636F72652E786D6C8D90416E83301045AF62CDB632D8402020E32882F604BD80653BC44AB011B6AB1EBF262152BBEB6A467FFE9B197D76FA9EEFE84BAFDE38DB03CD08206DA553C64E3DC470C1474027CE56E7C22F1B202B66DDC3
310
260367D3EAE2B24BD2D9A06D48AA754AEFA2F05E0740F29E9A1EBCBCEA59642286E4F0B76C11F226269DD15797E0188D42CF2346A57DE662F40ABCAEC77628C6120F654571D50C04B7F5B9C1E3997CD4F550BE3745C3F20DE62C98F9755FAE5A04AD801784B498524C8A4F5A75E4D055873772EC0861F966FF03C545FD138A
310
C686B2D8DF7D621E384D8F3C069CE55B16A93C824A75CB8DFF00504B0304140006080800B670623B55019EA25F0000007C00000007000000636E782E786D6C4DCB3B0E80201045D1AD90E915ED2CF8AC45050C11660C8261F98AB1B07AC9C97D42D718D865D3E909258CFD00CCE24AC6E326A164D74DC0B4128928FF326038
310
472BA13128B1252AC747C6BAB984FC68F0B87FE8960A5C09FE86CFB69FBA01504B0304140006080800B670623B68FC0B7272010000D40300000C0000006662782F636F72652E786D6CC5535B6E833010BC8AE5DF0A6C1E8124328E22D29EA01770C0A128602363A31CBFCB234A53A555FA553EC09AD9F5CE8C31DB5DDA060D
310
D2F4B556190E7C8A9154852E6B5565D8D993B7C668C799D1DA7E29C3488956667884316795D1AE5BA0422B2B950554E9522EA0E87B69312A1A5864B82F3E642B7CE12C54F467BF13C55954D20F7CA0A18EB3DE1A1080E621E31BF3D3F1C2C88C73E65C5D2E6C5DC2B4FA544B8379921C36797888BC3C8A032F4E73EA6D927D
310
EA1DF6F42D49F2E8350D5346C666CE6CDD5ED515460A2B4BCC434A375E1078347C0FE22D5D6DE3D50B5D6F2965642CBF6B725DF96493AB958DC245EEDCD6631E809089F8E61622B2A81703E8219C913144F84C09DF070D8140C8561C9BAB8F3340832CAC363130A576376A108D933095FA747AD0CF0B46E64E983A6D0EAE1F
310
CE089F9EF1FB8E70D44255604258581E9D1D75B259C3125A278D37D80B52DAB4A279CEC62F0EFF44DDC43F9454E8469BFF5244960322CBEF41C6FBC83F01504B0304140006080800B670623B0F71DDB67E0000009D0000000B0000006662782F636E782E786D6C4DCCD10A83201886E15B91FFDCA54DB73F502386BB8F5816
310
32D3703976F9ABD1C18E3E78F87855FB990379BBFCF2296AE02706C4C5471A7C9C349475A408A4352AA7B4FEDD80C47E761A7606A3A69CCA72D0E0C6BE8475D3E0E3F3409428EA6B27A84079A782899AA2EC1A7AE3ECCC2FD858CB2D544655BFD2B67BD87C01504B0304140006080800B670623BE134B4FB28010000120200
310
00310000006662782F38353834323741342D343835462D343034322D383541392D4331303331363839454531452F636F72652E786D6C8D515B6EC32010BC0AE22B55850D0EA424C24451959EA0172086A42831583CAA1CBF503B52FB971F16CDCECC0EACD8DFC71BF836215AEF7A481A0C817183D7D65D7A98D3197108F652
310
04EFD31F1A044E8DA6871586525C82CFD3020DDE25E352419DD76601558C264130DCCAA58771F832A36A544E8511AFCDA486ABBA988634A55D7852C4144A00300FA927949C71DABD1D28A29C7D208A6987383B6CD13BC16BB2E1DBE3911C453B0BA5C8D9EA456E758963CFD684674DAA588A64C747FC2118958C86B2C3788B
310
0841B8FB247487D98EB257CC77188BB6D2FF89F2A49F1465EBD2BA5BE2CEB2082511EDDC9042FB7CBA3DC298FBE4430275DE2A9AE1054ADC60CC08E3A29D89E5F9C5714317C7987C28DFBBBA9E0A97B0D97643A568EB864AF95D5FA9759BF207504B0304140006080800B670623B1B8617914E010000330300003000000066
310
62782F38353834323741342D343835462D343034322D383541392D4331303331363839454531452F636E782E786D6CD593C16EC32010447F0571AD6CE3D489D20813A9877E410FBD62D82434182CC055F3F75D1292E692438FBD206B7698593D61BEFD1E2DF982108D773D6D6B460938E5B571FB9ECE6957AD29D90A1EBC4F
310
77364A9C1CA1A759A682EF839FA72269D8C9D92654AD71C72206887E0E0A22CAF926B15E498B01E0AA19451807D01A34B919F16B070157417138917400F2F6FA41FCF0092A45DEE414C19BDC21783E4BD39D891265658C3D8DEA00A3ACE59CBC8678ACB54CB26EEB6BD7839D7E9348BE70AD9C8321B9BCA7F9A4A26C542347
310
DEE050F09802D22BA6749A800A394DD62899107273365E3C82CFC6A55557BC06C10774B7ABE7AEC3B0F34CF06446280E154026D0542C187BA9DAB6628BF7B6DBB0E5A65B3EB1F58631DE64BBE083F7B65CC218087E22CABB042E51D1F2268F1FE12B3EA24D40D63E9CFE00120194D60B9D5BC67FE6D39CDF37E20AF817881F
310
504B0304140006080800B670623B5933D422630500003B100000340000006662782F38353834323741342D343835462D343034322D383541392D4331303331363839454531452F6F626A656374732E786D6CAD575B6FA33814FE2B887D0642934E9B156594264D158D3A534DD4D13E548A0C38942D60649B4EBABF7E3F8321
310
40924EF6928780CDF1B97EE762EFF32E4B8D37CA45C2F21BD3B547A641F39045491EDF98A5DC5AD7A6F1D9F73863B243661A39C9E88DA9B64DDF8B392B0BBD15D12D295339D85DDEFE618890E6D434C2940871638AF08566C426A5641115AF764424B1E3EDCE76ED9AB0CF36E6A47819302D08A7B984A6D8CFC1C5A89572FB
310
CB91E9F89EA3BEFB9EFAD754E3D3544E654F5F7E920B49F2F040D880CDD89D2CEE2E2EA7D6E56432B6269F2E5CEB7679BBB0DCABF168FE693E9FCEEEA6102C240727AD09A75BD3BF876F78127A4EFDA9D5582B7E4CA590E5390D2BFB6161A5B3E618D182E611E2985001691DAB47FDA5AB7CD3F93C566B2DB2BB7D9E55DD13
310
1D468DEECDB3AB290BFE8409E21C54704115AA6AFF68436BFC8DF65E0B184BF5B74418199194272435D224E084BF9B3E481589EFF5D828747285706581E9BB7B7E5D5D911ABFC6EE312DB7659A2A689A7E85EC0DF04FA5A8344BFEA2FCB834E8845895492EAFB541F2BDA0A63FF59C6AD3F7D4637CA13FD68E34B629891172
310
98597F1D183A57B9B75A98FE9765B05BAB7C3C2EBCE0ACA05C2AF8005A4DE09AA7F29216EB9E15397500C6F47CBE77CA7778FE2BD277AF0AE2C693DD6437D1522427B9D8329E2136F6A8FA19A3E6C56ADF0E5F50CF06D48734EDCEBF22F69C56D97EC138153F804B85E6FABFC7AFEFB32E523BE1F3BD372418E363EDCA7548
310
52949E8724474014288D94610BB57C1BEC4C7F854A89CA8E5324F55B871CBC78CE1BBEE3BFE68D6A5589EF3C730474506FCFA8FCF0659516D0ED04580EEA6425581B77CAE797FF4BCECC16EB2FEB926F49481F746159D06D922712BD730FDEAE42BD40F42C7AA5EF3F198F60E86110D6DD20645A9480B795CF95E3E3A659A8
310
C55E724F408873315335CFFB8584874484344D494E59D94869DB90C26A5B64F49C802CAC1D3ABE18A098D3B7444D123D8A9E5AE8F5214F0AE5B2B6E9B575DA3E61CBD3EA2B4009FA940524DD1305FB6A1FB294F14DF0BEA90BA109ECE1481FDC3FFAE8D60E75141700BE82725371B4873751B2DD960265F788137FACE6DD40
310
B575E4F0A5C99F46629D92131467A41EE11ABD8D4CCC039CA0AFB37C93A08B232B8F0AEFCA1E0A1015DF13FC83322B362463652ECF71D3A8B1A7D1BE65DE1D62C44F22C317D35F574FEB16153BA2D13E543D10A80E74C4A65E78A6B7CBCBD1D5DD9DB59C2DAFACC96C3AB566E3F1C29ADCDD5DBAD7D3C9ED7C822ED74F80A6
310
41755310DE4443F44A9E68373FADF6596BFA0F440AE7BECE2727AE9F4F2B1B53B1E7E00CF0DD1E5C65454A339A4BA2D0FBA05ED2EF0443458F47BDBFCA484CCFE0F2ED7E3DD0013B679C7B5499467F0ECEEADDB9CA85A34CE44B99053949D2C1416DB85DE4B136BB7165FBAC0B7AB3542BED4F8CA182A549847A1319316519
310
95A83A67147B9E5101C47487F2485F1ECE38FD568F839204296D3479219888530154036E6528FBFBC66F98E0D4107563A2D7D9AFF8D389681A08F58D89F22693900A3B407754734FC51C10C010D6D640809EE4718AC1BA3ED4AEDB53CA37283F68805A7E4B72CEB0A4EDEAD5DD8C14059A76AFAA56BA6901E13F32BC51C720
310
12AF41295B5BF61BAD3195181FB506E6B40F4C10AF5AF40EF9F5B159AE5DD1F43C72D635E94310D45C2D49785C5D0B94D3B54AB3C5A38349C0587D338AB48C11CBF339599C02CCA54A70A008A8D03C0B2201D5F9EFCF8F9CE12A9A19CB0410789EB32C63B95ECCF455D658BFE0621A3DA32C5075FB101723D77DAE867E7D0F
310
D90444509B44E2151B4DC2290B065803200FBAA9BE9D392A0603F2D5C2D00D6302A615680F66D2FA166E2079D4C551A54AB758161FCEFD4E450A14704CECFEDF504B0304140006080000B670623B000000000000000000000000350000006662782F38353834323741342D343835462D343034322D383541392D4331303331
310
363839454531452F76657274696365732E62696E504B0304140006080800B670623BF270F1330600000004000000360000006662782F38353834323741342D343835462D343034322D383541392D4331303331363839454531452F747269616E676C65732E62696E636660600000504B0304140006080000B670623B000000
310
000000000000000000370000006662782F38353834323741342D343835462D343034322D383541392D4331303331363839454531452F617474726962757465732E62696E504B0304140006080800B670623B08DA0BD19000000041010000360000006662782F38353834323741342D343835462D343034322D383541392D43
310
31303331363839454531452F6469726563746F72792E786D6C858F410AC3201045AF22B36F53E9A60B35CBEEBAE80D244E44489C6234F4F835464A48035D0DF398FF9F8AF63D0E6CC63039F212F8F9020C7D47C6792B21C5FE7403D62A1188E2E60C98D7234A5830286103A55745067B9D86B8A3CF9C7F90C11DE607FB1443
310
96D7B6A82D282E9A152AD114D5EF2CB866EEE831B8EEA07A7BB5A8D7D61A2BAAEB7FD5F70921FF497D00504B0304140006080800B670623BD9A3B367FE000000A00100003B0000006662782F38353834323741342D343835462D343034322D383541392D4331303331363839454531452F7265736F75726365732F636F7265
310
2E786D6C8D504B6E833010BD0A9A6D65B01D0201194711694FD00B586642AD043BF2A7EAF16B122AB5BB6E6646EFA3797AE2F8B5DC8A4FF4C1383B002B291468B59B8C9D0748F1420E501CA5F0CEC55F3228AC5A708015062966EFD27D83B4B3116DCCA875136EA00A012314FA968F0182FEC045952AC5AC08D7F2AEF455CD
310
58B232D3592745883E07289E4FD609D26370C96B0CA27AB252A464A64D63A6FCD35C0C7A904D73EE467EE664DCD58CD4ED4849D79C5A723ED1B7A61977AF2D6F45B59AA58866F9C9A83DAA8813484E6947182394BFB3BAA7FBBEDEBFD0434FA9A856F91F53BA4FFF342563E38E6F719FB60092E5200F428A6AED2BAF479979
310
AFDDCA6F504B010214000A0000080000B670623B3DEE336E79000000790000001B00000000000000000000000000000000006175746F6465736B2D64657369676E2D7061636B6167652E786D6C504B01021400140006080800B670623BD486FD9CA0000000F40000001300000000000000000000000000B20000005B436F6E
310
74656E745F54797065735D2E786D6C504B01021400140006080800B670623BCA089DFFEC0000007C010000080000000000000000000000000083010000636F72652E786D6C504B01021400140006080800B670623B55019EA25F0000007C000000070000000000000000000000000095020000636E782E786D6C504B010214
310
00140006080800B670623B68FC0B7272010000D40300000C00000000000000000000000000190300006662782F636F72652E786D6C504B01021400140006080800B670623B0F71DDB67E0000009D0000000B00000000000000000000000000B50400006662782F636E782E786D6C504B01021400140006080800B670623BE1
310
34B4FB280100001202000031000000000000000000000000005C0500006662782F38353834323741342D343835462D343034322D383541392D4331303331363839454531452F636F72652E786D6C504B01021400140006080800B670623B1B8617914E010000330300003000000000000000000000000000D3060000666278
310
2F38353834323741342D343835462D343034322D383541392D4331303331363839454531452F636E782E786D6C504B01021400140006080800B670623B5933D422630500003B10000034000000000000000000000000006F0800006662782F38353834323741342D343835462D343034322D383541392D4331303331363839
310
454531452F6F626A656374732E786D6C504B01021400140006080000B670623B0000000000000000000000003500000000000000000000000000240E00006662782F38353834323741342D343835462D343034322D383541392D4331303331363839454531452F76657274696365732E62696E504B01021400140006080800
310
B670623BF270F13306000000040000003600000000000000000000000000770E00006662782F38353834323741342D343835462D343034322D383541392D4331303331363839454531452F747269616E676C65732E62696E504B01021400140006080000B670623B0000000000000000000000003700000000000000000000
310
000000D10E00006662782F38353834323741342D343835462D343034322D383541392D4331303331363839454531452F617474726962757465732E62696E504B01021400140006080800B670623B08DA0BD190000000410100003600000000000000000000000000260F00006662782F38353834323741342D343835462D34
310
3034322D383541392D4331303331363839454531452F6469726563746F72792E786D6C504B01021400140006080800B670623BD9A3B367FE000000A00100003B000000000000000000000000000A1000006662782F38353834323741342D343835462D343034322D383541392D4331303331363839454531452F7265736F75
310
726365732F636F72652E786D6C504B0506000000000E000E0080040000611100000000
  0
XRECORD
  5
113
102
{ACAD_REACTORS
330
110
102
}
330
110
100
AcDbXrecord
280
     1
270
     1
271
     1
  0
XRECORD
  5
114
102
{ACAD_REACTORS
330
110
102
}
330
110
100
AcDbXrecord
280
     1
270
     1
271
     1
  0
CELLSTYLEMAP
  5
EB4
102
{ACAD_REACTORS
330
104
102
}
330
104
100
AcDbCellStyleMap
 90
        3
300
CELLSTYLE
  1
TABLEFORMAT_BEGIN
 90
        5
170
     1
 91
        0
 92
    32768
 62
   257
 93
        1
300
CONTENTFORMAT
  1
CONTENTFORMAT_BEGIN
 90
        0
 91
        0
 92
      512
 93
        0
300

 40
0.0
140
1.0
 94
        5
 62
     0
340
11
144
0.25
309
CONTENTFORMAT_END
171
     1
301
MARGIN
  1
CELLMARGIN_BEGIN
 40
0.06
 40
0.06
 40
0.06
 40
0.06
 40
0.18
 40
0.18
309
CELLMARGIN_END
 94
        6
 95
        1
302
GRIDFORMAT
  1
GRIDFORMAT_BEGIN
 90
        0
 91
        1
 62
     0
 92
       -2
340
0
 93
        0
 40
0.045
309
GRIDFORMAT_END
 95
        2
302
GRIDFORMAT
  1
GRIDFORMAT_BEGIN
 90
        0
 91
        1
 62
     0
 92
       -2
340
0
 93
        0
 40
0.045
309
GRIDFORMAT_END
 95
        4
302
GRIDFORMAT
  1
GRIDFORMAT_BEGIN
 90
        0
 91
        1
 62
     0
 92
       -2
340
0
 93
        0
 40
0.045
309
GRIDFORMAT_END
 95
        8
302
GRIDFORMAT
  1
GRIDFORMAT_BEGIN
 90
        0
 91
        1
 62
     0
 92
       -2
340
0
 93
        0
 40
0.045
309
GRIDFORMAT_END
 95
       16
302
GRIDFORMAT
  1
GRIDFORMAT_BEGIN
 90
        0
 91
        1
 62
     0
 92
       -2
340
0
 93
        0
 40
0.045
309
GRIDFORMAT_END
 95
       32
302
GRIDFORMAT
  1
GRIDFORMAT_BEGIN
 90
        0
 91
        1
 62
     0
 92
       -2
340
0
 93
        0
 40
0.045
309
GRIDFORMAT_END
309
TABLEFORMAT_END
  1
CELLSTYLE_BEGIN
 90
        1
 91
        1
300
_TITLE
309
CELLSTYLE_END
300
CELLSTYLE
  1
TABLEFORMAT_BEGIN
 90
        5
170
     1
 91
        0
 92
        0
 62
   257
 93
        1
300
CONTENTFORMAT
  1
CONTENTFORMAT_BEGIN
 90
        0
 91
        0
 92
      512
 93
        0
300

 40
0.0
140
1.0
 94
        5
 62
     0
340
11
144
0.18
309
CONTENTFORMAT_END
171
     1
301
MARGIN
  1
CELLMARGIN_BEGIN
 40
0.06
 40
0.06
 40
0.06
 40
0.06
 40
0.18
 40
0.18
309
CELLMARGIN_END
 94
        6
 95
        1
302
GRIDFORMAT
  1
GRIDFORMAT_BEGIN
 90
        0
 91
        1
 62
     0
 92
       -2
340
0
 93
        0
 40
0.045
309
GRIDFORMAT_END
 95
        2
302
GRIDFORMAT
  1
GRIDFORMAT_BEGIN
 90
        0
 91
        1
 62
     0
 92
       -2
340
0
 93
        0
 40
0.045
309
GRIDFORMAT_END
 95
        4
302
GRIDFORMAT
  1
GRIDFORMAT_BEGIN
 90
        0
 91
        1
 62
     0
 92
       -2
340
0
 93
        0
 40
0.045
309
GRIDFORMAT_END
 95
        8
302
GRIDFORMAT
  1
GRIDFORMAT_BEGIN
 90
        0
 91
        1
 62
     0
 92
       -2
340
0
 93
        0
 40
0.045
309
GRIDFORMAT_END
 95
       16
302
GRIDFORMAT
  1
GRIDFORMAT_BEGIN
 90
        0
 91
        1
 62
     0
 92
       -2
340
0
 93
        0
 40
0.045
309
GRIDFORMAT_END
 95
       32
302
GRIDFORMAT
  1
GRIDFORMAT_BEGIN
 90
        0
 91
        1
 62
     0
 92
       -2
340
0
 93
        0
 40
0.045
309
GRIDFORMAT_END
309
TABLEFORMAT_END
  1
CELLSTYLE_BEGIN
 90
        2
 91
        1
300
_HEADER
309
CELLSTYLE_END
300
CELLSTYLE
  1
TABLEFORMAT_BEGIN
 90
        5
170
     1
 91
        0
 92
        0
 62
   257
 93
        1
300
CONTENTFORMAT
  1
CONTENTFORMAT_BEGIN
 90
        0
 91
        0
 92
      512
 93
        0
300

 40
0.0
140
1.0
 94
        2
 62
     0
340
11
144
0.18
309
CONTENTFORMAT_END
171
     1
301
MARGIN
  1
CELLMARGIN_BEGIN
 40
0.06
 40
0.06
 40
0.06
 40
0.06
 40
0.18
 40
0.18
309
CELLMARGIN_END
 94
        6
 95
        1
302
GRIDFORMAT
  1
GRIDFORMAT_BEGIN
 90
        0
 91
        1
 62
     0
 92
       -2
340
0
 93
        0
 40
0.045
309
GRIDFORMAT_END
 95
        2
302
GRIDFORMAT
  1
GRIDFORMAT_BEGIN
 90
        0
 91
        1
 62
     0
 92
       -2
340
0
 93
        0
 40
0.045
309
GRIDFORMAT_END
 95
        4
302
GRIDFORMAT
  1
GRIDFORMAT_BEGIN
 90
        0
 91
        1
 62
     0
 92
       -2
340
0
 93
        0
 40
0.045
309
GRIDFORMAT_END
 95
        8
302
GRIDFORMAT
  1
GRIDFORMAT_BEGIN
 90
        0
 91
        1
 62
     0
 92
       -2
340
0
 93
        0
 40
0.045
309
GRIDFORMAT_END
 95
       16
302
GRIDFORMAT
  1
GRIDFORMAT_BEGIN
 90
        0
 91
        1
 62
     0
 92
       -2
340
0
 93
        0
 40
0.045
309
GRIDFORMAT_END
 95
       32
302
GRIDFORMAT
  1
GRIDFORMAT_BEGIN
 90
        0
 91
        1
 62
     0
 92
       -2
340
0
 93
        0
 40
0.045
309
GRIDFORMAT_END
309
TABLEFORMAT_END
  1
CELLSTYLE_BEGIN
 90
        3
 91
        2
300
_DATA
309
CELLSTYLE_END
  0
ENDSEC
  0
SECTION
  2
ACDSDATA
 70
     2
 71
     8
  0
ACDSSCHEMA
 90
        0
  1
AcDb_Thumbnail_Schema
  2
AcDbDs::ID
280
    10
 91
        8
  2
Thumbnail_Data
280
    15
 91
        0
101
ACDSRECORD
 95
        0
 90
        1
  2
AcDbDs::TreatedAsObjectData
280
     1
291
     1
101
ACDSRECORD
 95
        0
 90
        2
  2
AcDbDs::Legacy
280
     1
291
     1
101
ACDSRECORD
  1
AcDbDs::ID
 90
        3
  2
AcDs:Indexable
280
     1
291
     1
101
ACDSRECORD
  1
AcDbDs::ID
 90
        4
  2
AcDbDs::HandleAttribute
280
     7
282
     1
  0
ACDSSCHEMA
 90
        1
  1
AcDbDs::TreatedAsObjectDataSchema
  2
AcDbDs::TreatedAsObjectData
280
     1
 91
        0
  0
ACDSSCHEMA
 90
        2
  1
AcDbDs::LegacySchema
  2
AcDbDs::Legacy
280
     1
 91
        0
  0
ACDSSCHEMA
 90
        3
  1
AcDbDs::IndexedPropertySchema
  2
AcDs:Indexable
280
     1
 91
        0
  0
ACDSSCHEMA
 90
        4
  1
AcDbDs::HandleAttributeSchema
  2
AcDbDs::HandleAttribute
280
     7
 91
        1
284
     1
  0
ACDSRECORD
 90
        0
  2
AcDbDs::ID
280
    10
320
22
  2
Thumbnail_Data
280
    15
 94
     1227
310
89504E470D0A1A0A0000000D49484452000001000000008808030000003F38C55500000300504C5445212830FFFFFF2128300000000000000000000000000000000000000000000000000000330000660000990000CC0000FF0033000033330033660033990033CC0033FF0066000066330066660066990066CC0066FF0099
310
000099330099660099990099CC0099FF00CC0000CC3300CC6600CC9900CCCC00CCFF00FF0000FF3300FF6600FF9900FFCC00FFFF3300003300333300663300993300CC3300FF3333003333333333663333993333CC3333FF3366003366333366663366993366CC3366FF3399003399333399663399993399CC3399FF33CC00
310
33CC3333CC6633CC9933CCCC33CCFF33FF0033FF3333FF6633FF9933FFCC33FFFF6600006600336600666600996600CC6600FF6633006633336633666633996633CC6633FF6666006666336666666666996666CC6666FF6699006699336699666699996699CC6699FF66CC0066CC3366CC6666CC9966CCCC66CCFF66FF0066
310
FF3366FF6666FF9966FFCC66FFFF9900009900339900669900999900CC9900FF9933009933339933669933999933CC9933FF9966009966339966669966999966CC9966FF9999009999339999669999999999CC9999FF99CC0099CC3399CC6699CC9999CCCC99CCFF99FF0099FF3399FF6699FF9999FFCC99FFFFCC0000CC00
310
33CC0066CC0099CC00CCCC00FFCC3300CC3333CC3366CC3399CC33CCCC33FFCC6600CC6633CC6666CC6699CC66CCCC66FFCC9900CC9933CC9966CC9999CC99CCCC99FFCCCC00CCCC33CCCC66CCCC99CCCCCCCCCCFFCCFF00CCFF33CCFF66CCFF99CCFFCCCCFFFFFF0000FF0033FF0066FF0099FF00CCFF00FFFF3300FF3333
310
FF3366FF3399FF33CCFF33FFFF6600FF6633FF6666FF6699FF66CCFF66FFFF9900FF9933FF9966FF9999FF99CCFF99FFFFCC00FFCC33FFCC66FFCC99FFCCCCFFCCFFFFFF00FFFF33FFFF66FFFF99FFFFCCFFFFFF0000000D0D0D1A1A1A2828283535354343435050505D5D5D6B6B6B787878868686939393A1A1A1AEAEAEBB
310
BBBBC9C9C9D6D6D6E4E4E4F1F1F1FFFFFF0000000000000000000000000000000000000000000000000000000000002E4550F1000000AB4944415478DAEDD9BB0E8330100440FFFFFF5E8F7808814D85A0F1CE54241DAB75EEACB40600000000000000000000001FAA920164FF06ACE203784F8566688014D8F7A1BE0B951B
310
C0762EA20EC7F1C6B901005661AB706E03C4C079A0F73AD4E573C659AFF5CD2F019C77810AB916C437E0F976343C6211B2084DDB005174F3AEC6AF8C41014CDE7C8BD0BD120F8FF30F83F869983CFDAA65FD1704000000000000000000000000C05F16E4767C0111DC21FA0000000049454E44AE42608284DA7D126787486A
310
8F00010820CC26A9A5B7403F80407B84D23B27022B677D3561A392EC141D01084000E7FFFAA58B94C3CBE138EFBDF6727861FE1A6308440820451F01025003D480EE2F0158E6010000000000000000000000000000CF7C00B631682A80F9FCBF0000000049454E44AE42608292880000000049454E44AE426082CF16208384
310
0C12EB52913D8344499F41C234D8E742E88469307B02051924AED503AA8BB5FD99E738B418C00F0B11F90304400285BCF36C14DF1A03000000000000802CFE00341576EFD03C6E0F0000000049454E44AE426082
  0
ENDSEC
  0
EOF
