  0
SECTION
  2
HEADER
  9
$ACADVER
  1
AC1027
  9
$ACADMAINTVER
 70
   125
  9
$DWGCODEPAGE
  3
ANSI_1252
  9
$LASTSAVEDBY
  1
angus.staples
  9
$REQUIREDVERSIONS
160
                 0
  9
$INSBASE
 10
0.0
 20
0.0
 30
0.0
  9
$EXTMIN
 10
528.3589694226387
 20
2092.766019249471
 30
0.0
  9
$EXTMAX
 10
19390.0
 20
7405.05015927083
 30
0.0
  9
$LIMMIN
 10
0.0
 20
0.0
  9
$LIMMAX
 10
420.0
 20
297.0
  9
$ORTHOMODE
 70
     0
  9
$REGENMODE
 70
     1
  9
$FILLMODE
 70
     1
  9
$QTEXTMODE
 70
     0
  9
$MIRRTEXT
 70
     0
  9
$LTSCALE
 40
1.0
  9
$ATTMODE
 70
     1
  9
$TEXTSIZE
 40
2.5
  9
$TRACEWID
 40
1.0
  9
$TEXTSTYLE
  7
Standard
  9
$CLAYER
  8
0
  9
$CELTYPE
  6
ByLayer
  9
$CECOLOR
 62
   256
  9
$CELTSCALE
 40
1.0
  9
$DISPSILH
 70
     0
  9
$DIMSCALE
 40
1.0
  9
$DIMASZ
 40
2.5
  9
$DIMEXO
 40
0.625
  9
$DIMDLI
 40
3.75
  9
$DIMRND
 40
0.0
  9
$DIMDLE
 40
0.0
  9
$DIMEXE
 40
1.25
  9
$DIMTP
 40
0.0
  9
$DIMTM
 40
0.0
  9
$DIMTXT
 40
2.5
  9
$DIMCEN
 40
2.5
  9
$DIMTSZ
 40
0.0
  9
$DIMTOL
 70
     0
  9
$DIMLIM
 70
     0
  9
$DIMTIH
 70
     0
  9
$DIMTOH
 70
     0
  9
$DIMSE1
 70
     0
  9
$DIMSE2
 70
     0
  9
$DIMTAD
 70
     1
  9
$DIMZIN
 70
     8
  9
$DIMBLK
  1

  9
$DIMASO
 70
     1
  9
$DIMSHO
 70
     1
  9
$DIMPOST
  1

  9
$DIMAPOST
  1

  9
$DIMALT
 70
     0
  9
$DIMALTD
 70
     3
  9
$DIMALTF
 40
0.03937007874016
  9
$DIMLFAC
 40
1.0
  9
$DIMTOFL
 70
     1
  9
$DIMTVP
 40
0.0
  9
$DIMTIX
 70
     0
  9
$DIMSOXD
 70
     0
  9
$DIMSAH
 70
     0
  9
$DIMBLK1
  1

  9
$DIMBLK2
  1

  9
$DIMSTYLE
  2
ISO-25
  9
$DIMCLRD
 70
     0
  9
$DIMCLRE
 70
     0
  9
$DIMCLRT
 70
     0
  9
$DIMTFAC
 40
1.0
  9
$DIMGAP
 40
0.625
  9
$DIMJUST
 70
     0
  9
$DIMSD1
 70
     0
  9
$DIMSD2
 70
     0
  9
$DIMTOLJ
 70
     0
  9
$DIMTZIN
 70
     8
  9
$DIMALTZ
 70
     0
  9
$DIMALTTZ
 70
     0
  9
$DIMUPT
 70
     0
  9
$DIMDEC
 70
     2
  9
$DIMTDEC
 70
     2
  9
$DIMALTU
 70
     2
  9
$DIMALTTD
 70
     3
  9
$DIMTXSTY
  7
Standard
  9
$DIMAUNIT
 70
     0
  9
$DIMADEC
 70
     0
  9
$DIMALTRND
 40
0.0
  9
$DIMAZIN
 70
     0
  9
$DIMDSEP
 70
    44
  9
$DIMATFIT
 70
     3
  9
$DIMFRAC
 70
     0
  9
$DIMLDRBLK
  1

  9
$DIMLUNIT
 70
     2
  9
$DIMLWD
 70
    -2
  9
$DIMLWE
 70
    -2
  9
$DIMTMOVE
 70
     0
  9
$DIMFXL
 40
1.0
  9
$DIMFXLON
 70
     0
  9
$DIMJOGANG
 40
0.7853981633974483
  9
$DIMTFILL
 70
     0
  9
$DIMTFILLCLR
 70
     0
  9
$DIMARCSYM
 70
     0
  9
$DIMLTYPE
  6

  9
$DIMLTEX1
  6

  9
$DIMLTEX2
  6

  9
$DIMTXTDIRECTION
 70
     0
  9
$LUNITS
 70
     2
  9
$LUPREC
 70
     4
  9
$SKETCHINC
 40
1.0
  9
$FILLETRAD
 40
0.0
  9
$AUNITS
 70
     0
  9
$AUPREC
 70
     0
  9
$MENU
  1
.
  9
$ELEVATION
 40
0.0
  9
$PELEVATION
 40
0.0
  9
$THICKNESS
 40
0.0
  9
$LIMCHECK
 70
     0
  9
$CHAMFERA
 40
0.0
  9
$CHAMFERB
 40
0.0
  9
$CHAMFERC
 40
0.0
  9
$CHAMFERD
 40
0.0
  9
$SKPOLY
 70
     0
  9
$TDCREATE
 40
2458289.419594907
  9
$TDUCREATE
 40
2458289.002933854
  9
$TDUPDATE
 40
2458585.464189815
  9
$TDUUPDATE
 40
2458585.047523148
  9
$TDINDWG
 40
0.3819331829
  9
$TDUSRTIMER
 40
0.3819331713
  9
$USRTIMER
 70
     1
  9
$ANGBASE
 50
0.0
  9
$ANGDIR
 70
     0
  9
$PDMODE
 70
     0
  9
$PDSIZE
 40
0.0
  9
$PLINEWID
 40
0.0
  9
$SPLFRAME
 70
     0
  9
$SPLINETYPE
 70
     6
  9
$SPLINESEGS
 70
     8
  9
$HANDSEED
  5
5CFA
  9
$SURFTAB1
 70
     6
  9
$SURFTAB2
 70
     6
  9
$SURFTYPE
 70
     6
  9
$SURFU
 70
     6
  9
$SURFV
 70
     6
  9
$UCSBASE
  2

  9
$UCSNAME
  2

  9
$UCSORG
 10
0.0
 20
0.0
 30
0.0
  9
$UCSXDIR
 10
1.0
 20
0.0
 30
0.0
  9
$UCSYDIR
 10
0.0
 20
1.0
 30
0.0
  9
$UCSORTHOREF
  2

  9
$UCSORTHOVIEW
 70
     0
  9
$UCSORGTOP
 10
0.0
 20
0.0
 30
0.0
  9
$UCSORGBOTTOM
 10
0.0
 20
0.0
 30
0.0
  9
$UCSORGLEFT
 10
0.0
 20
0.0
 30
0.0
  9
$UCSORGRIGHT
 10
0.0
 20
0.0
 30
0.0
  9
$UCSORGFRONT
 10
0.0
 20
0.0
 30
0.0
  9
$UCSORGBACK
 10
0.0
 20
0.0
 30
0.0
  9
$PUCSBASE
  2

  9
$PUCSNAME
  2

  9
$PUCSORG
 10
0.0
 20
0.0
 30
0.0
  9
$PUCSXDIR
 10
1.0
 20
0.0
 30
0.0
  9
$PUCSYDIR
 10
0.0
 20
1.0
 30
0.0
  9
$PUCSORTHOREF
  2

  9
$PUCSORTHOVIEW
 70
     0
  9
$PUCSORGTOP
 10
0.0
 20
0.0
 30
0.0
  9
$PUCSORGBOTTOM
 10
0.0
 20
0.0
 30
0.0
  9
$PUCSORGLEFT
 10
0.0
 20
0.0
 30
0.0
  9
$PUCSORGRIGHT
 10
0.0
 20
0.0
 30
0.0
  9
$PUCSORGFRONT
 10
0.0
 20
0.0
 30
0.0
  9
$PUCSORGBACK
 10
0.0
 20
0.0
 30
0.0
  9
$USERI1
 70
     0
  9
$USERI2
 70
     0
  9
$USERI3
 70
     0
  9
$USERI4
 70
     0
  9
$USERI5
 70
     0
  9
$USERR1
 40
0.0
  9
$USERR2
 40
0.0
  9
$USERR3
 40
0.0
  9
$USERR4
 40
0.0
  9
$USERR5
 40
0.0
  9
$WORLDVIEW
 70
     1
  9
$SHADEDGE
 70
     3
  9
$SHADEDIF
 70
    70
  9
$TILEMODE
 70
     1
  9
$MAXACTVP
 70
    64
  9
$PINSBASE
 10
0.0
 20
0.0
 30
0.0
  9
$PLIMCHECK
 70
     0
  9
$PEXTMIN
 10
-0.4893127972220555
 20
0.5075672420451838
 30
0.0
  9
$PEXTMAX
 10
256.3745908786761
 20
195.4945431212738
 30
0.0
  9
$PLIMMIN
 10
-20.0
 20
-7.5
  9
$PLIMMAX
 10
277.0
 20
202.5
  9
$UNITMODE
 70
     0
  9
$VISRETAIN
 70
     1
  9
$PLINEGEN
 70
     0
  9
$PSLTSCALE
 70
     1
  9
$TREEDEPTH
 70
  3020
  9
$CMLSTYLE
  2
Standard
  9
$CMLJUST
 70
     0
  9
$CMLSCALE
 40
20.0
  9
$PROXYGRAPHICS
 70
     1
  9
$MEASUREMENT
 70
     1
  9
$CELWEIGHT
370
     5
  9
$ENDCAPS
280
     0
  9
$JOINSTYLE
280
     0
  9
$LWDISPLAY
290
     0
  9
$INSUNITS
 70
     4
  9
$HYPERLINKBASE
  1

  9
$STYLESHEET
  1

  9
$XEDIT
290
     1
  9
$CEPSNTYPE
380
     0
  9
$PSTYLEMODE
290
     1
  9
$FINGERPRINTGUID
  2
{5FA0F77C-E5AA-4BA9-9F41-3ADBD6E4B452}
  9
$VERSIONGUID
  2
{EACE4837-4E3E-7149-A047-5E698D468619}
  9
$EXTNAMES
290
     1
  9
$PSVPSCALE
 40
0.0
  9
$OLESTARTUP
290
     0
  9
$SORTENTS
280
   127
  9
$INDEXCTL
280
     0
  9
$HIDETEXT
280
     1
  9
$XCLIPFRAME
280
     2
  9
$HALOGAP
280
     0
  9
$OBSCOLOR
 70
   257
  9
$OBSLTYPE
280
     0
  9
$INTERSECTIONDISPLAY
280
     0
  9
$INTERSECTIONCOLOR
 70
   257
  9
$DIMASSOC
280
     2
  9
$PROJECTNAME
  1

  9
$CAMERADISPLAY
290
     0
  9
$LENSLENGTH
 40
50.0
  9
$CAMERAHEIGHT
 40
0.0
  9
$STEPSPERSEC
 40
2.0
  9
$STEPSIZE
 40
6.0
  9
$3DDWFPREC
 40
2.0
  9
$PSOLWIDTH
 40
5.0
  9
$PSOLHEIGHT
 40
80.0
  9
$LOFTANG1
 40
1.570796326794896
  9
$LOFTANG2
 40
1.570796326794896
  9
$LOFTMAG1
 40
0.0
  9
$LOFTMAG2
 40
0.0
  9
$LOFTPARAM
 70
     7
  9
$LOFTNORMALS
280
     1
  9
$LATITUDE
 40
37.795
  9
$LONGITUDE
 40
-122.394
  9
$NORTHDIRECTION
 40
0.0
  9
$TIMEZONE
 70
 -8000
  9
$LIGHTGLYPHDISPLAY
280
     1
  9
$TILEMODELIGHTSYNCH
280
     1
  9
$CMATERIAL
347
EC
  9
$SOLIDHIST
280
     0
  9
$SHOWHIST
280
     1
  9
$DWFFRAME
280
     2
  9
$DGNFRAME
280
     0
  9
$REALWORLDSCALE
290
     1
  9
$INTERFERECOLOR
 62
     1
  9
$INTERFEREOBJVS
345
F9
  9
$INTERFEREVPVS
346
F6
  9
$CSHADOW
280
     0
  9
$SHADOWPLANELOCATION
 40
0.0
  0
ENDSEC
  0
SECTION
  2
CLASSES
  0
CLASS
  1
ACDBDICTIONARYWDFLT
  2
AcDbDictionaryWithDefault
  3
ObjectDBX Classes
 90
        0
 91
        1
280
     0
281
     0
  0
CLASS
  1
DICTIONARYVAR
  2
AcDbDictionaryVar
  3
ObjectDBX Classes
 90
        0
 91
        9
280
     0
281
     0
  0
CLASS
  1
TABLESTYLE
  2
AcDbTableStyle
  3
ObjectDBX Classes
 90
     4095
 91
        1
280
     0
281
     0
  0
CLASS
  1
MATERIAL
  2
AcDbMaterial
  3
ObjectDBX Classes
 90
     1153
 91
        3
280
     0
281
     0
  0
CLASS
  1
VISUALSTYLE
  2
AcDbVisualStyle
  3
ObjectDBX Classes
 90
     4095
 91
       24
280
     0
281
     0
  0
CLASS
  1
SCALE
  2
AcDbScale
  3
ObjectDBX Classes
 90
     1153
 91
       17
280
     0
281
     0
  0
CLASS
  1
MLEADERSTYLE
  2
AcDbMLeaderStyle
  3
ACDB_MLEADERSTYLE_CLASS
 90
     4095
 91
        2
280
     0
281
     0
  0
CLASS
  1
CELLSTYLEMAP
  2
AcDbCellStyleMap
  3
ObjectDBX Classes
 90
     1152
 91
        4
280
     0
281
     0
  0
CLASS
  1
EXACXREFPANELOBJECT
  2
ExAcXREFPanelObject
  3
EXAC_ESW
 90
     1025
 91
        0
280
     0
281
     0
  0
CLASS
  1
NPOCOLLECTION
  2
AcDbImpNonPersistentObjectsCollection
  3
ObjectDBX Classes
 90
     1153
 91
        0
280
     0
281
     0
  0
CLASS
  1
LAYER_INDEX
  2
AcDbLayerIndex
  3
ObjectDBX Classes
 90
        0
 91
        0
280
     0
281
     0
  0
CLASS
  1
SPATIAL_INDEX
  2
AcDbSpatialIndex
  3
ObjectDBX Classes
 90
        0
 91
        0
280
     0
281
     0
  0
CLASS
  1
IDBUFFER
  2
AcDbIdBuffer
  3
ObjectDBX Classes
 90
        0
 91
        0
280
     0
281
     0
  0
CLASS
  1
ACDBSECTIONVIEWSTYLE
  2
AcDbSectionViewStyle
  3
ObjectDBX Classes
 90
     1025
 91
        2
280
     0
281
     0
  0
CLASS
  1
ACDBDETAILVIEWSTYLE
  2
AcDbDetailViewStyle
  3
ObjectDBX Classes
 90
     1025
 91
        2
280
     0
281
     0
  0
CLASS
  1
SORTENTSTABLE
  2
AcDbSortentsTable
  3
ObjectDBX Classes
 90
        0
 91
        0
280
     0
281
     0
  0
CLASS
  1
DIMASSOC
  2
AcDbDimAssoc
  3
"AcDbDimAssoc|Product Desc:     AcDim ARX App For Dimension|Company:          Autodesk, Inc.|WEB Address:      www.autodesk.com"
 90
        0
 91
        0
280
     0
281
     0
  0
ENDSEC
  0
SECTION
  2
TABLES
  0
TABLE
  2
VPORT
  5
8
330
0
100
AcDbSymbolTable
 70
     1
1001
ACAD
1000
DbSaveVer
1071
      105
  0
VPORT
  5
EA
330
8
100
AcDbSymbolTableRecord
100
AcDbViewportTableRecord
  2
*Active
 70
     0
 10
0.0
 20
0.0
 11
1.0
 21
1.0
 12
3867.831720117904
 22
4434.353363783717
 13
0.0
 23
0.0
 14
10.0
 24
10.0
 15
10.0
 25
10.0
 16
0.0
 26
0.0
 36
1.0
 17
0.0
 27
0.0
 37
0.0
 40
11017.42765282617
 41
2.292712066905615
 42
50.0
 43
0.0
 44
0.0
 50
0.0
 51
0.0
 71
     0
 72
  1000
 73
     1
 74
     3
 75
     1
 76
     0
 77
     0
 78
     0
281
     0
 65
     1
110
0.0
120
0.0
130
0.0
111
1.0
121
0.0
131
0.0
112
0.0
122
1.0
132
0.0
 79
     0
146
0.0
348
F5
 60
     3
 61
     5
292
     1
282
     1
141
0.0
142
0.0
 63
   250
421
  3355443
1001
ACAD_NAV_VCDISPLAY
1070
     3
  0
ENDTAB
  0
TABLE
  2
LTYPE
  5
5
330
0
100
AcDbSymbolTable
 70
     3
  0
LTYPE
  5
14
330
5
100
AcDbSymbolTableRecord
100
AcDbLinetypeTableRecord
  2
ByBlock
 70
     0
  3

 72
    65
 73
     0
 40
0.0
  0
LTYPE
  5
15
330
5
100
AcDbSymbolTableRecord
100
AcDbLinetypeTableRecord
  2
ByLayer
 70
     0
  3

 72
    65
 73
     0
 40
0.0
  0
LTYPE
  5
16
330
5
100
AcDbSymbolTableRecord
100
AcDbLinetypeTableRecord
  2
Continuous
 70
     0
  3
Solid line
 72
    65
 73
     0
 40
0.0
  0
LTYPE
  5
300
330
5
100
AcDbSymbolTableRecord
100
AcDbLinetypeTableRecord
  2
DOUBLE_DASH_CHAIN
 70
     0
  3
Double-Dash Chain ______  __  __  ______  __  _
 72
    65
 73
     6
 40
1.240299999999999
 49
0.6614
 74
     0
 49
-0.0827
 74
     0
 49
0.1654
 74
     0
 49
-0.0827
 74
     0
 49
0.1654
 74
     0
 49
-0.0827
 74
     0
  0
ENDTAB
  0
TABLE
  2
LAYER
  5
2
102
{ACAD_XDICTIONARY
360
1FF
102
}
330
0
100
AcDbSymbolTable
 70
    13
  0
LAYER
  5
10
102
{ACAD_XDICTIONARY
360
13C
102
}
330
2
100
AcDbSymbolTableRecord
100
AcDbLayerTableRecord
  2
0
 70
     0
 62
     7
  6
Continuous
370
    -3
390
F
347
EE
348
0
  0
LAYER
  5
28B
330
2
100
AcDbSymbolTableRecord
100
AcDbLayerTableRecord
  2
Dimension (ANSI)
 70
     0
 62
     7
  6
Continuous
370
    25
390
F
347
EE
348
0
  0
LAYER
  5
28C
330
2
100
AcDbSymbolTableRecord
100
AcDbLayerTableRecord
  2
Sketch Geometry (ANSI)
 70
     0
 62
     7
  6
Continuous
370
    25
390
F
347
EE
348
0
  0
LAYER
  5
28D
330
2
100
AcDbSymbolTableRecord
100
AcDbLayerTableRecord
  2
Visible (ANSI)
 70
     0
 62
     7
  6
Continuous
370
    50
390
F
347
EE
348
0
  0
LAYER
  5
28E
330
2
100
AcDbSymbolTableRecord
100
AcDbLayerTableRecord
  2
Defpoints
 70
     0
 62
     7
  6
Continuous
290
     0
370
    -3
390
F
347
EE
348
0
  0
LAYER
  5
301
330
2
100
AcDbSymbolTableRecord
100
AcDbLayerTableRecord
  2
Detail Boundary (ANSI)
 70
     0
 62
     7
  6
DOUBLE_DASH_CHAIN
370
    50
390
F
347
EE
348
0
  0
LAYER
  5
65B
330
2
100
AcDbSymbolTableRecord
100
AcDbLayerTableRecord
  2
Text
 70
     0
 62
     7
  6
Continuous
370
    -3
390
F
347
EE
348
0
1001
AcAecLayerStandard
1000

1000

  0
LAYER
  5
65C
330
2
100
AcDbSymbolTableRecord
100
AcDbLayerTableRecord
  2
Furniture
 70
     0
 62
     7
  6
Continuous
370
    -3
390
F
347
EE
348
0
1001
AcAecLayerStandard
1000

1000

  0
LAYER
  5
A29
330
2
100
AcDbSymbolTableRecord
100
AcDbLayerTableRecord
  2
Dimensions
 70
     0
 62
     7
  6
Continuous
370
    -3
390
F
347
EE
348
0
1001
AcAecLayerStandard
1000

1000

  0
LAYER
  5
3001
330
2
100
AcDbSymbolTableRecord
100
AcDbLayerTableRecord
  2
Section Line (ANSI)
 70
     0
 62
    -7
  6
DOUBLE_DASH_CHAIN
370
    70
390
F
347
EE
348
0
  0
LAYER
  5
4891
330
2
100
AcDbSymbolTableRecord
100
AcDbLayerTableRecord
  2
LINE
 70
     0
 62
     7
  6
Continuous
370
     5
390
F
347
EE
348
0
1001
AcAecLayerStandard
1000

1000

1001
AcCmTransparency
1071
        0
  0
LAYER
  5
5523
330
2
100
AcDbSymbolTableRecord
100
AcDbLayerTableRecord
  2
Symbol (ANSI)
 70
     0
 62
     7
  6
Continuous
370
    25
390
F
347
EE
348
0
  0
LAYER
  5
5A9E
330
2
100
AcDbSymbolTableRecord
100
AcDbLayerTableRecord
  2
Visible Narrow (ANSI)
 70
     0
 62
     7
  6
Continuous
370
    35
390
F
347
EE
348
0
  0
ENDTAB
  0
TABLE
  2
STYLE
  5
3
330
0
100
AcDbSymbolTable
 70
     4
  0
STYLE
  5
11
330
3
100
AcDbSymbolTableRecord
100
AcDbTextStyleTableRecord
  2
Standard
 70
     0
 40
0.0
 41
1.000099999999999
 50
0.0
 71
     0
 42
2.5
  3
apercu_regular-webfont.ttf
  4

1001
ACAD
1000
Apercu
1071
        2
  0
STYLE
  5
132
330
3
100
AcDbSymbolTableRecord
100
AcDbTextStyleTableRecord
  2
Annotative
 70
     0
 40
0.0
 41
1.0
 50
0.0
 71
     0
 42
2.5
  3
arial.ttf
  4

1001
AcadAnnotative
1000
AnnotativeData
1002
{
1070
     1
1070
     1
1002
}
1001
ACAD
1000
Arial
1071
       34
  0
STYLE
  5
28F
330
3
100
AcDbSymbolTableRecord
100
AcDbTextStyleTableRecord
  2
Note Text (ANSI)
 70
     0
 40
0.0
 41
1.0
 50
0.0
 71
     0
 42
0.2
  3
apercu_regular-webfont.ttf
  4

1001
ACAD
1000
Apercu
1071
      256
  0
STYLE
  5
302
330
3
100
AcDbSymbolTableRecord
100
AcDbTextStyleTableRecord
  2
Label Text (ANSI)
 70
     0
 40
0.0
 41
1.0
 50
0.0
 71
     0
 42
0.2
  3
apercu_regular-webfont.ttf
  4

1001
ACAD
1000
Apercu
1071
      256
  0
ENDTAB
  0
TABLE
  2
VIEW
  5
6
330
0
100
AcDbSymbolTable
 70
    10
  0
ENDTAB
  0
TABLE
  2
UCS
  5
7
330
0
100
AcDbSymbolTable
 70
     0
  0
ENDTAB
  0
TABLE
  2
APPID
  5
9
330
0
100
AcDbSymbolTable
 70
    14
  0
APPID
  5
12
330
9
100
AcDbSymbolTableRecord
100
AcDbRegAppTableRecord
  2
ACAD
 70
     0
  0
APPID
  5
9E
330
9
100
AcDbSymbolTableRecord
100
AcDbRegAppTableRecord
  2
ACAD_PSEXT
 70
     0
  0
APPID
  5
133
330
9
100
AcDbSymbolTableRecord
100
AcDbRegAppTableRecord
  2
AcadAnnoPO
 70
     0
  0
APPID
  5
134
330
9
100
AcDbSymbolTableRecord
100
AcDbRegAppTableRecord
  2
AcadAnnotative
 70
     0
  0
APPID
  5
135
330
9
100
AcDbSymbolTableRecord
100
AcDbRegAppTableRecord
  2
ACAD_DSTYLE_DIMJAG
 70
     0
  0
APPID
  5
136
330
9
100
AcDbSymbolTableRecord
100
AcDbRegAppTableRecord
  2
ACAD_DSTYLE_DIMTALN
 70
     0
  0
APPID
  5
165
330
9
100
AcDbSymbolTableRecord
100
AcDbRegAppTableRecord
  2
ACAD_MLEADERVER
 70
     0
  0
APPID
  5
217
330
9
100
AcDbSymbolTableRecord
100
AcDbRegAppTableRecord
  2
ACAD_NAV_VCDISPLAY
 70
     0
  0
APPID
  5
291
330
9
100
AcDbSymbolTableRecord
100
AcDbRegAppTableRecord
  2
ACAD_DSTYLE_DIMANGULAR_EXTENSION
 70
     0
  0
APPID
  5
292
330
9
100
AcDbSymbolTableRecord
100
AcDbRegAppTableRecord
  2
ACAD_DSTYLE_DIMRADIAL_EXTENSION
 70
     0
  0
APPID
  5
65D
330
9
100
AcDbSymbolTableRecord
100
AcDbRegAppTableRecord
  2
AcAecLayerStandard
 70
     0
  0
APPID
  5
214F
330
9
100
AcDbSymbolTableRecord
100
AcDbRegAppTableRecord
  2
ACAD_EXEMPT_FROM_CAD_STANDARDS
 70
     0
  0
APPID
  5
46A7
330
9
100
AcDbSymbolTableRecord
100
AcDbRegAppTableRecord
  2
AcadAnnoMonitorAlertIconDisabled
 70
     0
  0
APPID
  5
4892
330
9
100
AcDbSymbolTableRecord
100
AcDbRegAppTableRecord
  2
AcCmTransparency
 70
     0
  0
ENDTAB
  0
TABLE
  2
DIMSTYLE
  5
A
330
0
100
AcDbSymbolTable
 70
     4
100
AcDbDimStyleTable
 71
     2
340
27
340
137
  0
DIMSTYLE
105
1B0
330
A
100
AcDbSymbolTableRecord
100
AcDbDimStyleTableRecord
  2
Standard
 70
     0
340
11
  0
DIMSTYLE
105
137
330
A
100
AcDbSymbolTableRecord
100
AcDbDimStyleTableRecord
  2
Annotative
 70
     0
 40
0.0
 41
2.5
 42
0.625
 43
3.75
 44
1.25
 73
     0
 74
     0
 77
     1
 78
     8
140
2.5
141
2.5
143
0.03937007874016
147
0.625
171
     3
172
     1
271
     2
272
     2
274
     3
278
    44
283
     0
284
     8
340
11
1001
AcadAnnotative
1000
AnnotativeData
1002
{
1070
     1
1070
     1
1002
}
1001
ACAD_DSTYLE_DIMJAG
1070
   388
1040
1.5
1001
ACAD_DSTYLE_DIMTALN
1070
   392
1070
     0
  0
DIMSTYLE
105
27
330
A
100
AcDbSymbolTableRecord
100
AcDbDimStyleTableRecord
  2
ISO-25
 70
     0
 41
2.5
 42
0.625
 43
3.75
 44
1.25
 73
     0
 74
     0
 77
     1
 78
     8
140
2.5
141
2.5
143
0.03937007874016
147
0.625
171
     3
172
     1
271
     2
272
     2
274
     3
278
    44
283
     0
284
     8
340
11
  0
DIMSTYLE
105
290
102
{ACAD_REACTORS
330
2B4
330
2B5
330
2B6
330
2B7
102
}
330
A
100
AcDbSymbolTableRecord
100
AcDbDimStyleTableRecord
  2
Default - mm (ANSI)
 70
     0
 40
20.0
 41
2.5
 42
1.600199999999999
 43
5.999999999999999
 44
3.174999999999999
 45
0.00000001
 73
     0
 78
    12
 79
     1
140
3.04800009727478
143
1.0
147
0.8
171
     0
176
   256
177
   256
178
   256
271
     1
272
     2
274
     1
284
     4
285
     4
340
28F
342
259
371
    -1
372
    -1
  0
ENDTAB
  0
TABLE
  2
BLOCK_RECORD
  5
1
330
0
100
AcDbSymbolTable
 70
    18
  0
BLOCK_RECORD
  5
1F
102
{ACAD_XDICTIONARY
360
1CE
102
}
330
1
100
AcDbSymbolTableRecord
100
AcDbBlockTableRecord
  2
*Model_Space
340
22
 70
     0
280
     1
281
     0
  0
BLOCK_RECORD
  5
D2
330
1
100
AcDbSymbolTableRecord
100
AcDbBlockTableRecord
  2
*Paper_Space
340
D3
 70
     0
280
     1
281
     0
  0
BLOCK_RECORD
  5
D6
330
1
100
AcDbSymbolTableRecord
100
AcDbBlockTableRecord
  2
*Paper_Space0
340
D7
 70
     0
280
     1
281
     0
  0
BLOCK_RECORD
  5
259
330
1
100
AcDbSymbolTableRecord
100
AcDbBlockTableRecord
  2
_Oblique
340
0
102
{BLKREFS
331
267
331
268
331
274
331
27C
331
286
102
}
 70
     0
280
     1
281
     0
  0
BLOCK_RECORD
  5
25D
330
1
100
AcDbSymbolTableRecord
100
AcDbBlockTableRecord
  2
Grain Direction Horizontal
340
0
102
{BLKREFS
331
2B8
102
}
 70
     0
280
     1
281
     0
  0
BLOCK_RECORD
  5
263
330
1
100
AcDbSymbolTableRecord
100
AcDbBlockTableRecord
  2
*D3
340
0
 70
     0
280
     1
281
     0
  0
BLOCK_RECORD
  5
26F
330
1
100
AcDbSymbolTableRecord
100
AcDbBlockTableRecord
  2
*D4
340
0
 70
     0
280
     1
281
     0
  0
BLOCK_RECORD
  5
278
330
1
100
AcDbSymbolTableRecord
100
AcDbBlockTableRecord
  2
*D5
340
0
 70
     0
280
     1
281
     0
  0
BLOCK_RECORD
  5
281
330
1
100
AcDbSymbolTableRecord
100
AcDbBlockTableRecord
  2
*D6
340
0
 70
     0
280
     1
281
     0
  0
BLOCK_RECORD
  5
293
330
1
100
AcDbSymbolTableRecord
100
AcDbBlockTableRecord
  2
A$C0877230E
340
0
 70
     4
280
     1
281
     0
  0
BLOCK_RECORD
  5
2E5
330
1
100
AcDbSymbolTableRecord
100
AcDbBlockTableRecord
  2
2dDetail0
340
0
 70
     0
280
     1
281
     0
  0
BLOCK_RECORD
  5
11E9
330
1
100
AcDbSymbolTableRecord
100
AcDbBlockTableRecord
  2
A$C5493012A
340
0
 70
     4
280
     1
281
     0
  0
BLOCK_RECORD
  5
2996
102
{ACAD_XDICTIONARY
360
2A4F
102
}
330
1
100
AcDbSymbolTableRecord
100
AcDbBlockTableRecord
  2
A$C2BC623AF
340
0
 70
     4
280
     1
281
     0
  0
BLOCK_RECORD
  5
2F84
330
1
100
AcDbSymbolTableRecord
100
AcDbBlockTableRecord
  2
Grain Direction Vertical
340
0
 70
     0
280
     1
281
     0
  0
BLOCK_RECORD
  5
2FD6
330
1
100
AcDbSymbolTableRecord
100
AcDbBlockTableRecord
  2
2dTransSection0
340
0
 70
     0
280
     1
281
     0
  0
BLOCK_RECORD
  5
45AA
102
{ACAD_XDICTIONARY
360
45AC
102
}
330
1
100
AcDbSymbolTableRecord
100
AcDbBlockTableRecord
  2
A$C37F77E94
340
0
 70
     4
280
     1
281
     0
  0
BLOCK_RECORD
  5
469B
330
1
100
AcDbSymbolTableRecord
100
AcDbBlockTableRecord
  2
*D14
340
0
 70
     0
280
     1
281
     0
  0
ENDTAB
  0
ENDSEC
  0
SECTION
  2
BLOCKS
  0
BLOCK
  5
20
330
1F
100
AcDbEntity
  8
0
100
AcDbBlockBegin
  2
*Model_Space
 70
     0
 10
0.0
 20
0.0
 30
0.0
  3
*Model_Space
  1

  0
ENDBLK
  5
21
330
1F
100
AcDbEntity
  8
0
100
AcDbBlockEnd
  0
BLOCK
  5
D4
330
D2
100
AcDbEntity
 67
     1
  8
0
100
AcDbBlockBegin
  2
*Paper_Space
 70
     0
 10
0.0
 20
0.0
 30
0.0
  3
*Paper_Space
  1

  0
ENDBLK
  5
D5
330
D2
100
AcDbEntity
 67
     1
  8
0
100
AcDbBlockEnd
  0
BLOCK
  5
D8
330
D6
100
AcDbEntity
 67
     1
  8
0
100
AcDbBlockBegin
  2
*Paper_Space0
 70
     0
 10
0.0
 20
0.0
 30
0.0
  3
*Paper_Space0
  1

  0
VIEWPORT
  5
54ED
102
{ACAD_XDICTIONARY
360
54EE
102
}
330
D6
100
AcDbEntity
 67
     1
  8
0
370
     5
100
AcDbViewport
 10
96.23900062865633
 20
43.9779160929635
 30
0.0
 40
49.67359042283789
 41
21.42320724397274
 68
     0
 69
     0
 12
96.23900062865633
 22
43.9779160929635
 13
0.0
 23
0.0
 14
10.0
 24
10.0
 15
10.0
 25
10.0
 16
0.0
 26
0.0
 36
1.0
 17
0.0
 27
0.0
 37
0.0
 42
50.0
 43
0.0
 44
0.0
 45
21.42320724397274
 50
0.0
 51
0.0
 72
  1000
 90
   819232
  1

281
     0
 71
     1
 74
     0
110
0.0
120
0.0
130
0.0
111
1.0
121
0.0
131
0.0
112
0.0
122
1.0
132
0.0
 79
     0
146
0.0
170
     0
 61
     5
348
F5
292
     1
282
     1
141
0.0
142
0.0
 63
   250
421
  3355443
  0
VIEWPORT
  5
54F1
102
{ACAD_XDICTIONARY
360
54F2
102
}
330
D6
100
AcDbEntity
 67
     1
  8
0
370
     5
100
AcDbViewport
 10
128.5
 20
97.5
 30
0.0
 40
205.6
 41
156.0
 68
     0
 69
     0
 12
11006.62097178241
 22
-6073.477656117404
 13
0.0
 23
0.0
 14
10.0
 24
10.0
 15
10.0
 25
10.0
 16
0.0
 26
0.0
 36
1.0
 17
0.0
 27
0.0
 37
0.0
 42
50.0
 43
0.0
 44
0.0
 45
25006.19066549875
 50
0.0
 51
0.0
 72
  1000
 90
   819552
  1

281
     0
 71
     1
 74
     0
110
0.0
120
0.0
130
0.0
111
1.0
121
0.0
131
0.0
112
0.0
122
1.0
132
0.0
 79
     0
146
0.0
170
     0
 61
     5
348
F5
292
     1
282
     1
141
0.0
142
0.0
 63
   250
421
  3355443
  0
ENDBLK
  5
D9
330
D6
100
AcDbEntity
 67
     1
  8
0
100
AcDbBlockEnd
  0
BLOCK
  5
25A
330
259
100
AcDbEntity
  8
0
100
AcDbBlockBegin
  2
_Oblique
 70
     0
 10
0.0
 20
0.0
 30
0.0
  3
_Oblique
  1

  0
LINE
  5
25B
330
259
100
AcDbEntity
  8
0
  6
ByBlock
 62
     0
370
    -2
100
AcDbLine
 10
-0.5
 20
-0.5
 30
0.0
 11
0.5
 21
0.5
 31
0.0
  0
ENDBLK
  5
25C
330
259
100
AcDbEntity
  8
0
100
AcDbBlockEnd
  0
BLOCK
  5
25E
330
25D
100
AcDbEntity
  8
0
100
AcDbBlockBegin
  2
Grain Direction Horizontal
 70
     0
 10
0.0
 20
0.0
 30
0.0
  3
Grain Direction Horizontal
  1

  0
LINE
  5
25F
330
25D
100
AcDbEntity
  8
Sketch Geometry (ANSI)
100
AcDbLine
 10
17.18962223009089
 20
0.0848950090080436
 30
0.0
 11
-17.18962223009089
 21
0.0848950090080436
 31
0.0
  0
LINE
  5
260
330
25D
100
AcDbEntity
  8
Sketch Geometry (ANSI)
100
AcDbLine
 10
-17.18962223009089
 20
0.0848950090080436
 30
0.0
 11
-12.08379384491538
 21
-4.680545003273977
 31
0.0
  0
LINE
  5
261
330
25D
100
AcDbEntity
  8
Sketch Geometry (ANSI)
100
AcDbLine
 10
17.18962223009089
 20
0.0848950090080436
 30
0.0
 11
12.26571171425623
 21
4.680545003273977
 31
0.0
  0
ENDBLK
  5
262
330
25D
100
AcDbEntity
  8
0
100
AcDbBlockEnd
  0
BLOCK
  5
264
330
263
100
AcDbEntity
  8
0
100
AcDbBlockBegin
  2
*D3
 70
     1
 10
0.0
 20
0.0
 30
0.0
  3
*D3
  1

  0
ARC
  5
265
330
263
100
AcDbEntity
  8
Dimension (ANSI)
440
 16777216
100
AcDbCircle
 10
2090.579934801044
 20
5276.177524911875
 30
0.0
 40
190.9859317103102
100
AcDbArc
 50
184.7257591230494
 51
245.4818687922844
  0
ARC
  5
266
330
263
100
AcDbEntity
  8
Dimension (ANSI)
440
 16777216
100
AcDbCircle
 10
2090.579934801044
 20
5276.177524911875
 30
0.0
 40
190.9859317103102
100
AcDbArc
 50
294.5181312077165
 51
355.2742408769499
  0
INSERT
  5
267
330
263
100
AcDbEntity
  8
Dimension (ANSI)
440
 16777216
100
AcDbBlockReference
  2
_Oblique
 10
1900.243269685595
 20
5260.44284906568
 30
0.0
 41
50.0
 42
50.0
 43
50.0
 50
94.72575912304945
  0
INSERT
  5
268
330
263
100
AcDbEntity
  8
Dimension (ANSI)
440
 16777216
100
AcDbBlockReference
  2
_Oblique
 10
2280.916599916492
 20
5260.442849065677
 30
0.0
 41
50.0
 42
50.0
 43
50.0
 50
85.27424087694996
  0
MTEXT
  5
269
330
263
100
AcDbEntity
  8
Dimension (ANSI)
440
 16777216
100
AcDbMText
 10
2027.324367788818
 20
5115.671594241731
 30
0.0
 40
60.9600019454956
 41
0.0
 46
0.0
 71
     1
 72
     1
  1
\A1;171\U+00B0
  7
Note Text (ANSI)
 73
     1
 44
1.0
  0
POINT
  5
26A
330
263
100
AcDbEntity
  8
Defpoints
 62
     0
440
 16777216
100
AcDbPoint
 10
2090.579934801044
 20
5276.177524911875
 30
0.0
  0
POINT
  5
26B
330
263
100
AcDbEntity
  8
Defpoints
 62
     0
440
 16777216
100
AcDbPoint
 10
734.3927716601369
 20
5164.064783071777
 30
0.0
  0
POINT
  5
26C
330
263
100
AcDbEntity
  8
Defpoints
 62
     0
440
 16777216
100
AcDbPoint
 10
2122.475135540722
 20
5273.540825123194
 30
0.0
  0
POINT
  5
26D
330
263
100
AcDbEntity
  8
Defpoints
 62
     0
440
 16777216
100
AcDbPoint
 10
1999.669848472457
 20
5108.21627249042
 30
0.0
  0
ENDBLK
  5
26E
330
263
100
AcDbEntity
  8
0
100
AcDbBlockEnd
  0
BLOCK
  5
270
330
26F
100
AcDbEntity
  8
0
100
AcDbBlockBegin
  2
*D4
 70
     1
 10
0.0
 20
0.0
 30
0.0
  3
*D4
  1

  0
LINE
  5
271
330
26F
100
AcDbEntity
  8
Dimension (ANSI)
440
 16777216
100
AcDbLine
 10
3688.7759410002
 20
5309.122606621567
 30
0.0
 11
3621.595485854892
 21
5309.122606621567
 31
0.0
  0
LINE
  5
272
330
26F
100
AcDbEntity
  8
Dimension (ANSI)
440
 16777216
100
AcDbLine
 10
3621.595485854892
 20
5309.122606621567
 30
0.0
 11
3485.638043838344
 21
5162.433766847726
 31
0.0
  0
MTEXT
  5
273
330
26F
100
AcDbEntity
  8
Dimension (ANSI)
440
 16777216
100
AcDbMText
 10
3704.7759410002
 20
5340.282775048962
 30
0.0
 40
60.9600019454956
 41
0.0
 46
0.0
 71
     1
 72
     1
  1
\A1;R63
  7
Note Text (ANSI)
 73
     1
 44
1.0
  0
INSERT
  5
274
330
26F
100
AcDbEntity
  8
Dimension (ANSI)
440
 16777216
100
AcDbBlockReference
  2
_Oblique
 10
3485.638043838344
 20
5162.433766847726
 30
0.0
 41
50.0
 42
50.0
 43
50.0
 50
227.174338191729
  0
POINT
  5
275
330
26F
100
AcDbEntity
  8
Defpoints
 62
     0
440
 16777216
100
AcDbPoint
 10
3485.638043838344
 20
5162.433766847726
 30
0.0
  0
POINT
  5
276
330
26F
100
AcDbEntity
  8
Defpoints
 62
     0
440
 16777216
100
AcDbPoint
 10
3442.81254257835
 20
5116.227961564944
 30
0.0
  0
ENDBLK
  5
277
330
26F
100
AcDbEntity
  8
0
100
AcDbBlockEnd
  0
BLOCK
  5
279
330
278
100
AcDbEntity
  8
0
100
AcDbBlockBegin
  2
*D5
 70
     1
 10
0.0
 20
0.0
 30
0.0
  3
*D5
  1

  0
LINE
  5
27A
330
278
100
AcDbEntity
  8
Dimension (ANSI)
440
 16777216
100
AcDbLine
 10
3699.8311293684
 20
4735.980059290448
 30
0.0
 11
3588.537127429979
 21
4706.926698602758
 31
0.0
  0
MTEXT
  5
27B
330
278
100
AcDbEntity
  8
Dimension (ANSI)
440
 16777216
100
AcDbMText
 10
3715.8311293684
 20
4767.140227717842
 30
0.0
 40
60.9600019454956
 41
0.0
 46
0.0
 71
     1
 72
     1
  1
\A1;R63
  7
Note Text (ANSI)
 73
     1
 44
1.0
  0
INSERT
  5
27C
330
278
100
AcDbEntity
  8
Dimension (ANSI)
440
 16777216
100
AcDbBlockReference
  2
_Oblique
 10
3588.537127429979
 20
4706.926698602758
 30
0.0
 41
50.0
 42
50.0
 43
50.0
 50
194.6305826317201
  0
ARC
  5
27D
330
278
100
AcDbEntity
  8
Dimension (ANSI)
440
 16777216
100
AcDbCircle
 10
3527.57993480104
 20
4691.013789792655
 30
0.0
 40
63.00000000000181
100
AcDbArc
 50
11.27424087695061
 51
72.38109055363479
  0
POINT
  5
27E
330
278
100
AcDbEntity
  8
Defpoints
 62
     0
440
 16777216
100
AcDbPoint
 10
3588.537127429979
 20
4706.926698602758
 30
0.0
  0
POINT
  5
27F
330
278
100
AcDbEntity
  8
Defpoints
 62
     0
440
 16777216
100
AcDbPoint
 10
3527.57993480104
 20
4691.013789792655
 30
0.0
  0
ENDBLK
  5
280
330
278
100
AcDbEntity
  8
0
100
AcDbBlockEnd
  0
BLOCK
  5
282
330
281
100
AcDbEntity
  8
0
100
AcDbBlockBegin
  2
*D6
 70
     1
 10
0.0
 20
0.0
 30
0.0
  3
*D6
  1

  0
LINE
  5
283
330
281
100
AcDbEntity
  8
Dimension (ANSI)
440
 16777216
100
AcDbLine
 10
2209.518912679685
 20
3999.449708180975
 30
0.0
 11
2142.338457534384
 21
3999.449708180975
 31
0.0
  0
LINE
  5
284
330
281
100
AcDbEntity
  8
Dimension (ANSI)
440
 16777216
100
AcDbLine
 10
2142.338457534384
 20
3999.449708180975
 30
0.0
 11
2110.584762605955
 21
4094.274298126792
 31
0.0
  0
MTEXT
  5
285
330
281
100
AcDbEntity
  8
Dimension (ANSI)
440
 16777216
100
AcDbMText
 10
2225.518912679685
 20
4030.609876608369
 30
0.0
 40
60.9600019454956
 41
0.0
 46
0.0
 71
     1
 72
     1
  1
\A1;R63
  7
Note Text (ANSI)
 73
     1
 44
1.0
  0
INSERT
  5
286
330
281
100
AcDbEntity
  8
Dimension (ANSI)
440
 16777216
100
AcDbBlockReference
  2
_Oblique
 10
2110.584762605955
 20
4094.274298126792
 30
0.0
 41
50.0
 42
50.0
 43
50.0
 50
108.5140352369251
  0
ARC
  5
287
330
281
100
AcDbEntity
  8
Dimension (ANSI)
440
 16777216
100
AcDbCircle
 10
2090.579934801044
 20
4154.013789792657
 30
0.0
 40
63.0
100
AcDbArc
 50
274.7257591230493
 51
346.2645431588415
  0
POINT
  5
288
330
281
100
AcDbEntity
  8
Defpoints
 62
     0
440
 16777216
100
AcDbPoint
 10
2110.584762605955
 20
4094.274298126792
 30
0.0
  0
POINT
  5
289
330
281
100
AcDbEntity
  8
Defpoints
 62
     0
440
 16777216
100
AcDbPoint
 10
2090.579934801044
 20
4154.013789792657
 30
0.0
  0
ENDBLK
  5
28A
330
281
100
AcDbEntity
  8
0
100
AcDbBlockEnd
  0
BLOCK
  5
2B9
330
293
100
AcDbEntity
  8
0
100
AcDbBlockBegin
  2
A$C0877230E
 70
     0
 10
0.0
 20
0.0
 30
0.0
  3
A$C0877230E
  1

  0
LINE
  5
294
330
293
100
AcDbEntity
  8
Visible (ANSI)
100
AcDbLine
 10
1503.954554210158
 20
1330.177041979087
 30
0.0
 11
2856.187161987464
 21
1218.391213751374
 31
0.0
  0
LINE
  5
295
330
293
100
AcDbEntity
  8
Visible (ANSI)
100
AcDbLine
 10
2857.42296053859
 20
1233.340220472253
 30
0.0
 11
1505.190352761283
 21
1345.126048699967
 31
0.0
  0
ARC
  5
296
330
293
100
AcDbEntity
  8
Visible (ANSI)
100
AcDbCircle
 10
1499.999998846557
 20
1282.340220472248
 30
0.0
 40
48.00000000001041
100
AcDbArc
 50
85.27424087695399
 51
94.7257591230525
  0
ARC
  5
297
330
293
100
AcDbEntity
  8
Visible (ANSI)
100
AcDbCircle
 10
1499.999998846557
 20
1282.340220472261
 30
0.0
 40
62.99999999999222
100
AcDbArc
 50
85.2742408769475
 51
94.7257591230525
  0
LINE
  5
298
330
293
100
AcDbEntity
  8
Visible (ANSI)
100
AcDbLine
 10
143.8128357056497
 20
1218.391213751374
 30
0.0
 11
1496.045443482955
 21
1330.177041979087
 31
0.0
  0
LINE
  5
299
330
293
100
AcDbEntity
  8
Visible (ANSI)
100
AcDbLine
 10
1494.80964493183
 20
1345.126048699967
 30
0.0
 11
142.5770371545245
 21
1233.340220472253
 31
0.0
  0
ARC
  5
29A
330
293
100
AcDbEntity
  8
Visible (ANSI)
100
AcDbCircle
 10
147.7673910692509
 20
1170.554392244545
 30
0.0
 40
48.00000000000003
100
AcDbArc
 50
94.7257591230525
 51
168.7257591230495
  0
ARC
  5
29B
330
293
100
AcDbEntity
  8
Visible (ANSI)
100
AcDbCircle
 10
147.7673910692509
 20
1170.55439224454
 30
0.0
 40
63.0000000000002
100
AcDbArc
 50
94.7257591230525
 51
168.7257591230482
  0
LINE
  5
29C
330
293
100
AcDbEntity
  8
Visible (ANSI)
100
AcDbLine
 10
15.9262714927479
 20
754.7244728675941
 30
0.0
 11
100.6936637154429
 21
1179.93864463988
 31
0.0
  0
LINE
  5
29D
330
293
100
AcDbEntity
  8
Visible (ANSI)
100
AcDbLine
 10
85.98312391737819
 20
1182.871223513417
 30
0.0
 11
1.215731694683086
 21
757.6570517411319
 31
0.0
  0
ARC
  5
29E
330
293
100
AcDbEntity
  8
Visible (ANSI)
100
AcDbCircle
 10
62.99999884655085
 20
745.3402204722578
 30
0.0
 40
47.99999999999414
100
AcDbArc
 50
168.7257591230482
 51
191.2742408769518
  0
ARC
  5
29F
330
293
100
AcDbEntity
  8
Visible (ANSI)
100
AcDbCircle
 10
62.99999884655074
 20
745.3402204722542
 30
0.0
 40
62.99999999999387
100
AcDbArc
 50
168.7257591230482
 51
191.2742408769518
  0
LINE
  5
2A0
330
293
100
AcDbEntity
  8
Visible (ANSI)
100
AcDbLine
 10
100.6936637154429
 20
310.7417963046364
 30
0.0
 11
15.92627149274881
 21
735.9559680769234
 31
0.0
  0
LINE
  5
2A1
330
293
100
AcDbEntity
  8
Visible (ANSI)
100
AcDbLine
 10
1.215731694683086
 20
733.0233892033775
 30
0.0
 11
85.98312391737762
 21
307.8092174310896
 31
0.0
  0
ARC
  5
2A2
330
293
100
AcDbEntity
  8
Visible (ANSI)
100
AcDbCircle
 10
147.7673910692509
 20
320.1260486999708
 30
0.0
 40
47.99999999999989
100
AcDbArc
 50
191.2742408769505
 51
265.2742408769475
  0
ARC
  5
2A3
330
293
100
AcDbEntity
  8
Visible (ANSI)
100
AcDbCircle
 10
147.7673910692506
 20
320.1260486999672
 30
0.0
 40
62.99999999999972
100
AcDbArc
 50
191.2742408769505
 51
265.2742408769475
  0
LINE
  5
2A4
330
293
100
AcDbEntity
  8
Visible (ANSI)
100
AcDbLine
 10
1496.045443482955
 20
160.5033989654303
 30
0.0
 11
143.8128357056499
 21
272.2892271931423
 31
0.0
  0
LINE
  5
2A5
330
293
100
AcDbEntity
  8
Visible (ANSI)
100
AcDbLine
 10
142.5770371545245
 20
257.3402204722533
 30
0.0
 11
1494.80964493183
 21
145.5543922445413
 31
0.0
  0
ARC
  5
2A6
330
293
100
AcDbEntity
  8
Visible (ANSI)
100
AcDbCircle
 10
1499.999998846557
 20
208.340220472267
 30
0.0
 40
48.00000000000864
100
AcDbArc
 50
265.2742408769475
 51
274.725759123046
  0
ARC
  5
2A7
330
293
100
AcDbEntity
  8
Visible (ANSI)
100
AcDbCircle
 10
1499.999998846557
 20
208.3402204722561
 30
0.0
 40
63.0000000000026
100
AcDbArc
 50
265.2742408769475
 51
274.7257591230525
  0
LINE
  5
2A8
330
293
100
AcDbEntity
  8
Visible (ANSI)
100
AcDbLine
 10
2856.187161987465
 20
272.2892271931423
 30
0.0
 11
1503.954554210158
 21
160.5033989654294
 31
0.0
  0
LINE
  5
2A9
330
293
100
AcDbEntity
  8
Visible (ANSI)
100
AcDbLine
 10
1505.190352761283
 20
145.5543922445413
 30
0.0
 11
2857.42296053859
 21
257.3402204722533
 31
0.0
  0
ARC
  5
2AA
330
293
100
AcDbEntity
  8
Visible (ANSI)
100
AcDbCircle
 10
2852.232606623863
 20
320.1260486999708
 30
0.0
 40
48.00000000000004
100
AcDbArc
 50
274.7257591230525
 51
348.7257591230494
  0
ARC
  5
2AB
330
293
100
AcDbEntity
  8
Visible (ANSI)
100
AcDbCircle
 10
2852.232606623863
 20
320.1260486999672
 30
0.0
 40
63.00000000000012
100
AcDbArc
 50
274.7257591230525
 51
348.7257591230482
  0
LINE
  5
2AC
330
293
100
AcDbEntity
  8
Visible (ANSI)
100
AcDbLine
 10
2984.073726200366
 20
735.9559680769234
 30
0.0
 11
2899.306333977671
 21
310.7417963046364
 31
0.0
  0
LINE
  5
2AD
330
293
100
AcDbEntity
  8
Visible (ANSI)
100
AcDbLine
 10
2914.016873775736
 20
307.8092174310896
 30
0.0
 11
2998.784265998431
 21
733.0233892033775
 31
0.0
  0
ARC
  5
2AE
330
293
100
AcDbEntity
  8
Visible (ANSI)
100
AcDbCircle
 10
2936.999998846563
 20
745.3402204722578
 30
0.0
 40
47.99999999999388
100
AcDbArc
 50
348.7257591230482
 51
11.27424087695181
  0
ARC
  5
2AF
330
293
100
AcDbEntity
  8
Visible (ANSI)
100
AcDbCircle
 10
2936.999998846563
 20
745.3402204722542
 30
0.0
 40
62.99999999999387
100
AcDbArc
 50
348.7257591230482
 51
11.27424087695181
  0
LINE
  5
2B0
330
293
100
AcDbEntity
  8
Visible (ANSI)
100
AcDbLine
 10
2899.306333977671
 20
1179.938644639879
 30
0.0
 11
2984.073726200365
 21
754.7244728675932
 31
0.0
  0
LINE
  5
2B1
330
293
100
AcDbEntity
  8
Visible (ANSI)
100
AcDbLine
 10
2998.784265998431
 20
757.6570517411319
 30
0.0
 11
2914.016873775736
 21
1182.871223513417
 31
0.0
  0
ARC
  5
2B2
330
293
100
AcDbEntity
  8
Visible (ANSI)
100
AcDbCircle
 10
2852.232606623863
 20
1170.554392244545
 30
0.0
 40
48.00000000000006
100
AcDbArc
 50
11.27424087695054
 51
85.2742408769475
  0
ARC
  5
2B3
330
293
100
AcDbEntity
  8
Visible (ANSI)
100
AcDbCircle
 10
2852.232606623863
 20
1170.55439224454
 30
0.0
 40
63.00000000000004
100
AcDbArc
 50
11.27424087695054
 51
85.2742408769475
  0
DIMENSION
  5
2B4
330
293
100
AcDbEntity
  8
Dimension (ANSI)
100
AcDbDimension
280
     0
  2
*D3
 10
1409.08991251797
 20
1162.542703170016
 30
0.0
 11
1499.999998846558
 21
1139.518023881161
 31
0.0
 12
-590.5799359544871
 22
-3945.673569320403
 32
0.0
 70
   133
  1
<>
 42
2.976632540883036
 73
     0
 74
     0
 75
     0
  3
Default - mm (ANSI)
100
AcDb3PointAngularDimension
 13
143.8128357056497
 23
1218.391213751374
 33
0.0
 14
1531.895199586235
 24
1327.867255802791
 34
0.0
 15
1499.999998846557
 25
1330.503955591472
 35
0.0
1001
ACAD_DSTYLE_DIMANGULAR_EXTENSION
1070
   387
1070
     1
1001
ACAD
1000
DSTYLE
1002
{
1070
   179
1070
     0
1070
    76
1070
     1
1070
    75
1070
     1
1070
    73
1070
     1
1070
   147
1040
0.8
1070
    72
1070
     0
1070
    71
1070
     0
1070
   272
1070
     0
1070
    48
1040
0.0
1070
    47
1040
0.0
1002
}
  0
DIMENSION
  5
2B5
330
293
100
AcDbEntity
  8
Dimension (ANSI)
100
AcDbDimension
280
     0
  2
*D4
 10
2852.232606623863
 20
1170.554392244541
 30
0.0
 11
3185.082199933407
 21
1363.449037301165
 31
0.0
 12
-590.5799359544871
 22
-3945.673569320403
 32
0.0
 70
   132
  1
<>
 42
63.0
 73
     0
 74
     0
 75
     0
  3
Default - mm (ANSI)
100
AcDbRadialDimension
 15
2895.058107883857
 25
1216.760197527323
 35
0.0
 40
0.0
1001
ACAD
1000
DSTYLE
1002
{
1070
   144
1040
0.9999999999999856
1070
    73
1070
     1
1070
   271
1070
     1
1070
   141
1040
0.0
1070
   147
1040
0.8
1070
    72
1070
     0
1070
    71
1070
     0
1070
   272
1070
     2
1070
    48
1040
0.0
1070
    47
1040
0.0
1002
}
1001
ACAD_DSTYLE_DIMRADIAL_EXTENSION
1070
   387
1070
     1
1070
   388
1040
0.0
1070
   390
1040
0.0
  0
DIMENSION
  5
2B6
330
293
100
AcDbEntity
  8
Dimension (ANSI)
100
AcDbDimension
280
     0
  2
*D5
 10
2936.999998846553
 20
745.3402204722515
 30
0.0
 11
3109.251193413913
 21
790.3064899700448
 31
0.0
 12
-590.5799359544871
 22
-3945.673569320403
 32
0.0
 70
   132
  1
<>
 42
62.99999999999999
 73
     0
 74
     0
 75
     0
  3
Default - mm (ANSI)
100
AcDbRadialDimension
 15
2997.957191475492
 25
761.253129282355
 35
0.0
 40
0.0
1001
ACAD
1000
DSTYLE
1002
{
1070
   144
1040
0.999999999999971
1070
    73
1070
     1
1070
   271
1070
     1
1070
   141
1040
0.0
1070
   147
1040
0.8
1070
    72
1070
     0
1070
    71
1070
     0
1070
   272
1070
     2
1070
    48
1040
0.0
1070
    47
1040
0.0
1002
}
1001
ACAD_DSTYLE_DIMRADIAL_EXTENSION
1070
   387
1070
     1
1070
   388
1040
6.086412683213866
1070
   390
1040
6.479957931145308
  0
DIMENSION
  5
2B7
330
293
100
AcDbEntity
  8
Dimension (ANSI)
100
AcDbDimension
280
     0
  2
*D6
 10
1499.999998846557
 20
208.3402204722542
 30
0.0
 11
1705.825171612893
 21
53.77613886057179
 31
0.0
 12
-590.5799359544871
 22
-3945.673569320403
 32
0.0
 70
   132
  1
<>
 42
62.99999999999999
 73
     0
 74
     0
 75
     0
  3
Default - mm (ANSI)
100
AcDbRadialDimension
 15
1520.004826651467
 25
148.6007288063897
 35
0.0
 40
0.0
1001
ACAD
1000
DSTYLE
1002
{
1070
   144
1040
0.9999999999999998
1070
    73
1070
     1
1070
   271
1070
     1
1070
   141
1040
0.0
1070
   147
1040
0.8
1070
    72
1070
     0
1070
    71
1070
     0
1070
   272
1070
     2
1070
    48
1040
0.0
1070
    47
1040
0.0
1002
}
1001
ACAD_DSTYLE_DIMRADIAL_EXTENSION
1070
   387
1070
     1
1070
   388
1040
4.629908924031315
1070
   390
1040
4.794869036738059
  0
INSERT
  5
2B8
330
293
100
AcDbEntity
  8
0
100
AcDbBlockReference
  2
Grain Direction Horizontal
 10
1486.774445105534
 20
735.6454414727031
 30
0.0
 41
20.0
 42
20.0
 43
20.0
  0
ENDBLK
  5
2BA
330
293
100
AcDbEntity
  8
0
100
AcDbBlockEnd
  0
BLOCK
  5
2E6
330
2E5
100
AcDbEntity
  8
0
100
AcDbBlockBegin
  2
2dDetail0
 70
     0
 10
0.0
 20
0.0
 30
0.0
  3
2dDetail0
  1

  0
MTEXT
  5
2E7
330
2E5
100
AcDbEntity
  8
Detail Boundary (ANSI)
100
AcDbMText
 10
177.5204227111754
 20
178.2271329157322
 30
0.0
 40
3.050000071525573
 41
0.0
 46
0.0
 71
     7
 72
     1
  1
A
  7
Label Text (ANSI)
 73
     1
 44
1.0
  0
LINE
  5
2E8
330
2E5
100
AcDbEntity
  8
Detail Boundary (ANSI)
  6
Continuous
100
AcDbLine
 10
181.9905628934044
 20
177.2982915129654
 30
0.0
 11
180.6425578653416
 21
182.1131520970652
 31
0.0
  0
POLYLINE
  5
2E9
330
2E5
100
AcDbEntity
  8
Detail Boundary (ANSI)
  6
Continuous
100
AcDb2dPolyline
 66
     1
 10
0.0
 20
0.0
 30
0.0
 70
   128
  0
VERTEX
  5
2EA
330
2E9
100
AcDbEntity
  8
Detail Boundary (ANSI)
  6
Continuous
100
AcDbVertex
100
AcDb2dVertex
 10
182.9535293579101
 20
177.5679016113281
 30
0.0
  0
VERTEX
  5
2EB
330
2E9
100
AcDbEntity
  8
Detail Boundary (ANSI)
  6
Continuous
100
AcDbVertex
100
AcDb2dVertex
 10
180.6425666809082
 20
182.113151550293
 30
0.0
  0
VERTEX
  5
2EC
330
2E9
100
AcDbEntity
  8
Detail Boundary (ANSI)
  6
Continuous
100
AcDbVertex
100
AcDb2dVertex
 10
181.0275840759277
 20
177.028694152832
 30
0.0
  0
VERTEX
  5
2ED
330
2E9
100
AcDbEntity
  8
Detail Boundary (ANSI)
  6
Continuous
100
AcDbVertex
100
AcDb2dVertex
 10
182.9535293579101
 20
177.5679016113281
 30
0.0
  0
SEQEND
  5
2EE
330
2E9
100
AcDbEntity
  8
Detail Boundary (ANSI)
  6
Continuous
  0
SOLID
  5
2EF
330
2E5
100
AcDbEntity
  8
Detail Boundary (ANSI)
100
AcDbTrace
 10
182.9535293579101
 20
177.5679016113281
 30
0.0
 11
180.6425666809082
 21
182.113151550293
 31
0.0
 12
181.0275840759277
 22
177.028694152832
 32
0.0
 13
182.9535293579101
 23
177.5679016113281
 33
0.0
  0
LINE
  5
2F0
330
2E5
100
AcDbEntity
  8
Detail Boundary (ANSI)
  6
Continuous
100
AcDbLine
 10
182.9535350102244
 20
177.567892518578
 30
0.0
 11
180.6425578653416
 21
182.1131520970652
 31
0.0
  0
LINE
  5
2F1
330
2E5
100
AcDbEntity
  8
Detail Boundary (ANSI)
  6
Continuous
100
AcDbLine
 10
180.6425578653416
 20
182.1131520970652
 30
0.0
 11
181.0275907765845
 21
177.0286905073529
 31
0.0
  0
LINE
  5
2F2
330
2E5
100
AcDbEntity
  8
Detail Boundary (ANSI)
  6
Continuous
100
AcDbLine
 10
181.0275907765845
 20
177.0286905073529
 30
0.0
 11
182.9535350102244
 21
177.567892518578
 31
0.0
  0
LINE
  5
2F3
330
2E5
100
AcDbEntity
  8
Detail Boundary (ANSI)
  6
Continuous
100
AcDbLine
 10
175.5228160478204
 20
177.2982915129654
 30
0.0
 11
176.8708210758833
 21
182.1131520970652
 31
0.0
  0
POLYLINE
  5
2F4
330
2E5
100
AcDbEntity
  8
Detail Boundary (ANSI)
  6
Continuous
100
AcDb2dPolyline
 66
     1
 10
0.0
 20
0.0
 30
0.0
 70
   128
  0
VERTEX
  5
2F5
330
2F4
100
AcDbEntity
  8
Detail Boundary (ANSI)
  6
Continuous
100
AcDbVertex
100
AcDb2dVertex
 10
176.4857864379883
 20
177.028694152832
 30
0.0
  0
VERTEX
  5
2F6
330
2F4
100
AcDbEntity
  8
Detail Boundary (ANSI)
  6
Continuous
100
AcDbVertex
100
AcDb2dVertex
 10
176.8708229064941
 20
182.113151550293
 30
0.0
  0
VERTEX
  5
2F7
330
2F4
100
AcDbEntity
  8
Detail Boundary (ANSI)
  6
Continuous
100
AcDbVertex
100
AcDb2dVertex
 10
174.5598411560058
 20
177.5679016113281
 30
0.0
  0
VERTEX
  5
2F8
330
2F4
100
AcDbEntity
  8
Detail Boundary (ANSI)
  6
Continuous
100
AcDbVertex
100
AcDb2dVertex
 10
176.4857864379883
 20
177.028694152832
 30
0.0
  0
SEQEND
  5
2F9
330
2F4
100
AcDbEntity
  8
Detail Boundary (ANSI)
  6
Continuous
  0
SOLID
  5
2FA
330
2E5
100
AcDbEntity
  8
Detail Boundary (ANSI)
100
AcDbTrace
 10
176.4857864379883
 20
177.028694152832
 30
0.0
 11
176.8708229064941
 21
182.113151550293
 31
0.0
 12
174.5598411560058
 22
177.5679016113281
 32
0.0
 13
176.4857864379883
 23
177.028694152832
 33
0.0
  0
LINE
  5
2FB
330
2E5
100
AcDbEntity
  8
Detail Boundary (ANSI)
  6
Continuous
100
AcDbLine
 10
176.4857881646404
 20
177.0286905073529
 30
0.0
 11
176.8708210758833
 21
182.1131520970652
 31
0.0
  0
LINE
  5
2FC
330
2E5
100
AcDbEntity
  8
Detail Boundary (ANSI)
  6
Continuous
100
AcDbLine
 10
176.8708210758833
 20
182.1131520970652
 30
0.0
 11
174.5598439310004
 21
177.567892518578
 31
0.0
  0
LINE
  5
2FD
330
2E5
100
AcDbEntity
  8
Detail Boundary (ANSI)
  6
Continuous
100
AcDbLine
 10
174.5598439310004
 20
177.567892518578
 30
0.0
 11
176.4857881646404
 21
177.0286905073529
 31
0.0
  0
ARC
  5
2FE
330
2E5
100
AcDbEntity
  8
Detail Boundary (ANSI)
 48
3.930752515792846
100
AcDbCircle
 10
178.7566894706124
 20
176.3929116877555
 30
0.0
 40
3.358221246811774
100
AcDbArc
 50
164.3594742526388
 51
15.64052574736139
  0
ENDBLK
  5
2FF
330
2E5
100
AcDbEntity
  8
0
100
AcDbBlockEnd
  0
BLOCK
  5
136C
330
11E9
100
AcDbEntity
  8
0
100
AcDbBlockBegin
  2
A$C5493012A
 70
     0
 10
0.0
 20
0.0
 30
0.0
  3
A$C5493012A
  1

  0
LINE
  5
11EA
330
11E9
100
AcDbEntity
  8
Visible (ANSI)
100
AcDbLine
 10
15.0000116789613
 20
724.0000045504616
 30
0.0
 11
15.72923953437521
 21
724.0000045504616
 31
0.0
  0
LINE
  5
11EB
330
11E9
100
AcDbEntity
  8
Visible (ANSI)
100
AcDbLine
 10
0.9571232391920148
 20
709.0000045504616
 30
0.0
 11
0.0000116789613003
 21
709.0000045504616
 31
0.0
  0
LINE
  5
11EC
330
11E9
100
AcDbEntity
  8
Visible (ANSI)
100
AcDbLine
 10
84.58477171686013
 20
724.0000045504616
 30
0.0
 11
15.72923953437521
 21
724.0000045504616
 31
0.0
  0
LINE
  5
11ED
330
11E9
100
AcDbEntity
  8
Visible (ANSI)
100
AcDbLine
 10
0.9571232391920148
 20
709.0000045504616
 30
0.0
 11
69.81265542167716
 21
709.0000045504616
 31
0.0
  0
LINE
  5
11EE
330
11E9
100
AcDbEntity
  8
Visible (ANSI)
100
AcDbLine
 10
84.58477171686059
 20
724.0000045504616
 30
0.0
 11
126.838177624599
 21
724.0000045504616
 31
0.0
  0
LINE
  5
11EF
330
11E9
100
AcDbEntity
  8
Visible (ANSI)
100
AcDbLine
 10
125.2702506755843
 20
709.0000045504616
 30
0.0
 11
69.81265542167716
 21
709.0000045504616
 31
0.0
  0
LINE
  5
11F0
330
11E9
100
AcDbEntity
  8
Visible (ANSI)
100
AcDbLine
 10
1044.982645442114
 20
724.0000045504616
 30
0.0
 11
126.8381776245987
 21
724.0000045504616
 31
0.0
  0
LINE
  5
11F1
330
11E9
100
AcDbEntity
  8
Visible (ANSI)
100
AcDbLine
 10
125.270250675584
 20
709.0000045504616
 30
0.0
 11
1043.414718493099
 21
709.0000045504616
 31
0.0
  0
LINE
  5
11F2
330
11E9
100
AcDbEntity
  8
Visible (ANSI)
100
AcDbLine
 10
1044.982645442114
 20
724.0000045504616
 30
0.0
 11
1055.017377915808
 21
724.0000045504616
 31
0.0
  0
LINE
  5
11F3
330
11E9
100
AcDbEntity
  8
Visible (ANSI)
100
AcDbLine
 10
1056.585304864823
 20
709.0000045504616
 30
0.0
 11
1043.414718493099
 21
709.0000045504616
 31
0.0
  0
LINE
  5
11F4
330
11E9
100
AcDbEntity
  8
Visible (ANSI)
100
AcDbLine
 10
1973.161845733324
 20
724.0000045504616
 30
0.0
 11
1055.017377915808
 21
724.0000045504616
 31
0.0
  0
LINE
  5
11F5
330
11E9
100
AcDbEntity
  8
Visible (ANSI)
100
AcDbLine
 10
1056.585304864823
 20
709.0000045504616
 30
0.0
 11
1974.729772682339
 21
709.0000045504616
 31
0.0
  0
LINE
  5
11F6
330
11E9
100
AcDbEntity
  8
Visible (ANSI)
100
AcDbLine
 10
1973.161845733324
 20
724.0000045504616
 30
0.0
 11
2015.415251641063
 21
724.0000045504616
 31
0.0
  0
LINE
  5
11F7
330
11E9
100
AcDbEntity
  8
Visible (ANSI)
100
AcDbLine
 10
2030.187367936246
 20
709.0000045504616
 30
0.0
 11
1974.729772682339
 21
709.0000045504616
 31
0.0
  0
LINE
  5
11F8
330
11E9
100
AcDbEntity
  8
Visible (ANSI)
100
AcDbLine
 10
2084.270783823547
 20
724.0000045504616
 30
0.0
 11
2015.415251641063
 21
724.0000045504616
 31
0.0
  0
LINE
  5
11F9
330
11E9
100
AcDbEntity
  8
Visible (ANSI)
100
AcDbLine
 10
2030.187367936246
 20
709.0000045504616
 30
0.0
 11
2099.042900118731
 21
709.0000045504616
 31
0.0
  0
LINE
  5
11FA
330
11E9
100
AcDbEntity
  8
Visible (ANSI)
100
AcDbLine
 10
2084.270783823548
 20
724.0000045504616
 30
0.0
 11
2085.000011678962
 21
724.0000045504616
 31
0.0
  0
LINE
  5
11FB
330
11E9
100
AcDbEntity
  8
Visible (ANSI)
100
AcDbLine
 10
2100.000011678961
 20
709.0000045504616
 30
0.0
 11
2099.04290011873
 21
709.0000045504616
 31
0.0
  0
LINE
  5
11FC
330
11E9
100
AcDbEntity
  8
Visible (ANSI)
100
AcDbLine
 10
15.0000116789613
 20
724.0000045504616
 30
0.0
 11
0.0000116789613003
 21
709.0000045504616
 31
0.0
  0
LINE
  5
11FD
330
11E9
100
AcDbEntity
  8
Visible (ANSI)
100
AcDbLine
 10
2085.000011678962
 20
724.0000045504616
 30
0.0
 11
2100.000011678961
 21
709.0000045504616
 31
0.0
  0
LINE
  5
11FE
330
11E9
100
AcDbEntity
  8
Visible (ANSI)
100
AcDbLine
 10
69.81265542167739
 20
694.000004550462
 30
0.0
 11
125.270250675584
 21
694.000004550462
 31
0.0
  0
LINE
  5
11FF
330
11E9
100
AcDbEntity
  8
Visible (ANSI)
100
AcDbLine
 10
69.81265542167716
 20
694.000004550462
 30
0.0
 11
0.9571232391920148
 21
694.000004550462
 31
0.0
  0
LINE
  5
1200
330
11E9
100
AcDbEntity
  8
Visible (ANSI)
100
AcDbLine
 10
0.0000116789613003
 20
694.000004550462
 30
0.0
 11
0.9571232391922421
 21
694.000004550462
 31
0.0
  0
LINE
  5
1201
330
11E9
100
AcDbEntity
  8
Visible (ANSI)
100
AcDbLine
 10
1043.414718493099
 20
694.000004550462
 30
0.0
 11
1056.585304864823
 21
694.000004550462
 31
0.0
  0
LINE
  5
1202
330
11E9
100
AcDbEntity
  8
Visible (ANSI)
100
AcDbLine
 10
1043.414718493099
 20
694.000004550462
 30
0.0
 11
125.270250675584
 21
694.000004550462
 31
0.0
  0
LINE
  5
1203
330
11E9
100
AcDbEntity
  8
Visible (ANSI)
100
AcDbLine
 10
2099.042900118731
 20
694.000004550462
 30
0.0
 11
2100.000011678961
 21
694.000004550462
 31
0.0
  0
LINE
  5
1204
330
11E9
100
AcDbEntity
  8
Visible (ANSI)
100
AcDbLine
 10
2099.042900118731
 20
694.000004550462
 30
0.0
 11
2030.187367936246
 21
694.000004550462
 31
0.0
  0
LINE
  5
1205
330
11E9
100
AcDbEntity
  8
Visible (ANSI)
100
AcDbLine
 10
1974.729772682339
 20
694.000004550462
 30
0.0
 11
2030.187367936246
 21
694.000004550462
 31
0.0
  0
LINE
  5
1206
330
11E9
100
AcDbEntity
  8
Visible (ANSI)
100
AcDbLine
 10
1974.729772682339
 20
694.000004550462
 30
0.0
 11
1056.585304864823
 21
694.000004550462
 31
0.0
  0
LINE
  5
1207
330
11E9
100
AcDbEntity
  8
Visible (ANSI)
100
AcDbLine
 10
0.0000116789613003
 20
694.000004550462
 30
0.0
 11
0.0000116789613003
 21
709.0000045504616
 31
0.0
  0
LINE
  5
1208
330
11E9
100
AcDbEntity
  8
Visible (ANSI)
100
AcDbLine
 10
2100.000011678961
 20
694.000004550462
 30
0.0
 11
2100.000011678961
 21
709.0000045504616
 31
0.0
  0
LINE
  5
1209
330
11E9
100
AcDbEntity
  8
Visible (ANSI)
100
AcDbLine
 10
284.5000116789624
 20
630.0000045504621
 30
0.0
 11
1815.500011678961
 21
630.0000045504621
 31
0.0
  0
LINE
  5
120A
330
11E9
100
AcDbEntity
  8
Visible (ANSI)
100
AcDbLine
 10
284.5000116789624
 20
42.0000045504621
 30
0.0
 11
158.5000116789626
 21
42.0000045504621
 31
0.0
  0
LINE
  5
120B
330
11E9
100
AcDbEntity
  8
Visible (ANSI)
100
AcDbLine
 10
158.5000116789624
 20
0.0000045504621085
 30
0.0
 11
284.5000116789627
 21
0.0000045504621085
 31
0.0
  0
LINE
  5
120C
330
11E9
100
AcDbEntity
  8
Visible (ANSI)
100
AcDbLine
 10
158.5000116789626
 20
0.0000045504621085
 30
0.0
 11
158.5000116789626
 21
42.00000455046256
 31
0.0
  0
LINE
  5
120D
330
11E9
100
AcDbEntity
  8
Visible (ANSI)
100
AcDbLine
 10
284.5000116789624
 20
0.0000045504621085
 30
0.0
 11
284.5000116789624
 21
42.00000455046256
 31
0.0
  0
LINE
  5
120E
330
11E9
100
AcDbEntity
  8
Visible (ANSI)
100
AcDbLine
 10
284.5000116789624
 20
84.0000045504621
 30
0.0
 11
158.5000116789626
 21
84.0000045504621
 31
0.0
  0
LINE
  5
120F
330
11E9
100
AcDbEntity
  8
Visible (ANSI)
100
AcDbLine
 10
158.5000116789624
 20
42.00000455046256
 30
0.0
 11
284.5000116789627
 21
42.00000455046256
 31
0.0
  0
LINE
  5
1210
330
11E9
100
AcDbEntity
  8
Visible (ANSI)
100
AcDbLine
 10
158.5000116789626
 20
42.00000455046256
 30
0.0
 11
158.5000116789626
 21
84.00000455046257
 31
0.0
  0
LINE
  5
1211
330
11E9
100
AcDbEntity
  8
Visible (ANSI)
100
AcDbLine
 10
284.5000116789624
 20
42.00000455046256
 30
0.0
 11
284.5000116789624
 21
84.00000455046257
 31
0.0
  0
LINE
  5
1212
330
11E9
100
AcDbEntity
  8
Visible (ANSI)
100
AcDbLine
 10
284.5000116789624
 20
126.0000045504621
 30
0.0
 11
158.5000116789626
 21
126.0000045504621
 31
0.0
  0
LINE
  5
1213
330
11E9
100
AcDbEntity
  8
Visible (ANSI)
100
AcDbLine
 10
158.5000116789624
 20
84.0000045504621
 30
0.0
 11
284.5000116789627
 21
84.0000045504621
 31
0.0
  0
LINE
  5
1214
330
11E9
100
AcDbEntity
  8
Visible (ANSI)
100
AcDbLine
 10
158.5000116789626
 20
84.0000045504621
 30
0.0
 11
158.5000116789626
 21
126.0000045504625
 31
0.0
  0
LINE
  5
1215
330
11E9
100
AcDbEntity
  8
Visible (ANSI)
100
AcDbLine
 10
284.5000116789624
 20
84.0000045504621
 30
0.0
 11
284.5000116789624
 21
126.0000045504625
 31
0.0
  0
LINE
  5
1216
330
11E9
100
AcDbEntity
  8
Visible (ANSI)
100
AcDbLine
 10
284.5000116789624
 20
168.0000045504621
 30
0.0
 11
158.5000116789626
 21
168.0000045504621
 31
0.0
  0
LINE
  5
1217
330
11E9
100
AcDbEntity
  8
Visible (ANSI)
100
AcDbLine
 10
158.5000116789624
 20
126.0000045504625
 30
0.0
 11
284.5000116789627
 21
126.0000045504625
 31
0.0
  0
LINE
  5
1218
330
11E9
100
AcDbEntity
  8
Visible (ANSI)
100
AcDbLine
 10
158.5000116789626
 20
126.0000045504625
 30
0.0
 11
158.5000116789626
 21
168.0000045504625
 31
0.0
  0
LINE
  5
1219
330
11E9
100
AcDbEntity
  8
Visible (ANSI)
100
AcDbLine
 10
284.5000116789624
 20
126.0000045504625
 30
0.0
 11
284.5000116789624
 21
168.0000045504625
 31
0.0
  0
LINE
  5
121A
330
11E9
100
AcDbEntity
  8
Visible (ANSI)
100
AcDbLine
 10
284.5000116789624
 20
210.0000045504621
 30
0.0
 11
158.5000116789626
 21
210.0000045504621
 31
0.0
  0
LINE
  5
121B
330
11E9
100
AcDbEntity
  8
Visible (ANSI)
100
AcDbLine
 10
158.5000116789624
 20
168.0000045504621
 30
0.0
 11
284.5000116789627
 21
168.0000045504621
 31
0.0
  0
LINE
  5
121C
330
11E9
100
AcDbEntity
  8
Visible (ANSI)
100
AcDbLine
 10
158.5000116789626
 20
168.0000045504621
 30
0.0
 11
158.5000116789626
 21
210.0000045504625
 31
0.0
  0
LINE
  5
121D
330
11E9
100
AcDbEntity
  8
Visible (ANSI)
100
AcDbLine
 10
284.5000116789624
 20
168.0000045504621
 30
0.0
 11
284.5000116789624
 21
210.0000045504625
 31
0.0
  0
LINE
  5
121E
330
11E9
100
AcDbEntity
  8
Visible (ANSI)
100
AcDbLine
 10
284.5000116789624
 20
252.0000045504621
 30
0.0
 11
158.5000116789626
 21
252.0000045504621
 31
0.0
  0
LINE
  5
121F
330
11E9
100
AcDbEntity
  8
Visible (ANSI)
100
AcDbLine
 10
158.5000116789624
 20
210.0000045504625
 30
0.0
 11
284.5000116789627
 21
210.0000045504625
 31
0.0
  0
LINE
  5
1220
330
11E9
100
AcDbEntity
  8
Visible (ANSI)
100
AcDbLine
 10
158.5000116789626
 20
210.0000045504625
 30
0.0
 11
158.5000116789626
 21
252.0000045504626
 31
0.0
  0
LINE
  5
1221
330
11E9
100
AcDbEntity
  8
Visible (ANSI)
100
AcDbLine
 10
284.5000116789624
 20
210.0000045504625
 30
0.0
 11
284.5000116789624
 21
252.0000045504626
 31
0.0
  0
LINE
  5
1222
330
11E9
100
AcDbEntity
  8
Visible (ANSI)
100
AcDbLine
 10
284.5000116789624
 20
294.0000045504621
 30
0.0
 11
158.5000116789626
 21
294.0000045504621
 31
0.0
  0
LINE
  5
1223
330
11E9
100
AcDbEntity
  8
Visible (ANSI)
100
AcDbLine
 10
158.5000116789624
 20
252.0000045504621
 30
0.0
 11
284.5000116789627
 21
252.0000045504621
 31
0.0
  0
LINE
  5
1224
330
11E9
100
AcDbEntity
  8
Visible (ANSI)
100
AcDbLine
 10
158.5000116789626
 20
252.0000045504621
 30
0.0
 11
158.5000116789626
 21
294.0000045504626
 31
0.0
  0
LINE
  5
1225
330
11E9
100
AcDbEntity
  8
Visible (ANSI)
100
AcDbLine
 10
284.5000116789624
 20
252.0000045504621
 30
0.0
 11
284.5000116789624
 21
294.0000045504626
 31
0.0
  0
LINE
  5
1226
330
11E9
100
AcDbEntity
  8
Visible (ANSI)
100
AcDbLine
 10
284.5000116789624
 20
336.0000045504621
 30
0.0
 11
158.5000116789626
 21
336.0000045504621
 31
0.0
  0
LINE
  5
1227
330
11E9
100
AcDbEntity
  8
Visible (ANSI)
100
AcDbLine
 10
158.5000116789624
 20
294.0000045504626
 30
0.0
 11
284.5000116789627
 21
294.0000045504626
 31
0.0
  0
LINE
  5
1228
330
11E9
100
AcDbEntity
  8
Visible (ANSI)
100
AcDbLine
 10
158.5000116789626
 20
294.0000045504626
 30
0.0
 11
158.5000116789626
 21
336.0000045504626
 31
0.0
  0
LINE
  5
1229
330
11E9
100
AcDbEntity
  8
Visible (ANSI)
100
AcDbLine
 10
284.5000116789624
 20
294.0000045504626
 30
0.0
 11
284.5000116789624
 21
336.0000045504626
 31
0.0
  0
LINE
  5
122A
330
11E9
100
AcDbEntity
  8
Visible (ANSI)
100
AcDbLine
 10
284.5000116789624
 20
378.0000045504621
 30
0.0
 11
158.5000116789626
 21
378.0000045504621
 31
0.0
  0
LINE
  5
122B
330
11E9
100
AcDbEntity
  8
Visible (ANSI)
100
AcDbLine
 10
158.5000116789624
 20
336.0000045504621
 30
0.0
 11
284.5000116789627
 21
336.0000045504621
 31
0.0
  0
LINE
  5
122C
330
11E9
100
AcDbEntity
  8
Visible (ANSI)
100
AcDbLine
 10
158.5000116789626
 20
336.0000045504621
 30
0.0
 11
158.5000116789626
 21
378.0000045504621
 31
0.0
  0
LINE
  5
122D
330
11E9
100
AcDbEntity
  8
Visible (ANSI)
100
AcDbLine
 10
284.5000116789624
 20
336.0000045504621
 30
0.0
 11
284.5000116789624
 21
378.0000045504621
 31
0.0
  0
LINE
  5
122E
330
11E9
100
AcDbEntity
  8
Visible (ANSI)
100
AcDbLine
 10
284.5000116789624
 20
420.0000045504626
 30
0.0
 11
158.5000116789626
 21
420.0000045504626
 31
0.0
  0
LINE
  5
122F
330
11E9
100
AcDbEntity
  8
Visible (ANSI)
100
AcDbLine
 10
158.5000116789624
 20
378.0000045504621
 30
0.0
 11
284.5000116789627
 21
378.0000045504621
 31
0.0
  0
LINE
  5
1230
330
11E9
100
AcDbEntity
  8
Visible (ANSI)
100
AcDbLine
 10
158.5000116789626
 20
378.0000045504621
 30
0.0
 11
158.5000116789626
 21
420.0000045504626
 31
0.0
  0
LINE
  5
1231
330
11E9
100
AcDbEntity
  8
Visible (ANSI)
100
AcDbLine
 10
284.5000116789624
 20
378.0000045504621
 30
0.0
 11
284.5000116789624
 21
420.0000045504626
 31
0.0
  0
LINE
  5
1232
330
11E9
100
AcDbEntity
  8
Visible (ANSI)
100
AcDbLine
 10
284.5000116789624
 20
462.0000045504625
 30
0.0
 11
158.5000116789626
 21
462.0000045504625
 31
0.0
  0
LINE
  5
1233
330
11E9
100
AcDbEntity
  8
Visible (ANSI)
100
AcDbLine
 10
158.5000116789624
 20
420.0000045504626
 30
0.0
 11
284.5000116789627
 21
420.0000045504626
 31
0.0
  0
LINE
  5
1234
330
11E9
100
AcDbEntity
  8
Visible (ANSI)
100
AcDbLine
 10
158.5000116789626
 20
420.0000045504626
 30
0.0
 11
158.5000116789626
 21
462.0000045504625
 31
0.0
  0
LINE
  5
1235
330
11E9
100
AcDbEntity
  8
Visible (ANSI)
100
AcDbLine
 10
284.5000116789624
 20
420.0000045504626
 30
0.0
 11
284.5000116789624
 21
462.0000045504625
 31
0.0
  0
LINE
  5
1236
330
11E9
100
AcDbEntity
  8
Visible (ANSI)
100
AcDbLine
 10
284.5000116789624
 20
504.0000045504621
 30
0.0
 11
158.5000116789626
 21
504.0000045504621
 31
0.0
  0
LINE
  5
1237
330
11E9
100
AcDbEntity
  8
Visible (ANSI)
100
AcDbLine
 10
158.5000116789624
 20
462.0000045504621
 30
0.0
 11
284.5000116789627
 21
462.0000045504621
 31
0.0
  0
LINE
  5
1238
330
11E9
100
AcDbEntity
  8
Visible (ANSI)
100
AcDbLine
 10
158.5000116789626
 20
462.0000045504621
 30
0.0
 11
158.5000116789626
 21
504.0000045504621
 31
0.0
  0
LINE
  5
1239
330
11E9
100
AcDbEntity
  8
Visible (ANSI)
100
AcDbLine
 10
284.5000116789624
 20
462.0000045504621
 30
0.0
 11
284.5000116789624
 21
504.0000045504621
 31
0.0
  0
LINE
  5
123A
330
11E9
100
AcDbEntity
  8
Visible (ANSI)
100
AcDbLine
 10
284.5000116789624
 20
546.0000045504621
 30
0.0
 11
158.5000116789626
 21
546.0000045504621
 31
0.0
  0
LINE
  5
123B
330
11E9
100
AcDbEntity
  8
Visible (ANSI)
100
AcDbLine
 10
158.5000116789624
 20
504.0000045504621
 30
0.0
 11
284.5000116789627
 21
504.0000045504621
 31
0.0
  0
LINE
  5
123C
330
11E9
100
AcDbEntity
  8
Visible (ANSI)
100
AcDbLine
 10
158.5000116789626
 20
504.0000045504621
 30
0.0
 11
158.5000116789626
 21
546.0000045504621
 31
0.0
  0
LINE
  5
123D
330
11E9
100
AcDbEntity
  8
Visible (ANSI)
100
AcDbLine
 10
284.5000116789624
 20
504.0000045504621
 30
0.0
 11
284.5000116789624
 21
546.0000045504621
 31
0.0
  0
LINE
  5
123E
330
11E9
100
AcDbEntity
  8
Visible (ANSI)
100
AcDbLine
 10
284.5000116789624
 20
588.0000045504625
 30
0.0
 11
158.5000116789626
 21
588.0000045504625
 31
0.0
  0
LINE
  5
123F
330
11E9
100
AcDbEntity
  8
Visible (ANSI)
100
AcDbLine
 10
158.5000116789624
 20
546.0000045504621
 30
0.0
 11
284.5000116789627
 21
546.0000045504621
 31
0.0
  0
LINE
  5
1240
330
11E9
100
AcDbEntity
  8
Visible (ANSI)
100
AcDbLine
 10
158.5000116789626
 20
546.0000045504621
 30
0.0
 11
158.5000116789626
 21
588.0000045504625
 31
0.0
  0
LINE
  5
1241
330
11E9
100
AcDbEntity
  8
Visible (ANSI)
100
AcDbLine
 10
284.5000116789624
 20
546.0000045504621
 30
0.0
 11
284.5000116789624
 21
588.0000045504625
 31
0.0
  0
LINE
  5
1242
330
11E9
100
AcDbEntity
  8
Visible (ANSI)
100
AcDbLine
 10
284.5000116789624
 20
630.0000045504621
 30
0.0
 11
158.5000116789626
 21
630.0000045504621
 31
0.0
  0
LINE
  5
1243
330
11E9
100
AcDbEntity
  8
Visible (ANSI)
100
AcDbLine
 10
158.5000116789624
 20
588.0000045504616
 30
0.0
 11
284.5000116789627
 21
588.0000045504616
 31
0.0
  0
LINE
  5
1244
330
11E9
100
AcDbEntity
  8
Visible (ANSI)
100
AcDbLine
 10
158.5000116789626
 20
588.0000045504616
 30
0.0
 11
158.5000116789626
 21
630.0000045504621
 31
0.0
  0
LINE
  5
1245
330
11E9
100
AcDbEntity
  8
Visible (ANSI)
100
AcDbLine
 10
284.5000116789624
 20
588.0000045504616
 30
0.0
 11
284.5000116789624
 21
630.0000045504621
 31
0.0
  0
LINE
  5
1246
330
11E9
100
AcDbEntity
  8
Visible (ANSI)
100
AcDbLine
 10
1941.500011678961
 20
42.0000045504621
 30
0.0
 11
1815.500011678961
 21
42.0000045504621
 31
0.0
  0
LINE
  5
1247
330
11E9
100
AcDbEntity
  8
Visible (ANSI)
100
AcDbLine
 10
1815.500011678961
 20
0.0000045504621085
 30
0.0
 11
1941.500011678961
 21
0.0000045504621085
 31
0.0
  0
LINE
  5
1248
330
11E9
100
AcDbEntity
  8
Visible (ANSI)
100
AcDbLine
 10
1815.500011678961
 20
0.0000045504621085
 30
0.0
 11
1815.500011678961
 21
42.00000455046256
 31
0.0
  0
LINE
  5
1249
330
11E9
100
AcDbEntity
  8
Visible (ANSI)
100
AcDbLine
 10
1941.500011678961
 20
0.0000045504621085
 30
0.0
 11
1941.500011678961
 21
42.00000455046256
 31
0.0
  0
LINE
  5
124A
330
11E9
100
AcDbEntity
  8
Visible (ANSI)
100
AcDbLine
 10
1941.500011678961
 20
84.0000045504621
 30
0.0
 11
1815.500011678961
 21
84.0000045504621
 31
0.0
  0
LINE
  5
124B
330
11E9
100
AcDbEntity
  8
Visible (ANSI)
100
AcDbLine
 10
1815.500011678961
 20
42.00000455046256
 30
0.0
 11
1941.500011678961
 21
42.00000455046256
 31
0.0
  0
LINE
  5
124C
330
11E9
100
AcDbEntity
  8
Visible (ANSI)
100
AcDbLine
 10
1815.500011678961
 20
42.00000455046256
 30
0.0
 11
1815.500011678961
 21
84.00000455046257
 31
0.0
  0
LINE
  5
124D
330
11E9
100
AcDbEntity
  8
Visible (ANSI)
100
AcDbLine
 10
1941.500011678961
 20
42.00000455046256
 30
0.0
 11
1941.500011678961
 21
84.00000455046257
 31
0.0
  0
LINE
  5
124E
330
11E9
100
AcDbEntity
  8
Visible (ANSI)
100
AcDbLine
 10
1941.500011678961
 20
126.0000045504621
 30
0.0
 11
1815.500011678961
 21
126.0000045504621
 31
0.0
  0
LINE
  5
124F
330
11E9
100
AcDbEntity
  8
Visible (ANSI)
100
AcDbLine
 10
1815.500011678961
 20
84.0000045504621
 30
0.0
 11
1941.500011678961
 21
84.0000045504621
 31
0.0
  0
LINE
  5
1250
330
11E9
100
AcDbEntity
  8
Visible (ANSI)
100
AcDbLine
 10
1815.500011678961
 20
84.0000045504621
 30
0.0
 11
1815.500011678961
 21
126.0000045504625
 31
0.0
  0
LINE
  5
1251
330
11E9
100
AcDbEntity
  8
Visible (ANSI)
100
AcDbLine
 10
1941.500011678961
 20
84.0000045504621
 30
0.0
 11
1941.500011678961
 21
126.0000045504625
 31
0.0
  0
LINE
  5
1252
330
11E9
100
AcDbEntity
  8
Visible (ANSI)
100
AcDbLine
 10
1941.500011678961
 20
168.0000045504621
 30
0.0
 11
1815.500011678961
 21
168.0000045504621
 31
0.0
  0
LINE
  5
1253
330
11E9
100
AcDbEntity
  8
Visible (ANSI)
100
AcDbLine
 10
1815.500011678961
 20
126.0000045504625
 30
0.0
 11
1941.500011678961
 21
126.0000045504625
 31
0.0
  0
LINE
  5
1254
330
11E9
100
AcDbEntity
  8
Visible (ANSI)
100
AcDbLine
 10
1815.500011678961
 20
126.0000045504625
 30
0.0
 11
1815.500011678961
 21
168.0000045504625
 31
0.0
  0
LINE
  5
1255
330
11E9
100
AcDbEntity
  8
Visible (ANSI)
100
AcDbLine
 10
1941.500011678961
 20
126.0000045504625
 30
0.0
 11
1941.500011678961
 21
168.0000045504625
 31
0.0
  0
LINE
  5
1256
330
11E9
100
AcDbEntity
  8
Visible (ANSI)
100
AcDbLine
 10
1941.500011678961
 20
210.0000045504621
 30
0.0
 11
1815.500011678961
 21
210.0000045504621
 31
0.0
  0
LINE
  5
1257
330
11E9
100
AcDbEntity
  8
Visible (ANSI)
100
AcDbLine
 10
1815.500011678961
 20
168.0000045504621
 30
0.0
 11
1941.500011678961
 21
168.0000045504621
 31
0.0
  0
LINE
  5
1258
330
11E9
100
AcDbEntity
  8
Visible (ANSI)
100
AcDbLine
 10
1815.500011678961
 20
168.0000045504621
 30
0.0
 11
1815.500011678961
 21
210.0000045504625
 31
0.0
  0
LINE
  5
1259
330
11E9
100
AcDbEntity
  8
Visible (ANSI)
100
AcDbLine
 10
1941.500011678961
 20
168.0000045504621
 30
0.0
 11
1941.500011678961
 21
210.0000045504625
 31
0.0
  0
LINE
  5
125A
330
11E9
100
AcDbEntity
  8
Visible (ANSI)
100
AcDbLine
 10
1941.500011678961
 20
252.0000045504621
 30
0.0
 11
1815.500011678961
 21
252.0000045504621
 31
0.0
  0
LINE
  5
125B
330
11E9
100
AcDbEntity
  8
Visible (ANSI)
100
AcDbLine
 10
1815.500011678961
 20
210.0000045504625
 30
0.0
 11
1941.500011678961
 21
210.0000045504625
 31
0.0
  0
LINE
  5
125C
330
11E9
100
AcDbEntity
  8
Visible (ANSI)
100
AcDbLine
 10
1815.500011678961
 20
210.0000045504625
 30
0.0
 11
1815.500011678961
 21
252.0000045504626
 31
0.0
  0
LINE
  5
125D
330
11E9
100
AcDbEntity
  8
Visible (ANSI)
100
AcDbLine
 10
1941.500011678961
 20
210.0000045504625
 30
0.0
 11
1941.500011678961
 21
252.0000045504626
 31
0.0
  0
LINE
  5
125E
330
11E9
100
AcDbEntity
  8
Visible (ANSI)
100
AcDbLine
 10
1941.500011678961
 20
294.0000045504621
 30
0.0
 11
1815.500011678961
 21
294.0000045504621
 31
0.0
  0
LINE
  5
125F
330
11E9
100
AcDbEntity
  8
Visible (ANSI)
100
AcDbLine
 10
1815.500011678961
 20
252.0000045504621
 30
0.0
 11
1941.500011678961
 21
252.0000045504621
 31
0.0
  0
LINE
  5
1260
330
11E9
100
AcDbEntity
  8
Visible (ANSI)
100
AcDbLine
 10
1815.500011678961
 20
252.0000045504621
 30
0.0
 11
1815.500011678961
 21
294.0000045504626
 31
0.0
  0
LINE
  5
1261
330
11E9
100
AcDbEntity
  8
Visible (ANSI)
100
AcDbLine
 10
1941.500011678961
 20
252.0000045504621
 30
0.0
 11
1941.500011678961
 21
294.0000045504626
 31
0.0
  0
LINE
  5
1262
330
11E9
100
AcDbEntity
  8
Visible (ANSI)
100
AcDbLine
 10
1941.500011678961
 20
336.0000045504616
 30
0.0
 11
1815.500011678961
 21
336.0000045504616
 31
0.0
  0
LINE
  5
1263
330
11E9
100
AcDbEntity
  8
Visible (ANSI)
100
AcDbLine
 10
1815.500011678961
 20
294.0000045504621
 30
0.0
 11
1941.500011678961
 21
294.0000045504621
 31
0.0
  0
LINE
  5
1264
330
11E9
100
AcDbEntity
  8
Visible (ANSI)
100
AcDbLine
 10
1815.500011678961
 20
294.0000045504621
 30
0.0
 11
1815.500011678961
 21
336.0000045504621
 31
0.0
  0
LINE
  5
1265
330
11E9
100
AcDbEntity
  8
Visible (ANSI)
100
AcDbLine
 10
1941.500011678961
 20
294.0000045504621
 30
0.0
 11
1941.500011678961
 21
336.0000045504621
 31
0.0
  0
LINE
  5
1266
330
11E9
100
AcDbEntity
  8
Visible (ANSI)
100
AcDbLine
 10
1941.500011678961
 20
378.0000045504621
 30
0.0
 11
1815.500011678961
 21
378.0000045504621
 31
0.0
  0
LINE
  5
1267
330
11E9
100
AcDbEntity
  8
Visible (ANSI)
100
AcDbLine
 10
1815.500011678961
 20
336.0000045504621
 30
0.0
 11
1941.500011678961
 21
336.0000045504621
 31
0.0
  0
LINE
  5
1268
330
11E9
100
AcDbEntity
  8
Visible (ANSI)
100
AcDbLine
 10
1815.500011678961
 20
336.0000045504621
 30
0.0
 11
1815.500011678961
 21
378.0000045504621
 31
0.0
  0
LINE
  5
1269
330
11E9
100
AcDbEntity
  8
Visible (ANSI)
100
AcDbLine
 10
1941.500011678961
 20
336.0000045504621
 30
0.0
 11
1941.500011678961
 21
378.0000045504621
 31
0.0
  0
LINE
  5
126A
330
11E9
100
AcDbEntity
  8
Visible (ANSI)
100
AcDbLine
 10
1941.500011678961
 20
420.0000045504616
 30
0.0
 11
1815.500011678961
 21
420.0000045504616
 31
0.0
  0
LINE
  5
126B
330
11E9
100
AcDbEntity
  8
Visible (ANSI)
100
AcDbLine
 10
1815.500011678961
 20
378.0000045504621
 30
0.0
 11
1941.500011678961
 21
378.0000045504621
 31
0.0
  0
LINE
  5
126C
330
11E9
100
AcDbEntity
  8
Visible (ANSI)
100
AcDbLine
 10
1815.500011678961
 20
378.0000045504621
 30
0.0
 11
1815.500011678961
 21
420.0000045504616
 31
0.0
  0
LINE
  5
126D
330
11E9
100
AcDbEntity
  8
Visible (ANSI)
100
AcDbLine
 10
1941.500011678961
 20
378.0000045504621
 30
0.0
 11
1941.500011678961
 21
420.0000045504616
 31
0.0
  0
LINE
  5
126E
330
11E9
100
AcDbEntity
  8
Visible (ANSI)
100
AcDbLine
 10
1941.500011678961
 20
462.0000045504621
 30
0.0
 11
1815.500011678961
 21
462.0000045504621
 31
0.0
  0
LINE
  5
126F
330
11E9
100
AcDbEntity
  8
Visible (ANSI)
100
AcDbLine
 10
1815.500011678961
 20
420.0000045504616
 30
0.0
 11
1941.500011678961
 21
420.0000045504616
 31
0.0
  0
LINE
  5
1270
330
11E9
100
AcDbEntity
  8
Visible (ANSI)
100
AcDbLine
 10
1815.500011678961
 20
420.0000045504616
 30
0.0
 11
1815.500011678961
 21
462.0000045504621
 31
0.0
  0
LINE
  5
1271
330
11E9
100
AcDbEntity
  8
Visible (ANSI)
100
AcDbLine
 10
1941.500011678961
 20
420.0000045504616
 30
0.0
 11
1941.500011678961
 21
462.0000045504621
 31
0.0
  0
LINE
  5
1272
330
11E9
100
AcDbEntity
  8
Visible (ANSI)
100
AcDbLine
 10
1941.500011678961
 20
504.0000045504621
 30
0.0
 11
1815.500011678961
 21
504.0000045504621
 31
0.0
  0
LINE
  5
1273
330
11E9
100
AcDbEntity
  8
Visible (ANSI)
100
AcDbLine
 10
1815.500011678961
 20
462.0000045504621
 30
0.0
 11
1941.500011678961
 21
462.0000045504621
 31
0.0
  0
LINE
  5
1274
330
11E9
100
AcDbEntity
  8
Visible (ANSI)
100
AcDbLine
 10
1815.500011678961
 20
462.0000045504621
 30
0.0
 11
1815.500011678961
 21
504.0000045504621
 31
0.0
  0
LINE
  5
1275
330
11E9
100
AcDbEntity
  8
Visible (ANSI)
100
AcDbLine
 10
1941.500011678961
 20
462.0000045504621
 30
0.0
 11
1941.500011678961
 21
504.0000045504621
 31
0.0
  0
LINE
  5
1276
330
11E9
100
AcDbEntity
  8
Visible (ANSI)
100
AcDbLine
 10
1941.500011678961
 20
546.0000045504621
 30
0.0
 11
1815.500011678961
 21
546.0000045504621
 31
0.0
  0
LINE
  5
1277
330
11E9
100
AcDbEntity
  8
Visible (ANSI)
100
AcDbLine
 10
1815.500011678961
 20
504.0000045504621
 30
0.0
 11
1941.500011678961
 21
504.0000045504621
 31
0.0
  0
LINE
  5
1278
330
11E9
100
AcDbEntity
  8
Visible (ANSI)
100
AcDbLine
 10
1815.500011678961
 20
504.0000045504621
 30
0.0
 11
1815.500011678961
 21
546.0000045504621
 31
0.0
  0
LINE
  5
1279
330
11E9
100
AcDbEntity
  8
Visible (ANSI)
100
AcDbLine
 10
1941.500011678961
 20
504.0000045504621
 30
0.0
 11
1941.500011678961
 21
546.0000045504621
 31
0.0
  0
LINE
  5
127A
330
11E9
100
AcDbEntity
  8
Visible (ANSI)
100
AcDbLine
 10
1941.500011678961
 20
588.0000045504616
 30
0.0
 11
1815.500011678961
 21
588.0000045504616
 31
0.0
  0
LINE
  5
127B
330
11E9
100
AcDbEntity
  8
Visible (ANSI)
100
AcDbLine
 10
1815.500011678961
 20
546.0000045504616
 30
0.0
 11
1941.500011678961
 21
546.0000045504616
 31
0.0
  0
LINE
  5
127C
330
11E9
100
AcDbEntity
  8
Visible (ANSI)
100
AcDbLine
 10
1815.500011678961
 20
546.0000045504616
 30
0.0
 11
1815.500011678961
 21
588.0000045504616
 31
0.0
  0
LINE
  5
127D
330
11E9
100
AcDbEntity
  8
Visible (ANSI)
100
AcDbLine
 10
1941.500011678961
 20
546.0000045504616
 30
0.0
 11
1941.500011678961
 21
588.0000045504616
 31
0.0
  0
LINE
  5
127E
330
11E9
100
AcDbEntity
  8
Visible (ANSI)
100
AcDbLine
 10
1941.500011678961
 20
630.0000045504621
 30
0.0
 11
1815.500011678961
 21
630.0000045504621
 31
0.0
  0
LINE
  5
127F
330
11E9
100
AcDbEntity
  8
Visible (ANSI)
100
AcDbLine
 10
1815.500011678961
 20
588.0000045504616
 30
0.0
 11
1941.500011678961
 21
588.0000045504616
 31
0.0
  0
LINE
  5
1280
330
11E9
100
AcDbEntity
  8
Visible (ANSI)
100
AcDbLine
 10
1815.500011678961
 20
588.0000045504616
 30
0.0
 11
1815.500011678961
 21
630.0000045504621
 31
0.0
  0
LINE
  5
1281
330
11E9
100
AcDbEntity
  8
Visible (ANSI)
100
AcDbLine
 10
1941.500011678961
 20
588.0000045504616
 30
0.0
 11
1941.500011678961
 21
630.0000045504621
 31
0.0
  0
LINE
  5
1282
330
11E9
100
AcDbEntity
  8
Visible (ANSI)
100
AcDbLine
 10
158.5000116789624
 20
662.0000045504621
 30
0.0
 11
284.5000116789627
 21
662.0000045504621
 31
0.0
  0
LINE
  5
1283
330
11E9
100
AcDbEntity
  8
Visible (ANSI)
100
AcDbLine
 10
158.5000116789626
 20
662.0000045504621
 30
0.0
 11
158.5000116789626
 21
694.000004550462
 31
0.0
  0
LINE
  5
1284
330
11E9
100
AcDbEntity
  8
Visible (ANSI)
100
AcDbLine
 10
284.5000116789624
 20
662.0000045504621
 30
0.0
 11
284.5000116789624
 21
694.000004550462
 31
0.0
  0
LINE
  5
1285
330
11E9
100
AcDbEntity
  8
Visible (ANSI)
100
AcDbLine
 10
284.5000116789627
 20
662.0000045504621
 30
0.0
 11
158.5000116789624
 21
662.0000045504621
 31
0.0
  0
LINE
  5
1286
330
11E9
100
AcDbEntity
  8
Visible (ANSI)
100
AcDbLine
 10
158.5000116789624
 20
630.0000045504621
 30
0.0
 11
284.5000116789627
 21
630.0000045504621
 31
0.0
  0
LINE
  5
1287
330
11E9
100
AcDbEntity
  8
Visible (ANSI)
100
AcDbLine
 10
284.5000116789624
 20
662.0000045504621
 30
0.0
 11
284.5000116789624
 21
630.0000045504621
 31
0.0
  0
LINE
  5
1288
330
11E9
100
AcDbEntity
  8
Visible (ANSI)
100
AcDbLine
 10
158.5000116789626
 20
662.0000045504621
 30
0.0
 11
158.5000116789626
 21
630.0000045504621
 31
0.0
  0
LINE
  5
1289
330
11E9
100
AcDbEntity
  8
Visible (ANSI)
100
AcDbLine
 10
1815.500011678961
 20
662.0000045504621
 30
0.0
 11
1941.500011678961
 21
662.0000045504621
 31
0.0
  0
LINE
  5
128A
330
11E9
100
AcDbEntity
  8
Visible (ANSI)
100
AcDbLine
 10
1815.500011678961
 20
662.0000045504621
 30
0.0
 11
1815.500011678961
 21
694.000004550462
 31
0.0
  0
LINE
  5
128B
330
11E9
100
AcDbEntity
  8
Visible (ANSI)
100
AcDbLine
 10
1941.500011678961
 20
662.0000045504621
 30
0.0
 11
1941.500011678961
 21
694.000004550462
 31
0.0
  0
LINE
  5
128C
330
11E9
100
AcDbEntity
  8
Visible (ANSI)
100
AcDbLine
 10
1941.500011678961
 20
662.0000045504621
 30
0.0
 11
1815.500011678961
 21
662.0000045504621
 31
0.0
  0
LINE
  5
128D
330
11E9
100
AcDbEntity
  8
Visible (ANSI)
100
AcDbLine
 10
1815.500011678961
 20
630.0000045504621
 30
0.0
 11
1941.500011678961
 21
630.0000045504621
 31
0.0
  0
LINE
  5
128E
330
11E9
100
AcDbEntity
  8
Visible (ANSI)
100
AcDbLine
 10
1941.500011678961
 20
662.0000045504621
 30
0.0
 11
1941.500011678961
 21
630.0000045504621
 31
0.0
  0
LINE
  5
128F
330
11E9
100
AcDbEntity
  8
Visible (ANSI)
100
AcDbLine
 10
1815.500011678961
 20
662.0000045504621
 30
0.0
 11
1815.500011678961
 21
630.0000045504621
 31
0.0
  0
LINE
  5
1290
330
11E9
100
AcDbEntity
  8
Visible (ANSI)
100
AcDbLine
 10
1094.000011678961
 20
693.0000045504621
 30
0.0
 11
1090.000011678961
 21
693.0000045504621
 31
0.0
  0
LINE
  5
1291
330
11E9
100
AcDbEntity
  8
Visible (ANSI)
100
AcDbLine
 10
1010.000011678961
 20
693.0000045504621
 30
0.0
 11
1006.000011678961
 21
693.0000045504621
 31
0.0
  0
LINE
  5
1292
330
11E9
100
AcDbEntity
  8
Visible (ANSI)
100
AcDbLine
 10
1094.000011678961
 20
693.0000045504621
 30
0.0
 11
1094.000011678961
 21
694.000004550462
 31
0.0
  0
LINE
  5
1293
330
11E9
100
AcDbEntity
  8
Visible (ANSI)
100
AcDbLine
 10
1006.000011678961
 20
694.000004550462
 30
0.0
 11
1006.000011678961
 21
693.0000045504621
 31
0.0
  0
LINE
  5
1294
330
11E9
100
AcDbEntity
  8
Visible (ANSI)
100
AcDbLine
 10
1090.000011678961
 20
693.0000045504621
 30
0.0
 11
1010.000011678961
 21
693.0000045504621
 31
0.0
  0
LINE
  5
1295
330
11E9
100
AcDbEntity
  8
Visible (ANSI)
100
AcDbLine
 10
1016.105011678961
 20
692.5000045504625
 30
0.0
 11
1011.895011678961
 21
692.5000045504625
 31
0.0
  0
ARC
  5
1296
330
11E9
100
AcDbEntity
  8
Visible (ANSI)
100
AcDbCircle
 10
1014.000011678961
 20
696.6810295504624
 30
0.0
 40
4.681024999999991
100
AcDbArc
 50
243.276342437082
 51
296.7236575629181
  0
LINE
  5
1297
330
11E9
100
AcDbEntity
  8
Visible (ANSI)
100
AcDbLine
 10
1011.895011678961
 20
692.5000045504625
 30
0.0
 11
1011.895011678961
 21
693.000004550463
 31
0.0
  0
LINE
  5
1298
330
11E9
100
AcDbEntity
  8
Visible (ANSI)
100
AcDbLine
 10
1016.105011678961
 20
692.5000045504625
 30
0.0
 11
1016.105011678961
 21
693.000004550463
 31
0.0
  0
LINE
  5
1299
330
11E9
100
AcDbEntity
  8
Visible (ANSI)
100
AcDbLine
 10
1088.105011678961
 20
692.5000045504625
 30
0.0
 11
1083.895011678962
 21
692.5000045504625
 31
0.0
  0
ARC
  5
129A
330
11E9
100
AcDbEntity
  8
Visible (ANSI)
100
AcDbCircle
 10
1086.000011678962
 20
696.6810295504624
 30
0.0
 40
4.681024999999991
100
AcDbArc
 50
243.276342437082
 51
296.7236575629181
  0
LINE
  5
129B
330
11E9
100
AcDbEntity
  8
Visible (ANSI)
100
AcDbLine
 10
1083.895011678962
 20
692.5000045504625
 30
0.0
 11
1083.895011678962
 21
693.000004550463
 31
0.0
  0
LINE
  5
129C
330
11E9
100
AcDbEntity
  8
Visible (ANSI)
100
AcDbLine
 10
1088.105011678961
 20
692.5000045504625
 30
0.0
 11
1088.105011678961
 21
693.000004550463
 31
0.0
  0
LINE
  5
129D
330
11E9
100
AcDbEntity
  8
Visible (ANSI)
100
AcDbLine
 10
1055.017377915808
 20
2417.006079684706
 30
0.0
 11
1973.161845733324
 21
2320.505207531335
 31
0.0
  0
LINE
  5
129E
330
11E9
100
AcDbEntity
  8
Visible (ANSI)
100
AcDbLine
 10
1974.729772682339
 20
2335.423035961854
 30
0.0
 11
1056.585304864823
 21
2431.923908115225
 31
0.0
  0
ARC
  5
129F
330
11E9
100
AcDbEntity
  8
Visible (ANSI)
100
AcDbCircle
 10
1050.000011678961
 20
2369.269028707041
 30
0.0
 40
47.99999999998775
100
AcDbArc
 50
83.99999999999046
 51
95.99999999999658
  0
ARC
  5
12A0
330
11E9
100
AcDbEntity
  8
Visible (ANSI)
100
AcDbCircle
 10
1050.000011678961
 20
2369.269028707031
 30
0.0
 40
62.99999999999301
100
AcDbArc
 50
84.00000000000343
 51
95.99999999999658
  0
LINE
  5
12A1
330
11E9
100
AcDbEntity
  8
Visible (ANSI)
100
AcDbLine
 10
126.838177624599
 20
2320.505207531335
 30
0.0
 11
1044.982645442114
 21
2417.006079684706
 31
0.0
  0
LINE
  5
12A2
330
11E9
100
AcDbEntity
  8
Visible (ANSI)
100
AcDbLine
 10
1043.414718493099
 20
2431.923908115225
 30
0.0
 11
125.270250675584
 21
2335.423035961854
 31
0.0
  0
ARC
  5
12A3
330
11E9
100
AcDbEntity
  8
Visible (ANSI)
100
AcDbCircle
 10
131.8555438614462
 20
2272.768156553657
 30
0.0
 40
47.99999999999974
100
AcDbArc
 50
95.99999999999658
 51
169.9999999999961
  0
ARC
  5
12A4
330
11E9
100
AcDbEntity
  8
Visible (ANSI)
100
AcDbCircle
 10
131.8555438614462
 20
2272.768156553653
 30
0.0
 40
62.99999999999962
100
AcDbArc
 50
95.99999999999658
 51
169.9999999999961
  0
LINE
  5
12A5
330
11E9
100
AcDbEntity
  8
Visible (ANSI)
100
AcDbLine
 10
15.72923953437521
 20
1890.604141235041
 30
0.0
 11
84.58477171686036
 21
2281.10326908167
 31
0.0
  0
LINE
  5
12A6
330
11E9
100
AcDbEntity
  8
Visible (ANSI)
100
AcDbLine
 10
69.81265542167716
 20
2283.70799174667
 30
0.0
 11
0.9571232391920148
 21
1893.20886390004
 31
0.0
  0
ARC
  5
12A7
330
11E9
100
AcDbEntity
  8
Visible (ANSI)
100
AcDbCircle
 10
63.00001167896585
 20
1882.269028707028
 30
0.0
 40
48.00000000000467
100
AcDbArc
 50
169.9999999999961
 51
190.0000000000039
  0
ARC
  5
12A8
330
11E9
100
AcDbEntity
  8
Visible (ANSI)
100
AcDbCircle
 10
63.00001167896335
 20
1882.269028707024
 30
0.0
 40
63.00000000000212
100
AcDbArc
 50
169.9999999999961
 51
190.0000000000039
  0
LINE
  5
12A9
330
11E9
100
AcDbEntity
  8
Visible (ANSI)
100
AcDbLine
 10
84.58477171686013
 20
1483.434788332387
 30
0.0
 11
15.72923953437521
 21
1873.933916179016
 31
0.0
  0
LINE
  5
12AA
330
11E9
100
AcDbEntity
  8
Visible (ANSI)
100
AcDbLine
 10
0.9571232391920148
 20
1871.329193514007
 30
0.0
 11
69.81265542167716
 21
1480.830065667379
 31
0.0
  0
ARC
  5
12AB
330
11E9
100
AcDbEntity
  8
Visible (ANSI)
100
AcDbCircle
 10
131.8555438614462
 20
1491.769900860399
 30
0.0
 40
47.99999999999977
100
AcDbArc
 50
190.0000000000039
 51
264.0000000000034
  0
ARC
  5
12AC
330
11E9
100
AcDbEntity
  8
Visible (ANSI)
100
AcDbCircle
 10
131.8555438614467
 20
1491.769900860396
 30
0.0
 40
63.00000000000037
100
AcDbArc
 50
190.0000000000039
 51
264.0000000000034
  0
LINE
  5
12AD
330
11E9
100
AcDbEntity
  8
Visible (ANSI)
100
AcDbLine
 10
1044.982645442114
 20
1347.531977729351
 30
0.0
 11
126.8381776245987
 21
1444.032849882723
 31
0.0
  0
LINE
  5
12AE
330
11E9
100
AcDbEntity
  8
Visible (ANSI)
100
AcDbLine
 10
125.270250675584
 20
1429.115021452194
 30
0.0
 11
1043.414718493099
 21
1332.614149298823
 31
0.0
  0
ARC
  5
12AF
330
11E9
100
AcDbEntity
  8
Visible (ANSI)
100
AcDbCircle
 10
1050.000011678961
 20
1395.269028707035
 30
0.0
 40
48.00000000000722
100
AcDbArc
 50
264.0000000000034
 51
275.9999999999966
  0
ARC
  5
12B0
330
11E9
100
AcDbEntity
  8
Visible (ANSI)
100
AcDbCircle
 10
1050.000011678961
 20
1395.26902870703
 30
0.0
 40
63.00000000000587
100
AcDbArc
 50
264.0000000000034
 51
275.9999999999966
  0
LINE
  5
12B1
330
11E9
100
AcDbEntity
  8
Visible (ANSI)
100
AcDbLine
 10
1973.161845733324
 20
1444.032849882723
 30
0.0
 11
1055.017377915808
 21
1347.531977729351
 31
0.0
  0
LINE
  5
12B2
330
11E9
100
AcDbEntity
  8
Visible (ANSI)
100
AcDbLine
 10
1056.585304864823
 20
1332.614149298823
 30
0.0
 11
1974.729772682339
 21
1429.115021452194
 31
0.0
  0
ARC
  5
12B3
330
11E9
100
AcDbEntity
  8
Visible (ANSI)
100
AcDbCircle
 10
1968.144479496477
 20
1491.769900860399
 30
0.0
 40
47.9999999999999
100
AcDbArc
 50
275.9999999999966
 51
349.9999999999961
  0
ARC
  5
12B4
330
11E9
100
AcDbEntity
  8
Visible (ANSI)
100
AcDbCircle
 10
1968.144479496477
 20
1491.769900860396
 30
0.0
 40
63.0000000000001
100
AcDbArc
 50
275.9999999999966
 51
349.9999999999961
  0
LINE
  5
12B5
330
11E9
100
AcDbEntity
  8
Visible (ANSI)
100
AcDbLine
 10
2084.270783823547
 20
1873.933916179016
 30
0.0
 11
2015.415251641063
 21
1483.434788332387
 31
0.0
  0
LINE
  5
12B6
330
11E9
100
AcDbEntity
  8
Visible (ANSI)
100
AcDbLine
 10
2030.187367936246
 20
1480.830065667379
 30
0.0
 11
2099.042900118731
 21
1871.329193514007
 31
0.0
  0
ARC
  5
12B7
330
11E9
100
AcDbEntity
  8
Visible (ANSI)
100
AcDbCircle
 10
2037.000011678957
 20
1882.269028707028
 30
0.0
 40
48.00000000000496
100
AcDbArc
 50
349.9999999999961
 51
10.00000000000389
  0
ARC
  5
12B8
330
11E9
100
AcDbEntity
  8
Visible (ANSI)
100
AcDbCircle
 10
2037.000011678959
 20
1882.269028707024
 30
0.0
 40
63.00000000000212
100
AcDbArc
 50
349.9999999999961
 51
10.00000000000389
  0
LINE
  5
12B9
330
11E9
100
AcDbEntity
  8
Visible (ANSI)
100
AcDbLine
 10
2015.415251641063
 20
2281.10326908167
 30
0.0
 11
2084.270783823548
 21
1890.604141235041
 31
0.0
  0
LINE
  5
12BA
330
11E9
100
AcDbEntity
  8
Visible (ANSI)
100
AcDbLine
 10
2099.042900118731
 20
1893.20886390004
 30
0.0
 11
2030.187367936246
 21
2283.70799174667
 31
0.0
  0
ARC
  5
12BB
330
11E9
100
AcDbEntity
  8
Visible (ANSI)
100
AcDbCircle
 10
1968.144479496476
 20
2272.768156553657
 30
0.0
 40
48.00000000000014
100
AcDbArc
 50
10.00000000000389
 51
84.00000000000343
  0
ARC
  5
12BC
330
11E9
100
AcDbEntity
  8
Visible (ANSI)
100
AcDbCircle
 10
1968.144479496476
 20
2272.768156553652
 30
0.0
 40
63.00000000000036
100
AcDbArc
 50
10.00000000000389
 51
84.00000000000343
  0
LINE
  5
12BD
330
11E9
100
AcDbEntity
  8
Visible (ANSI)
100
AcDbLine
 10
4214.783228530698
 20
724.0000045504626
 30
0.0
 11
4118.282356377599
 21
724.0000045504626
 31
0.0
  0
LINE
  5
12BE
330
11E9
100
AcDbEntity
  8
Visible (ANSI)
100
AcDbLine
 10
4133.200184808124
 20
709.0000045504625
 30
0.0
 11
4229.701056961223
 21
709.0000045504625
 31
0.0
  0
LINE
  5
12BF
330
11E9
100
AcDbEntity
  8
Visible (ANSI)
100
AcDbLine
 10
4214.783228530698
 20
724.0000045504626
 30
0.0
 11
4215.046177553019
 21
724.0000045504626
 31
0.0
  0
LINE
  5
12C0
330
11E9
100
AcDbEntity
  8
Visible (ANSI)
100
AcDbLine
 10
4230.04617755302
 20
709.0000045504625
 30
0.0
 11
4229.701056961223
 21
709.0000045504625
 31
0.0
  0
LINE
  5
12C1
330
11E9
100
AcDbEntity
  8
Visible (ANSI)
100
AcDbLine
 10
3145.04617755302
 20
724.0000045504626
 30
0.0
 11
3145.309126575345
 21
724.0000045504626
 31
0.0
  0
LINE
  5
12C2
330
11E9
100
AcDbEntity
  8
Visible (ANSI)
100
AcDbLine
 10
3130.39129814482
 20
709.0000045504625
 30
0.0
 11
3130.046177553019
 21
709.0000045504625
 31
0.0
  0
LINE
  5
12C3
330
11E9
100
AcDbEntity
  8
Visible (ANSI)
100
AcDbLine
 10
3241.809998728988
 20
724.0000045504626
 30
0.0
 11
3145.309126575344
 21
724.0000045504626
 31
0.0
  0
LINE
  5
12C4
330
11E9
100
AcDbEntity
  8
Visible (ANSI)
100
AcDbLine
 10
3130.39129814482
 20
709.0000045504625
 30
0.0
 11
3226.892170298464
 21
709.0000045504625
 31
0.0
  0
LINE
  5
12C5
330
11E9
100
AcDbEntity
  8
Visible (ANSI)
100
AcDbLine
 10
3241.809998728988
 20
724.0000045504626
 30
0.0
 11
3281.211937178665
 21
724.0000045504626
 31
0.0
  0
LINE
  5
12C6
330
11E9
100
AcDbEntity
  8
Visible (ANSI)
100
AcDbLine
 10
3278.607214513665
 20
709.0000045504625
 30
0.0
 11
3226.892170298464
 21
709.0000045504625
 31
0.0
  0
LINE
  5
12C7
330
11E9
100
AcDbEntity
  8
Visible (ANSI)
100
AcDbLine
 10
3671.711065025315
 20
724.0000045504626
 30
0.0
 11
3281.211937178665
 21
724.0000045504626
 31
0.0
  0
LINE
  5
12C8
330
11E9
100
AcDbEntity
  8
Visible (ANSI)
100
AcDbLine
 10
3278.607214513665
 20
709.0000045504625
 30
0.0
 11
3669.106342360314
 21
709.0000045504625
 31
0.0
  0
LINE
  5
12C9
330
11E9
100
AcDbEntity
  8
Visible (ANSI)
100
AcDbLine
 10
3671.711065025313
 20
724.0000045504626
 30
0.0
 11
3688.381290081339
 21
724.0000045504626
 31
0.0
  0
LINE
  5
12CA
330
11E9
100
AcDbEntity
  8
Visible (ANSI)
100
AcDbLine
 10
3690.986012746348
 20
709.0000045504625
 30
0.0
 11
3669.106342360314
 21
709.0000045504625
 31
0.0
  0
LINE
  5
12CB
330
11E9
100
AcDbEntity
  8
Visible (ANSI)
100
AcDbLine
 10
4078.880417927948
 20
724.0000045504626
 30
0.0
 11
3688.381290081339
 21
724.0000045504626
 31
0.0
  0
LINE
  5
12CC
330
11E9
100
AcDbEntity
  8
Visible (ANSI)
100
AcDbLine
 10
3690.986012746348
 20
709.0000045504625
 30
0.0
 11
4081.485140592955
 21
709.0000045504625
 31
0.0
  0
LINE
  5
12CD
330
11E9
100
AcDbEntity
  8
Visible (ANSI)
100
AcDbLine
 10
4078.880417927948
 20
724.0000045504626
 30
0.0
 11
4118.2823563776
 21
724.0000045504626
 31
0.0
  0
LINE
  5
12CE
330
11E9
100
AcDbEntity
  8
Visible (ANSI)
100
AcDbLine
 10
4133.200184808123
 20
709.0000045504625
 30
0.0
 11
4081.485140592955
 21
709.0000045504625
 31
0.0
  0
LINE
  5
12CF
330
11E9
100
AcDbEntity
  8
Visible (ANSI)
100
AcDbLine
 10
4215.046177553019
 20
724.0000045504626
 30
0.0
 11
4230.04617755302
 21
709.0000045504625
 31
0.0
  0
LINE
  5
12D0
330
11E9
100
AcDbEntity
  8
Visible (ANSI)
100
AcDbLine
 10
3145.04617755302
 20
724.0000045504626
 30
0.0
 11
3130.046177553019
 21
709.0000045504625
 31
0.0
  0
LINE
  5
12D1
330
11E9
100
AcDbEntity
  8
Visible (ANSI)
100
AcDbLine
 10
4229.701056961223
 20
694.0000045504625
 30
0.0
 11
4230.04617755302
 21
694.0000045504625
 31
0.0
  0
LINE
  5
12D2
330
11E9
100
AcDbEntity
  8
Visible (ANSI)
100
AcDbLine
 10
4229.701056961223
 20
694.0000045504625
 30
0.0
 11
4133.200184808124
 21
694.0000045504625
 31
0.0
  0
LINE
  5
12D3
330
11E9
100
AcDbEntity
  8
Visible (ANSI)
100
AcDbLine
 10
3130.046177553019
 20
694.0000045504625
 30
0.0
 11
3130.39129814482
 21
694.0000045504625
 31
0.0
  0
LINE
  5
12D4
330
11E9
100
AcDbEntity
  8
Visible (ANSI)
100
AcDbLine
 10
4081.485140592955
 20
694.0000045504625
 30
0.0
 11
4133.200184808123
 21
694.0000045504625
 31
0.0
  0
LINE
  5
12D5
330
11E9
100
AcDbEntity
  8
Visible (ANSI)
100
AcDbLine
 10
4081.485140592955
 20
694.0000045504625
 30
0.0
 11
3690.986012746348
 21
694.0000045504625
 31
0.0
  0
LINE
  5
12D6
330
11E9
100
AcDbEntity
  8
Visible (ANSI)
100
AcDbLine
 10
3669.106342360314
 20
694.0000045504625
 30
0.0
 11
3690.986012746348
 21
694.0000045504625
 31
0.0
  0
LINE
  5
12D7
330
11E9
100
AcDbEntity
  8
Visible (ANSI)
100
AcDbLine
 10
3669.106342360314
 20
694.0000045504625
 30
0.0
 11
3278.607214513665
 21
694.0000045504625
 31
0.0
  0
LINE
  5
12D8
330
11E9
100
AcDbEntity
  8
Visible (ANSI)
100
AcDbLine
 10
3226.892170298464
 20
694.0000045504625
 30
0.0
 11
3278.607214513665
 21
694.0000045504625
 31
0.0
  0
LINE
  5
12D9
330
11E9
100
AcDbEntity
  8
Visible (ANSI)
100
AcDbLine
 10
3226.892170298464
 20
694.0000045504625
 30
0.0
 11
3130.39129814482
 21
694.0000045504625
 31
0.0
  0
LINE
  5
12DA
330
11E9
100
AcDbEntity
  8
Visible (ANSI)
100
AcDbLine
 10
4230.04617755302
 20
694.0000045504625
 30
0.0
 11
4230.04617755302
 21
709.0000045504625
 31
0.0
  0
LINE
  5
12DB
330
11E9
100
AcDbEntity
  8
Visible (ANSI)
100
AcDbLine
 10
3130.046177553019
 20
694.0000045504625
 30
0.0
 11
3130.046177553019
 21
709.0000045504625
 31
0.0
  0
LINE
  5
12DC
330
11E9
100
AcDbEntity
  8
Visible (ANSI)
100
AcDbLine
 10
3425.046177553297
 20
630.0000045504662
 30
0.0
 11
3935.046177553246
 21
630.0000045504662
 31
0.0
  0
LINE
  5
12DD
330
11E9
100
AcDbEntity
  8
Visible (ANSI)
100
AcDbLine
 10
4057.443147172921
 20
42.00000455046392
 30
0.0
 11
3931.443147172922
 21
42.00000455046392
 31
0.0
  0
LINE
  5
12DE
330
11E9
100
AcDbEntity
  8
Visible (ANSI)
100
AcDbLine
 10
3931.443147172922
 20
0.0000045504639274
 30
0.0
 11
4057.443147172921
 21
0.0000045504639274
 31
0.0
  0
LINE
  5
12DF
330
11E9
100
AcDbEntity
  8
Visible (ANSI)
100
AcDbLine
 10
3931.443147172922
 20
0.0000045504639274
 30
0.0
 11
3931.443147172922
 21
42.00000455046392
 31
0.0
  0
LINE
  5
12E0
330
11E9
100
AcDbEntity
  8
Visible (ANSI)
100
AcDbLine
 10
4057.443147172921
 20
0.0000045504639274
 30
0.0
 11
4057.443147172921
 21
42.00000455046392
 31
0.0
  0
LINE
  5
12E1
330
11E9
100
AcDbEntity
  8
Visible (ANSI)
100
AcDbLine
 10
4057.443147172921
 20
84.00000455046347
 30
0.0
 11
3931.443147172922
 21
84.00000455046347
 31
0.0
  0
LINE
  5
12E2
330
11E9
100
AcDbEntity
  8
Visible (ANSI)
100
AcDbLine
 10
3931.443147172922
 20
42.00000455046392
 30
0.0
 11
4057.443147172921
 21
42.00000455046392
 31
0.0
  0
LINE
  5
12E3
330
11E9
100
AcDbEntity
  8
Visible (ANSI)
100
AcDbLine
 10
3931.443147172922
 20
42.00000455046392
 30
0.0
 11
3931.443147172922
 21
84.00000455046347
 31
0.0
  0
LINE
  5
12E4
330
11E9
100
AcDbEntity
  8
Visible (ANSI)
100
AcDbLine
 10
4057.443147172921
 20
42.00000455046392
 30
0.0
 11
4057.443147172921
 21
84.00000455046347
 31
0.0
  0
LINE
  5
12E5
330
11E9
100
AcDbEntity
  8
Visible (ANSI)
100
AcDbLine
 10
4057.443147172921
 20
126.0000045504639
 30
0.0
 11
3931.443147172922
 21
126.0000045504639
 31
0.0
  0
LINE
  5
12E6
330
11E9
100
AcDbEntity
  8
Visible (ANSI)
100
AcDbLine
 10
3931.443147172922
 20
84.00000455046393
 30
0.0
 11
4057.443147172921
 21
84.00000455046393
 31
0.0
  0
LINE
  5
12E7
330
11E9
100
AcDbEntity
  8
Visible (ANSI)
100
AcDbLine
 10
3931.443147172922
 20
84.00000455046393
 30
0.0
 11
3931.443147172922
 21
126.0000045504639
 31
0.0
  0
LINE
  5
12E8
330
11E9
100
AcDbEntity
  8
Visible (ANSI)
100
AcDbLine
 10
4057.443147172921
 20
84.00000455046393
 30
0.0
 11
4057.443147172921
 21
126.0000045504639
 31
0.0
  0
LINE
  5
12E9
330
11E9
100
AcDbEntity
  8
Visible (ANSI)
100
AcDbLine
 10
4057.443147172921
 20
168.0000045504634
 30
0.0
 11
3931.443147172922
 21
168.0000045504634
 31
0.0
  0
LINE
  5
12EA
330
11E9
100
AcDbEntity
  8
Visible (ANSI)
100
AcDbLine
 10
3931.443147172922
 20
126.0000045504639
 30
0.0
 11
4057.443147172921
 21
126.0000045504639
 31
0.0
  0
LINE
  5
12EB
330
11E9
100
AcDbEntity
  8
Visible (ANSI)
100
AcDbLine
 10
3931.443147172922
 20
126.0000045504639
 30
0.0
 11
3931.443147172922
 21
168.0000045504634
 31
0.0
  0
LINE
  5
12EC
330
11E9
100
AcDbEntity
  8
Visible (ANSI)
100
AcDbLine
 10
4057.443147172921
 20
126.0000045504639
 30
0.0
 11
4057.443147172921
 21
168.0000045504634
 31
0.0
  0
LINE
  5
12ED
330
11E9
100
AcDbEntity
  8
Visible (ANSI)
100
AcDbLine
 10
4057.443147172921
 20
210.0000045504639
 30
0.0
 11
3931.443147172922
 21
210.0000045504639
 31
0.0
  0
LINE
  5
12EE
330
11E9
100
AcDbEntity
  8
Visible (ANSI)
100
AcDbLine
 10
3931.443147172922
 20
168.0000045504639
 30
0.0
 11
4057.443147172921
 21
168.0000045504639
 31
0.0
  0
LINE
  5
12EF
330
11E9
100
AcDbEntity
  8
Visible (ANSI)
100
AcDbLine
 10
3931.443147172922
 20
168.0000045504639
 30
0.0
 11
3931.443147172922
 21
210.0000045504639
 31
0.0
  0
LINE
  5
12F0
330
11E9
100
AcDbEntity
  8
Visible (ANSI)
100
AcDbLine
 10
4057.443147172921
 20
168.0000045504639
 30
0.0
 11
4057.443147172921
 21
210.0000045504639
 31
0.0
  0
LINE
  5
12F1
330
11E9
100
AcDbEntity
  8
Visible (ANSI)
100
AcDbLine
 10
4057.443147172921
 20
252.0000045504635
 30
0.0
 11
3931.443147172922
 21
252.0000045504635
 31
0.0
  0
LINE
  5
12F2
330
11E9
100
AcDbEntity
  8
Visible (ANSI)
100
AcDbLine
 10
3931.443147172922
 20
210.0000045504639
 30
0.0
 11
4057.443147172921
 21
210.0000045504639
 31
0.0
  0
LINE
  5
12F3
330
11E9
100
AcDbEntity
  8
Visible (ANSI)
100
AcDbLine
 10
3931.443147172922
 20
210.0000045504639
 30
0.0
 11
3931.443147172922
 21
252.0000045504635
 31
0.0
  0
LINE
  5
12F4
330
11E9
100
AcDbEntity
  8
Visible (ANSI)
100
AcDbLine
 10
4057.443147172921
 20
210.0000045504639
 30
0.0
 11
4057.443147172921
 21
252.0000045504635
 31
0.0
  0
LINE
  5
12F5
330
11E9
100
AcDbEntity
  8
Visible (ANSI)
100
AcDbLine
 10
4057.443147172921
 20
294.0000045504639
 30
0.0
 11
3931.443147172922
 21
294.0000045504639
 31
0.0
  0
LINE
  5
12F6
330
11E9
100
AcDbEntity
  8
Visible (ANSI)
100
AcDbLine
 10
3931.443147172922
 20
252.0000045504639
 30
0.0
 11
4057.443147172921
 21
252.0000045504639
 31
0.0
  0
LINE
  5
12F7
330
11E9
100
AcDbEntity
  8
Visible (ANSI)
100
AcDbLine
 10
3931.443147172922
 20
252.0000045504639
 30
0.0
 11
3931.443147172922
 21
294.0000045504639
 31
0.0
  0
LINE
  5
12F8
330
11E9
100
AcDbEntity
  8
Visible (ANSI)
100
AcDbLine
 10
4057.443147172921
 20
252.0000045504639
 30
0.0
 11
4057.443147172921
 21
294.0000045504639
 31
0.0
  0
LINE
  5
12F9
330
11E9
100
AcDbEntity
  8
Visible (ANSI)
100
AcDbLine
 10
4057.443147172921
 20
336.0000045504635
 30
0.0
 11
3931.443147172922
 21
336.0000045504635
 31
0.0
  0
LINE
  5
12FA
330
11E9
100
AcDbEntity
  8
Visible (ANSI)
100
AcDbLine
 10
3931.443147172922
 20
294.0000045504639
 30
0.0
 11
4057.443147172921
 21
294.0000045504639
 31
0.0
  0
LINE
  5
12FB
330
11E9
100
AcDbEntity
  8
Visible (ANSI)
100
AcDbLine
 10
3931.443147172922
 20
294.0000045504639
 30
0.0
 11
3931.443147172922
 21
336.0000045504635
 31
0.0
  0
LINE
  5
12FC
330
11E9
100
AcDbEntity
  8
Visible (ANSI)
100
AcDbLine
 10
4057.443147172921
 20
294.0000045504639
 30
0.0
 11
4057.443147172921
 21
336.0000045504635
 31
0.0
  0
LINE
  5
12FD
330
11E9
100
AcDbEntity
  8
Visible (ANSI)
100
AcDbLine
 10
4057.443147172921
 20
378.0000045504635
 30
0.0
 11
3931.443147172922
 21
378.0000045504635
 31
0.0
  0
LINE
  5
12FE
330
11E9
100
AcDbEntity
  8
Visible (ANSI)
100
AcDbLine
 10
3931.443147172922
 20
336.0000045504635
 30
0.0
 11
4057.443147172921
 21
336.0000045504635
 31
0.0
  0
LINE
  5
12FF
330
11E9
100
AcDbEntity
  8
Visible (ANSI)
100
AcDbLine
 10
3931.443147172922
 20
336.0000045504635
 30
0.0
 11
3931.443147172922
 21
378.0000045504635
 31
0.0
  0
LINE
  5
1300
330
11E9
100
AcDbEntity
  8
Visible (ANSI)
100
AcDbLine
 10
4057.443147172921
 20
336.0000045504635
 30
0.0
 11
4057.443147172921
 21
378.0000045504635
 31
0.0
  0
LINE
  5
1301
330
11E9
100
AcDbEntity
  8
Visible (ANSI)
100
AcDbLine
 10
4057.443147172921
 20
420.0000045504639
 30
0.0
 11
3931.443147172922
 21
420.0000045504639
 31
0.0
  0
LINE
  5
1302
330
11E9
100
AcDbEntity
  8
Visible (ANSI)
100
AcDbLine
 10
3931.443147172922
 20
378.0000045504639
 30
0.0
 11
4057.443147172921
 21
378.0000045504639
 31
0.0
  0
LINE
  5
1303
330
11E9
100
AcDbEntity
  8
Visible (ANSI)
100
AcDbLine
 10
3931.443147172922
 20
378.0000045504639
 30
0.0
 11
3931.443147172922
 21
420.0000045504639
 31
0.0
  0
LINE
  5
1304
330
11E9
100
AcDbEntity
  8
Visible (ANSI)
100
AcDbLine
 10
4057.443147172921
 20
378.0000045504639
 30
0.0
 11
4057.443147172921
 21
420.0000045504639
 31
0.0
  0
LINE
  5
1305
330
11E9
100
AcDbEntity
  8
Visible (ANSI)
100
AcDbLine
 10
4057.443147172921
 20
462.0000045504634
 30
0.0
 11
3931.443147172922
 21
462.0000045504634
 31
0.0
  0
LINE
  5
1306
330
11E9
100
AcDbEntity
  8
Visible (ANSI)
100
AcDbLine
 10
3931.443147172922
 20
420.000004550463
 30
0.0
 11
4057.443147172921
 21
420.000004550463
 31
0.0
  0
LINE
  5
1307
330
11E9
100
AcDbEntity
  8
Visible (ANSI)
100
AcDbLine
 10
3931.443147172922
 20
420.000004550463
 30
0.0
 11
3931.443147172922
 21
462.0000045504634
 31
0.0
  0
LINE
  5
1308
330
11E9
100
AcDbEntity
  8
Visible (ANSI)
100
AcDbLine
 10
4057.443147172921
 20
420.000004550463
 30
0.0
 11
4057.443147172921
 21
462.0000045504634
 31
0.0
  0
LINE
  5
1309
330
11E9
100
AcDbEntity
  8
Visible (ANSI)
100
AcDbLine
 10
4057.443147172921
 20
504.0000045504634
 30
0.0
 11
3931.443147172922
 21
504.0000045504634
 31
0.0
  0
LINE
  5
130A
330
11E9
100
AcDbEntity
  8
Visible (ANSI)
100
AcDbLine
 10
3931.443147172922
 20
462.0000045504634
 30
0.0
 11
4057.443147172921
 21
462.0000045504634
 31
0.0
  0
LINE
  5
130B
330
11E9
100
AcDbEntity
  8
Visible (ANSI)
100
AcDbLine
 10
3931.443147172922
 20
462.0000045504634
 30
0.0
 11
3931.443147172922
 21
504.0000045504634
 31
0.0
  0
LINE
  5
130C
330
11E9
100
AcDbEntity
  8
Visible (ANSI)
100
AcDbLine
 10
4057.443147172921
 20
462.0000045504634
 30
0.0
 11
4057.443147172921
 21
504.0000045504634
 31
0.0
  0
LINE
  5
130D
330
11E9
100
AcDbEntity
  8
Visible (ANSI)
100
AcDbLine
 10
4057.443147172921
 20
546.0000045504639
 30
0.0
 11
3931.443147172922
 21
546.0000045504639
 31
0.0
  0
LINE
  5
130E
330
11E9
100
AcDbEntity
  8
Visible (ANSI)
100
AcDbLine
 10
3931.443147172922
 20
504.0000045504634
 30
0.0
 11
4057.443147172921
 21
504.0000045504634
 31
0.0
  0
LINE
  5
130F
330
11E9
100
AcDbEntity
  8
Visible (ANSI)
100
AcDbLine
 10
3931.443147172922
 20
504.0000045504634
 30
0.0
 11
3931.443147172922
 21
546.0000045504639
 31
0.0
  0
LINE
  5
1310
330
11E9
100
AcDbEntity
  8
Visible (ANSI)
100
AcDbLine
 10
4057.443147172921
 20
504.0000045504634
 30
0.0
 11
4057.443147172921
 21
546.0000045504639
 31
0.0
  0
LINE
  5
1311
330
11E9
100
AcDbEntity
  8
Visible (ANSI)
100
AcDbLine
 10
4057.443147172921
 20
588.000004550463
 30
0.0
 11
3931.443147172922
 21
588.000004550463
 31
0.0
  0
LINE
  5
1312
330
11E9
100
AcDbEntity
  8
Visible (ANSI)
100
AcDbLine
 10
3931.443147172922
 20
546.000004550463
 30
0.0
 11
4057.443147172921
 21
546.000004550463
 31
0.0
  0
LINE
  5
1313
330
11E9
100
AcDbEntity
  8
Visible (ANSI)
100
AcDbLine
 10
3931.443147172922
 20
546.000004550463
 30
0.0
 11
3931.443147172922
 21
588.000004550463
 31
0.0
  0
LINE
  5
1314
330
11E9
100
AcDbEntity
  8
Visible (ANSI)
100
AcDbLine
 10
4057.443147172921
 20
546.000004550463
 30
0.0
 11
4057.443147172921
 21
588.000004550463
 31
0.0
  0
LINE
  5
1315
330
11E9
100
AcDbEntity
  8
Visible (ANSI)
100
AcDbLine
 10
4057.443147172921
 20
630.0000045504634
 30
0.0
 11
3935.046177553258
 21
630.0000045504634
 31
0.0
  0
LINE
  5
1316
330
11E9
100
AcDbEntity
  8
Visible (ANSI)
100
AcDbLine
 10
3931.443147172922
 20
588.000004550463
 30
0.0
 11
4057.443147172921
 21
588.000004550463
 31
0.0
  0
LINE
  5
1317
330
11E9
100
AcDbEntity
  8
Visible (ANSI)
100
AcDbLine
 10
3931.443147172922
 20
588.000004550463
 30
0.0
 11
3931.443147172922
 21
630.0000045504634
 31
0.0
  0
LINE
  5
1318
330
11E9
100
AcDbEntity
  8
Visible (ANSI)
100
AcDbLine
 10
4057.443147172921
 20
588.000004550463
 30
0.0
 11
4057.443147172921
 21
630.0000045504634
 31
0.0
  0
LINE
  5
1319
330
11E9
100
AcDbEntity
  8
Visible (ANSI)
100
AcDbLine
 10
3428.649207933609
 20
42.00000455046256
 30
0.0
 11
3302.649207933609
 21
42.00000455046256
 31
0.0
  0
LINE
  5
131A
330
11E9
100
AcDbEntity
  8
Visible (ANSI)
100
AcDbLine
 10
3302.649207933609
 20
0.0000045504630179
 30
0.0
 11
3428.649207933609
 21
0.0000045504630179
 31
0.0
  0
LINE
  5
131B
330
11E9
100
AcDbEntity
  8
Visible (ANSI)
100
AcDbLine
 10
3302.649207933609
 20
0.0000045504630179
 30
0.0
 11
3302.649207933609
 21
42.00000455046302
 31
0.0
  0
LINE
  5
131C
330
11E9
100
AcDbEntity
  8
Visible (ANSI)
100
AcDbLine
 10
3428.649207933609
 20
0.0000045504630179
 30
0.0
 11
3428.649207933609
 21
42.00000455046302
 31
0.0
  0
LINE
  5
131D
330
11E9
100
AcDbEntity
  8
Visible (ANSI)
100
AcDbLine
 10
3428.649207933609
 20
84.00000455046301
 30
0.0
 11
3302.649207933609
 21
84.00000455046301
 31
0.0
  0
LINE
  5
131E
330
11E9
100
AcDbEntity
  8
Visible (ANSI)
100
AcDbLine
 10
3302.649207933609
 20
42.00000455046302
 30
0.0
 11
3428.649207933609
 21
42.00000455046302
 31
0.0
  0
LINE
  5
131F
330
11E9
100
AcDbEntity
  8
Visible (ANSI)
100
AcDbLine
 10
3302.649207933609
 20
42.00000455046302
 30
0.0
 11
3302.649207933609
 21
84.00000455046347
 31
0.0
  0
LINE
  5
1320
330
11E9
100
AcDbEntity
  8
Visible (ANSI)
100
AcDbLine
 10
3428.649207933609
 20
42.00000455046302
 30
0.0
 11
3428.649207933609
 21
84.00000455046347
 31
0.0
  0
LINE
  5
1321
330
11E9
100
AcDbEntity
  8
Visible (ANSI)
100
AcDbLine
 10
3428.649207933609
 20
126.0000045504625
 30
0.0
 11
3302.649207933609
 21
126.0000045504625
 31
0.0
  0
LINE
  5
1322
330
11E9
100
AcDbEntity
  8
Visible (ANSI)
100
AcDbLine
 10
3302.649207933609
 20
84.00000455046301
 30
0.0
 11
3428.649207933609
 21
84.00000455046301
 31
0.0
  0
LINE
  5
1323
330
11E9
100
AcDbEntity
  8
Visible (ANSI)
100
AcDbLine
 10
3302.649207933609
 20
84.00000455046301
 30
0.0
 11
3302.649207933609
 21
126.000004550463
 31
0.0
  0
LINE
  5
1324
330
11E9
100
AcDbEntity
  8
Visible (ANSI)
100
AcDbLine
 10
3428.649207933609
 20
84.00000455046301
 30
0.0
 11
3428.649207933609
 21
126.000004550463
 31
0.0
  0
LINE
  5
1325
330
11E9
100
AcDbEntity
  8
Visible (ANSI)
100
AcDbLine
 10
3428.649207933609
 20
168.000004550463
 30
0.0
 11
3302.649207933609
 21
168.000004550463
 31
0.0
  0
LINE
  5
1326
330
11E9
100
AcDbEntity
  8
Visible (ANSI)
100
AcDbLine
 10
3302.649207933609
 20
126.000004550463
 30
0.0
 11
3428.649207933609
 21
126.000004550463
 31
0.0
  0
LINE
  5
1327
330
11E9
100
AcDbEntity
  8
Visible (ANSI)
100
AcDbLine
 10
3302.649207933609
 20
126.000004550463
 30
0.0
 11
3302.649207933609
 21
168.0000045504634
 31
0.0
  0
LINE
  5
1328
330
11E9
100
AcDbEntity
  8
Visible (ANSI)
100
AcDbLine
 10
3428.649207933609
 20
126.000004550463
 30
0.0
 11
3428.649207933609
 21
168.0000045504634
 31
0.0
  0
LINE
  5
1329
330
11E9
100
AcDbEntity
  8
Visible (ANSI)
100
AcDbLine
 10
3428.649207933609
 20
210.0000045504625
 30
0.0
 11
3302.649207933609
 21
210.0000045504625
 31
0.0
  0
LINE
  5
132A
330
11E9
100
AcDbEntity
  8
Visible (ANSI)
100
AcDbLine
 10
3302.649207933609
 20
168.000004550463
 30
0.0
 11
3428.649207933609
 21
168.000004550463
 31
0.0
  0
LINE
  5
132B
330
11E9
100
AcDbEntity
  8
Visible (ANSI)
100
AcDbLine
 10
3302.649207933609
 20
168.000004550463
 30
0.0
 11
3302.649207933609
 21
210.000004550463
 31
0.0
  0
LINE
  5
132C
330
11E9
100
AcDbEntity
  8
Visible (ANSI)
100
AcDbLine
 10
3428.649207933609
 20
168.000004550463
 30
0.0
 11
3428.649207933609
 21
210.000004550463
 31
0.0
  0
LINE
  5
132D
330
11E9
100
AcDbEntity
  8
Visible (ANSI)
100
AcDbLine
 10
3428.649207933609
 20
252.000004550463
 30
0.0
 11
3302.649207933609
 21
252.000004550463
 31
0.0
  0
LINE
  5
132E
330
11E9
100
AcDbEntity
  8
Visible (ANSI)
100
AcDbLine
 10
3302.649207933609
 20
210.000004550463
 30
0.0
 11
3428.649207933609
 21
210.000004550463
 31
0.0
  0
LINE
  5
132F
330
11E9
100
AcDbEntity
  8
Visible (ANSI)
100
AcDbLine
 10
3302.649207933609
 20
210.000004550463
 30
0.0
 11
3302.649207933609
 21
252.000004550463
 31
0.0
  0
LINE
  5
1330
330
11E9
100
AcDbEntity
  8
Visible (ANSI)
100
AcDbLine
 10
3428.649207933609
 20
210.000004550463
 30
0.0
 11
3428.649207933609
 21
252.000004550463
 31
0.0
  0
LINE
  5
1331
330
11E9
100
AcDbEntity
  8
Visible (ANSI)
100
AcDbLine
 10
3428.649207933609
 20
294.0000045504626
 30
0.0
 11
3302.649207933609
 21
294.0000045504626
 31
0.0
  0
LINE
  5
1332
330
11E9
100
AcDbEntity
  8
Visible (ANSI)
100
AcDbLine
 10
3302.649207933609
 20
252.000004550463
 30
0.0
 11
3428.649207933609
 21
252.000004550463
 31
0.0
  0
LINE
  5
1333
330
11E9
100
AcDbEntity
  8
Visible (ANSI)
100
AcDbLine
 10
3302.649207933609
 20
252.000004550463
 30
0.0
 11
3302.649207933609
 21
294.000004550463
 31
0.0
  0
LINE
  5
1334
330
11E9
100
AcDbEntity
  8
Visible (ANSI)
100
AcDbLine
 10
3428.649207933609
 20
252.000004550463
 30
0.0
 11
3428.649207933609
 21
294.000004550463
 31
0.0
  0
LINE
  5
1335
330
11E9
100
AcDbEntity
  8
Visible (ANSI)
100
AcDbLine
 10
3428.649207933609
 20
336.0000045504626
 30
0.0
 11
3302.649207933609
 21
336.0000045504626
 31
0.0
  0
LINE
  5
1336
330
11E9
100
AcDbEntity
  8
Visible (ANSI)
100
AcDbLine
 10
3302.649207933609
 20
294.0000045504626
 30
0.0
 11
3428.649207933609
 21
294.0000045504626
 31
0.0
  0
LINE
  5
1337
330
11E9
100
AcDbEntity
  8
Visible (ANSI)
100
AcDbLine
 10
3302.649207933609
 20
294.0000045504626
 30
0.0
 11
3302.649207933609
 21
336.000004550463
 31
0.0
  0
LINE
  5
1338
330
11E9
100
AcDbEntity
  8
Visible (ANSI)
100
AcDbLine
 10
3428.649207933609
 20
294.0000045504626
 30
0.0
 11
3428.649207933609
 21
336.000004550463
 31
0.0
  0
LINE
  5
1339
330
11E9
100
AcDbEntity
  8
Visible (ANSI)
100
AcDbLine
 10
3428.649207933609
 20
378.0000045504626
 30
0.0
 11
3302.649207933609
 21
378.0000045504626
 31
0.0
  0
LINE
  5
133A
330
11E9
100
AcDbEntity
  8
Visible (ANSI)
100
AcDbLine
 10
3302.649207933609
 20
336.000004550463
 30
0.0
 11
3428.649207933609
 21
336.000004550463
 31
0.0
  0
LINE
  5
133B
330
11E9
100
AcDbEntity
  8
Visible (ANSI)
100
AcDbLine
 10
3302.649207933609
 20
336.000004550463
 30
0.0
 11
3302.649207933609
 21
378.000004550463
 31
0.0
  0
LINE
  5
133C
330
11E9
100
AcDbEntity
  8
Visible (ANSI)
100
AcDbLine
 10
3428.649207933609
 20
336.000004550463
 30
0.0
 11
3428.649207933609
 21
378.000004550463
 31
0.0
  0
LINE
  5
133D
330
11E9
100
AcDbEntity
  8
Visible (ANSI)
100
AcDbLine
 10
3428.649207933609
 20
420.0000045504626
 30
0.0
 11
3302.649207933609
 21
420.0000045504626
 31
0.0
  0
LINE
  5
133E
330
11E9
100
AcDbEntity
  8
Visible (ANSI)
100
AcDbLine
 10
3302.649207933609
 20
378.0000045504626
 30
0.0
 11
3428.649207933609
 21
378.0000045504626
 31
0.0
  0
LINE
  5
133F
330
11E9
100
AcDbEntity
  8
Visible (ANSI)
100
AcDbLine
 10
3302.649207933609
 20
378.0000045504626
 30
0.0
 11
3302.649207933609
 21
420.0000045504626
 31
0.0
  0
LINE
  5
1340
330
11E9
100
AcDbEntity
  8
Visible (ANSI)
100
AcDbLine
 10
3428.649207933609
 20
378.0000045504626
 30
0.0
 11
3428.649207933609
 21
420.0000045504626
 31
0.0
  0
LINE
  5
1341
330
11E9
100
AcDbEntity
  8
Visible (ANSI)
100
AcDbLine
 10
3428.649207933609
 20
462.0000045504625
 30
0.0
 11
3302.649207933609
 21
462.0000045504625
 31
0.0
  0
LINE
  5
1342
330
11E9
100
AcDbEntity
  8
Visible (ANSI)
100
AcDbLine
 10
3302.649207933609
 20
420.0000045504626
 30
0.0
 11
3428.649207933609
 21
420.0000045504626
 31
0.0
  0
LINE
  5
1343
330
11E9
100
AcDbEntity
  8
Visible (ANSI)
100
AcDbLine
 10
3302.649207933609
 20
420.0000045504626
 30
0.0
 11
3302.649207933609
 21
462.0000045504625
 31
0.0
  0
LINE
  5
1344
330
11E9
100
AcDbEntity
  8
Visible (ANSI)
100
AcDbLine
 10
3428.649207933609
 20
420.0000045504626
 30
0.0
 11
3428.649207933609
 21
462.0000045504625
 31
0.0
  0
LINE
  5
1345
330
11E9
100
AcDbEntity
  8
Visible (ANSI)
100
AcDbLine
 10
3428.649207933609
 20
504.000004550463
 30
0.0
 11
3302.649207933609
 21
504.000004550463
 31
0.0
  0
LINE
  5
1346
330
11E9
100
AcDbEntity
  8
Visible (ANSI)
100
AcDbLine
 10
3302.649207933609
 20
462.0000045504625
 30
0.0
 11
3428.649207933609
 21
462.0000045504625
 31
0.0
  0
LINE
  5
1347
330
11E9
100
AcDbEntity
  8
Visible (ANSI)
100
AcDbLine
 10
3302.649207933609
 20
462.0000045504625
 30
0.0
 11
3302.649207933609
 21
504.000004550463
 31
0.0
  0
LINE
  5
1348
330
11E9
100
AcDbEntity
  8
Visible (ANSI)
100
AcDbLine
 10
3428.649207933609
 20
462.0000045504625
 30
0.0
 11
3428.649207933609
 21
504.000004550463
 31
0.0
  0
LINE
  5
1349
330
11E9
100
AcDbEntity
  8
Visible (ANSI)
100
AcDbLine
 10
3428.649207933609
 20
546.000004550463
 30
0.0
 11
3302.649207933609
 21
546.000004550463
 31
0.0
  0
LINE
  5
134A
330
11E9
100
AcDbEntity
  8
Visible (ANSI)
100
AcDbLine
 10
3302.649207933609
 20
504.000004550463
 30
0.0
 11
3428.649207933609
 21
504.000004550463
 31
0.0
  0
LINE
  5
134B
330
11E9
100
AcDbEntity
  8
Visible (ANSI)
100
AcDbLine
 10
3302.649207933609
 20
504.000004550463
 30
0.0
 11
3302.649207933609
 21
546.000004550463
 31
0.0
  0
LINE
  5
134C
330
11E9
100
AcDbEntity
  8
Visible (ANSI)
100
AcDbLine
 10
3428.649207933609
 20
504.000004550463
 30
0.0
 11
3428.649207933609
 21
546.000004550463
 31
0.0
  0
LINE
  5
134D
330
11E9
100
AcDbEntity
  8
Visible (ANSI)
100
AcDbLine
 10
3428.649207933609
 20
588.0000045504625
 30
0.0
 11
3302.649207933609
 21
588.0000045504625
 31
0.0
  0
LINE
  5
134E
330
11E9
100
AcDbEntity
  8
Visible (ANSI)
100
AcDbLine
 10
3302.649207933609
 20
546.0000045504621
 30
0.0
 11
3428.649207933609
 21
546.0000045504621
 31
0.0
  0
LINE
  5
134F
330
11E9
100
AcDbEntity
  8
Visible (ANSI)
100
AcDbLine
 10
3302.649207933609
 20
546.0000045504621
 30
0.0
 11
3302.649207933609
 21
588.0000045504625
 31
0.0
  0
LINE
  5
1350
330
11E9
100
AcDbEntity
  8
Visible (ANSI)
100
AcDbLine
 10
3428.649207933609
 20
546.0000045504621
 30
0.0
 11
3428.649207933609
 21
588.0000045504625
 31
0.0
  0
LINE
  5
1351
330
11E9
100
AcDbEntity
  8
Visible (ANSI)
100
AcDbLine
 10
3425.046177553284
 20
630.0000045504625
 30
0.0
 11
3302.649207933609
 21
630.0000045504625
 31
0.0
  0
LINE
  5
1352
330
11E9
100
AcDbEntity
  8
Visible (ANSI)
100
AcDbLine
 10
3302.649207933609
 20
588.0000045504625
 30
0.0
 11
3428.649207933609
 21
588.0000045504625
 31
0.0
  0
LINE
  5
1353
330
11E9
100
AcDbEntity
  8
Visible (ANSI)
100
AcDbLine
 10
3302.649207933609
 20
588.0000045504625
 30
0.0
 11
3302.649207933609
 21
630.0000045504625
 31
0.0
  0
LINE
  5
1354
330
11E9
100
AcDbEntity
  8
Visible (ANSI)
100
AcDbLine
 10
3428.649207933609
 20
588.0000045504625
 30
0.0
 11
3428.649207933609
 21
630.0000045504625
 31
0.0
  0
LINE
  5
1355
330
11E9
100
AcDbEntity
  8
Visible (ANSI)
100
AcDbLine
 10
3935.046177553258
 20
662.0000045504634
 30
0.0
 11
4057.443147172921
 21
662.0000045504634
 31
0.0
  0
LINE
  5
1356
330
11E9
100
AcDbEntity
  8
Visible (ANSI)
100
AcDbLine
 10
4057.443147172921
 20
662.0000045504634
 30
0.0
 11
4057.443147172921
 21
694.0000045504635
 31
0.0
  0
LINE
  5
1357
330
11E9
100
AcDbEntity
  8
Visible (ANSI)
100
AcDbLine
 10
3935.046177553258
 20
694.0000045504635
 30
0.0
 11
3935.046177553258
 21
662.0000045504634
 31
0.0
  0
LINE
  5
1358
330
11E9
100
AcDbEntity
  8
Visible (ANSI)
100
AcDbLine
 10
4057.443147172921
 20
662.0000045504634
 30
0.0
 11
3935.046177553258
 21
662.0000045504634
 31
0.0
  0
LINE
  5
1359
330
11E9
100
AcDbEntity
  8
Visible (ANSI)
100
AcDbLine
 10
3935.046177553258
 20
630.0000045504634
 30
0.0
 11
4057.443147172921
 21
630.0000045504634
 31
0.0
  0
LINE
  5
135A
330
11E9
100
AcDbEntity
  8
Visible (ANSI)
100
AcDbLine
 10
4057.443147172921
 20
662.0000045504634
 30
0.0
 11
4057.443147172921
 21
630.0000045504634
 31
0.0
  0
LINE
  5
135B
330
11E9
100
AcDbEntity
  8
Visible (ANSI)
100
AcDbLine
 10
3935.046177553258
 20
662.0000045504634
 30
0.0
 11
3935.046177553258
 21
630.0000045504634
 31
0.0
  0
LINE
  5
135C
330
11E9
100
AcDbEntity
  8
Visible (ANSI)
100
AcDbLine
 10
3302.649207933609
 20
662.0000045504625
 30
0.0
 11
3425.046177553285
 21
662.0000045504625
 31
0.0
  0
LINE
  5
135D
330
11E9
100
AcDbEntity
  8
Visible (ANSI)
100
AcDbLine
 10
3302.649207933609
 20
662.0000045504625
 30
0.0
 11
3302.649207933609
 21
694.0000045504625
 31
0.0
  0
LINE
  5
135E
330
11E9
100
AcDbEntity
  8
Visible (ANSI)
100
AcDbLine
 10
3425.046177553285
 20
662.0000045504625
 30
0.0
 11
3425.046177553284
 21
694.0000045504625
 31
0.0
  0
LINE
  5
135F
330
11E9
100
AcDbEntity
  8
Visible (ANSI)
100
AcDbLine
 10
3425.046177553285
 20
662.0000045504625
 30
0.0
 11
3302.649207933609
 21
662.0000045504625
 31
0.0
  0
LINE
  5
1360
330
11E9
100
AcDbEntity
  8
Visible (ANSI)
100
AcDbLine
 10
3302.649207933609
 20
630.0000045504625
 30
0.0
 11
3425.046177553284
 21
630.0000045504625
 31
0.0
  0
LINE
  5
1361
330
11E9
100
AcDbEntity
  8
Visible (ANSI)
100
AcDbLine
 10
3302.649207933609
 20
662.0000045504625
 30
0.0
 11
3302.649207933609
 21
630.0000045504625
 31
0.0
  0
LINE
  5
1362
330
11E9
100
AcDbEntity
  8
Visible (ANSI)
100
AcDbLine
 10
3425.046177553285
 20
630.0000045504625
 30
0.0
 11
3425.046177553285
 21
662.0000045504625
 31
0.0
  0
LINE
  5
1363
330
11E9
100
AcDbEntity
  8
Visible (ANSI)
100
AcDbLine
 10
3169.046177553033
 20
693.000004550463
 30
0.0
 11
3165.046177553032
 21
693.000004550463
 31
0.0
  0
LINE
  5
1364
330
11E9
100
AcDbEntity
  8
Visible (ANSI)
100
AcDbLine
 10
3190.046177553032
 20
693.000004550463
 30
0.0
 11
3186.046177553033
 21
693.000004550463
 31
0.0
  0
LINE
  5
1365
330
11E9
100
AcDbEntity
  8
Visible (ANSI)
100
AcDbLine
 10
3165.046177553032
 20
694.0000045504625
 30
0.0
 11
3165.046177553032
 21
693.000004550463
 31
0.0
  0
LINE
  5
1366
330
11E9
100
AcDbEntity
  8
Visible (ANSI)
100
AcDbLine
 10
3190.046177553032
 20
693.000004550463
 30
0.0
 11
3190.046177553032
 21
694.0000045504625
 31
0.0
  0
LINE
  5
1367
330
11E9
100
AcDbEntity
  8
Visible (ANSI)
100
AcDbLine
 10
3186.046177553033
 20
693.000004550463
 30
0.0
 11
3169.046177553032
 21
693.000004550463
 31
0.0
  0
LINE
  5
1368
330
11E9
100
AcDbEntity
  8
Visible (ANSI)
100
AcDbLine
 10
3179.651177553031
 20
692.5000045504625
 30
0.0
 11
3175.44117755303
 21
692.5000045504625
 31
0.0
  0
ARC
  5
1369
330
11E9
100
AcDbEntity
  8
Visible (ANSI)
100
AcDbCircle
 10
3177.54617755303
 20
696.6810295504624
 30
0.0
 40
4.681024999999992
100
AcDbArc
 50
243.2763424370936
 51
296.7236575629181
  0
LINE
  5
136A
330
11E9
100
AcDbEntity
  8
Visible (ANSI)
100
AcDbLine
 10
3175.44117755303
 20
692.5000045504625
 30
0.0
 11
3175.44117755303
 21
693.000004550463
 31
0.0
  0
LINE
  5
136B
330
11E9
100
AcDbEntity
  8
Visible (ANSI)
100
AcDbLine
 10
3179.651177553031
 20
692.5000045504625
 30
0.0
 11
3179.651177553031
 21
693.000004550463
 31
0.0
  0
ENDBLK
  5
136D
330
11E9
100
AcDbEntity
  8
0
100
AcDbBlockEnd
  0
BLOCK
  5
2A50
330
2996
100
AcDbEntity
  8
0
100
AcDbBlockBegin
  2
A$C2BC623AF
 70
     0
 10
0.0
 20
0.0
 30
0.0
  3
A$C2BC623AF
  1

  0
LINE
  5
2997
330
2996
100
AcDbEntity
  8
Visible (ANSI)
100
AcDbLine
 10
14.99999075473261
 20
281.999997209186
 30
0.0
 11
15.35777547594944
 21
281.999997209186
 31
0.0
  0
LINE
  5
2998
330
2996
100
AcDbEntity
  8
Visible (ANSI)
100
AcDbLine
 10
0.4695832013294421
 20
266.999997209186
 30
0.0
 11
-0.0000092452669378
 21
266.999997209186
 31
0.0
  0
LINE
  5
2999
330
2996
100
AcDbEntity
  8
Visible (ANSI)
100
AcDbLine
 10
57.58719563702015
 20
281.999997209186
 30
0.0
 11
15.35777547594944
 21
281.999997209186
 31
0.0
  0
LINE
  5
299A
330
2996
100
AcDbEntity
  8
Visible (ANSI)
100
AcDbLine
 10
0.4695832013294421
 20
266.999997209186
 30
0.0
 11
42.69900336240062
 21
266.999997209186
 31
0.0
  0
LINE
  5
299B
330
2996
100
AcDbEntity
  8
Visible (ANSI)
100
AcDbLine
 10
57.58719563702015
 20
281.999997209186
 30
0.0
 11
97.72055659387298
 21
281.999997209186
 31
0.0
  0
LINE
  5
299C
330
2996
100
AcDbEntity
  8
Visible (ANSI)
100
AcDbLine
 10
95.3740396182693
 20
266.999997209186
 30
0.0
 11
42.69900336240062
 21
266.999997209186
 31
0.0
  0
LINE
  5
299D
330
2996
100
AcDbEntity
  8
Visible (ANSI)
100
AcDbLine
 10
527.4911364328017
 20
281.999997209186
 30
0.0
 11
97.72055659387298
 21
281.999997209186
 31
0.0
  0
LINE
  5
299E
330
2996
100
AcDbEntity
  8
Visible (ANSI)
100
AcDbLine
 10
95.3740396182693
 20
266.999997209186
 30
0.0
 11
525.1446194571981
 21
266.999997209186
 31
0.0
  0
LINE
  5
299F
330
2996
100
AcDbEntity
  8
Visible (ANSI)
100
AcDbLine
 10
527.4911364328017
 20
281.999997209186
 30
0.0
 11
542.5088450766643
 21
281.999997209186
 31
0.0
  0
LINE
  5
29A0
330
2996
100
AcDbEntity
  8
Visible (ANSI)
100
AcDbLine
 10
544.8553620522671
 20
266.999997209186
 30
0.0
 11
525.1446194571981
 21
266.999997209186
 31
0.0
  0
LINE
  5
29A1
330
2996
100
AcDbEntity
  8
Visible (ANSI)
100
AcDbLine
 10
972.2794249155926
 20
281.999997209186
 30
0.0
 11
542.5088450766638
 21
281.999997209186
 31
0.0
  0
LINE
  5
29A2
330
2996
100
AcDbEntity
  8
Visible (ANSI)
100
AcDbLine
 10
544.8553620522675
 20
266.999997209186
 30
0.0
 11
974.6259418911959
 21
266.999997209186
 31
0.0
  0
LINE
  5
29A3
330
2996
100
AcDbEntity
  8
Visible (ANSI)
100
AcDbLine
 10
972.2794249155926
 20
281.999997209186
 30
0.0
 11
1012.412785872444
 21
281.999997209186
 31
0.0
  0
LINE
  5
29A4
330
2996
100
AcDbEntity
  8
Visible (ANSI)
100
AcDbLine
 10
1027.300978147065
 20
266.999997209186
 30
0.0
 11
974.6259418911959
 21
266.999997209186
 31
0.0
  0
LINE
  5
29A5
330
2996
100
AcDbEntity
  8
Visible (ANSI)
100
AcDbLine
 10
1054.642206033516
 20
281.999997209186
 30
0.0
 11
1012.412785872445
 21
281.999997209186
 31
0.0
  0
LINE
  5
29A6
330
2996
100
AcDbEntity
  8
Visible (ANSI)
100
AcDbLine
 10
1027.300978147065
 20
266.999997209186
 30
0.0
 11
1069.530398308136
 21
266.999997209186
 31
0.0
  0
LINE
  5
29A7
330
2996
100
AcDbEntity
  8
Visible (ANSI)
100
AcDbLine
 10
1054.642206033516
 20
281.999997209186
 30
0.0
 11
1054.999990754732
 21
281.999997209186
 31
0.0
  0
LINE
  5
29A8
330
2996
100
AcDbEntity
  8
Visible (ANSI)
100
AcDbLine
 10
1069.999990754732
 20
266.999997209186
 30
0.0
 11
1069.530398308136
 21
266.999997209186
 31
0.0
  0
LINE
  5
29A9
330
2996
100
AcDbEntity
  8
Visible (ANSI)
100
AcDbLine
 10
14.99999075473261
 20
281.999997209186
 30
0.0
 11
-0.0000092452669378
 21
266.999997209186
 31
0.0
  0
LINE
  5
29AA
330
2996
100
AcDbEntity
  8
Visible (ANSI)
100
AcDbLine
 10
1054.999990754732
 20
281.999997209186
 30
0.0
 11
1069.999990754732
 21
266.999997209186
 31
0.0
  0
LINE
  5
29AB
330
2996
100
AcDbEntity
  8
Visible (ANSI)
100
AcDbLine
 10
-0.0000092452669378
 20
251.9999972091859
 30
0.0
 11
0.4695832013294421
 21
251.9999972091859
 31
0.0
  0
LINE
  5
29AC
330
2996
100
AcDbEntity
  8
Visible (ANSI)
100
AcDbLine
 10
525.1446194571981
 20
251.9999972091859
 30
0.0
 11
544.8553620522671
 21
251.9999972091859
 31
0.0
  0
LINE
  5
29AD
330
2996
100
AcDbEntity
  8
Visible (ANSI)
100
AcDbLine
 10
525.1446194571981
 20
251.9999972091859
 30
0.0
 11
95.3740396182693
 21
251.9999972091859
 31
0.0
  0
LINE
  5
29AE
330
2996
100
AcDbEntity
  8
Visible (ANSI)
100
AcDbLine
 10
42.69900336240062
 20
251.9999972091859
 30
0.0
 11
95.3740396182693
 21
251.9999972091859
 31
0.0
  0
LINE
  5
29AF
330
2996
100
AcDbEntity
  8
Visible (ANSI)
100
AcDbLine
 10
42.69900336240062
 20
251.9999972091859
 30
0.0
 11
0.4695832013294421
 21
251.9999972091859
 31
0.0
  0
LINE
  5
29B0
330
2996
100
AcDbEntity
  8
Visible (ANSI)
100
AcDbLine
 10
1069.530398308136
 20
251.9999972091859
 30
0.0
 11
1069.999990754732
 21
251.9999972091859
 31
0.0
  0
LINE
  5
29B1
330
2996
100
AcDbEntity
  8
Visible (ANSI)
100
AcDbLine
 10
1069.530398308136
 20
251.9999972091859
 30
0.0
 11
1027.300978147065
 21
251.9999972091859
 31
0.0
  0
LINE
  5
29B2
330
2996
100
AcDbEntity
  8
Visible (ANSI)
100
AcDbLine
 10
974.6259418911959
 20
251.9999972091859
 30
0.0
 11
1027.300978147065
 21
251.9999972091859
 31
0.0
  0
LINE
  5
29B3
330
2996
100
AcDbEntity
  8
Visible (ANSI)
100
AcDbLine
 10
974.6259418911959
 20
251.9999972091859
 30
0.0
 11
544.8553620522675
 21
251.9999972091859
 31
0.0
  0
LINE
  5
29B4
330
2996
100
AcDbEntity
  8
Visible (ANSI)
100
AcDbLine
 10
-0.0000092452669378
 20
251.9999972091859
 30
0.0
 11
-0.0000092452669378
 21
266.999997209186
 31
0.0
  0
LINE
  5
29B5
330
2996
100
AcDbEntity
  8
Visible (ANSI)
100
AcDbLine
 10
1069.999990754732
 20
251.9999972091859
 30
0.0
 11
1069.999990754732
 21
266.999997209186
 31
0.0
  0
LINE
  5
29B6
330
2996
100
AcDbEntity
  8
Visible (ANSI)
100
AcDbLine
 10
171.2294907547161
 20
41.99999720918595
 30
0.0
 11
45.2294907547166
 21
41.99999720918595
 31
0.0
  0
LINE
  5
29B7
330
2996
100
AcDbEntity
  8
Visible (ANSI)
100
AcDbLine
 10
45.2294907547166
 20
-0.000002790814051
 30
0.0
 11
171.2294907547166
 21
-0.000002790814051
 31
0.0
  0
LINE
  5
29B8
330
2996
100
AcDbEntity
  8
Visible (ANSI)
100
AcDbLine
 10
45.2294907547166
 20
-0.000002790814051
 30
0.0
 11
45.2294907547166
 21
41.99999720918595
 31
0.0
  0
LINE
  5
29B9
330
2996
100
AcDbEntity
  8
Visible (ANSI)
100
AcDbLine
 10
171.2294907547161
 20
-0.000002790814051
 30
0.0
 11
171.2294907547161
 21
41.99999720918595
 31
0.0
  0
LINE
  5
29BA
330
2996
100
AcDbEntity
  8
Visible (ANSI)
100
AcDbLine
 10
171.2294907547161
 20
83.99999720918549
 30
0.0
 11
45.2294907547166
 21
83.99999720918549
 31
0.0
  0
LINE
  5
29BB
330
2996
100
AcDbEntity
  8
Visible (ANSI)
100
AcDbLine
 10
45.2294907547166
 20
41.99999720918595
 30
0.0
 11
171.2294907547166
 21
41.99999720918595
 31
0.0
  0
LINE
  5
29BC
330
2996
100
AcDbEntity
  8
Visible (ANSI)
100
AcDbLine
 10
45.2294907547166
 20
41.99999720918595
 30
0.0
 11
45.2294907547166
 21
83.99999720918549
 31
0.0
  0
LINE
  5
29BD
330
2996
100
AcDbEntity
  8
Visible (ANSI)
100
AcDbLine
 10
171.2294907547161
 20
41.99999720918595
 30
0.0
 11
171.2294907547161
 21
83.99999720918549
 31
0.0
  0
LINE
  5
29BE
330
2996
100
AcDbEntity
  8
Visible (ANSI)
100
AcDbLine
 10
171.2294907547161
 20
125.9999972091855
 30
0.0
 11
45.2294907547166
 21
125.9999972091855
 31
0.0
  0
LINE
  5
29BF
330
2996
100
AcDbEntity
  8
Visible (ANSI)
100
AcDbLine
 10
45.2294907547166
 20
83.99999720918549
 30
0.0
 11
171.2294907547166
 21
83.99999720918549
 31
0.0
  0
LINE
  5
29C0
330
2996
100
AcDbEntity
  8
Visible (ANSI)
100
AcDbLine
 10
45.2294907547166
 20
83.99999720918549
 30
0.0
 11
45.2294907547166
 21
125.9999972091855
 31
0.0
  0
LINE
  5
29C1
330
2996
100
AcDbEntity
  8
Visible (ANSI)
100
AcDbLine
 10
171.2294907547161
 20
83.99999720918549
 30
0.0
 11
171.2294907547161
 21
125.9999972091855
 31
0.0
  0
LINE
  5
29C2
330
2996
100
AcDbEntity
  8
Visible (ANSI)
100
AcDbLine
 10
171.2294907547161
 20
167.9999972091859
 30
0.0
 11
45.2294907547166
 21
167.9999972091859
 31
0.0
  0
LINE
  5
29C3
330
2996
100
AcDbEntity
  8
Visible (ANSI)
100
AcDbLine
 10
45.2294907547166
 20
125.9999972091864
 30
0.0
 11
171.2294907547166
 21
125.9999972091864
 31
0.0
  0
LINE
  5
29C4
330
2996
100
AcDbEntity
  8
Visible (ANSI)
100
AcDbLine
 10
45.2294907547166
 20
125.9999972091864
 30
0.0
 11
45.2294907547166
 21
167.9999972091859
 31
0.0
  0
LINE
  5
29C5
330
2996
100
AcDbEntity
  8
Visible (ANSI)
100
AcDbLine
 10
171.2294907547161
 20
125.9999972091864
 30
0.0
 11
171.2294907547161
 21
167.9999972091859
 31
0.0
  0
LINE
  5
29C6
330
2996
100
AcDbEntity
  8
Visible (ANSI)
100
AcDbLine
 10
171.2294907547161
 20
209.9999972091859
 30
0.0
 11
45.2294907547166
 21
209.9999972091859
 31
0.0
  0
LINE
  5
29C7
330
2996
100
AcDbEntity
  8
Visible (ANSI)
100
AcDbLine
 10
45.2294907547166
 20
167.9999972091859
 30
0.0
 11
171.2294907547166
 21
167.9999972091859
 31
0.0
  0
LINE
  5
29C8
330
2996
100
AcDbEntity
  8
Visible (ANSI)
100
AcDbLine
 10
45.2294907547166
 20
167.9999972091859
 30
0.0
 11
45.2294907547166
 21
209.9999972091859
 31
0.0
  0
LINE
  5
29C9
330
2996
100
AcDbEntity
  8
Visible (ANSI)
100
AcDbLine
 10
171.2294907547161
 20
167.9999972091859
 30
0.0
 11
171.2294907547161
 21
209.9999972091859
 31
0.0
  0
LINE
  5
29CA
330
2996
100
AcDbEntity
  8
Visible (ANSI)
100
AcDbLine
 10
1024.77049075475
 20
41.99999720918458
 30
0.0
 11
898.7704907547499
 21
41.99999720918458
 31
0.0
  0
LINE
  5
29CB
330
2996
100
AcDbEntity
  8
Visible (ANSI)
100
AcDbLine
 10
898.7704907547499
 20
-0.00000279081587
 30
0.0
 11
1024.77049075475
 21
-0.00000279081587
 31
0.0
  0
LINE
  5
29CC
330
2996
100
AcDbEntity
  8
Visible (ANSI)
100
AcDbLine
 10
898.7704907547499
 20
-0.00000279081587
 30
0.0
 11
898.7704907547499
 21
41.99999720918458
 31
0.0
  0
LINE
  5
29CD
330
2996
100
AcDbEntity
  8
Visible (ANSI)
100
AcDbLine
 10
1024.77049075475
 20
-0.00000279081587
 30
0.0
 11
1024.77049075475
 21
41.99999720918458
 31
0.0
  0
LINE
  5
29CE
330
2996
100
AcDbEntity
  8
Visible (ANSI)
100
AcDbLine
 10
1024.77049075475
 20
83.99999720918504
 30
0.0
 11
898.7704907547499
 21
83.99999720918504
 31
0.0
  0
LINE
  5
29CF
330
2996
100
AcDbEntity
  8
Visible (ANSI)
100
AcDbLine
 10
898.7704907547499
 20
41.99999720918458
 30
0.0
 11
1024.77049075475
 21
41.99999720918458
 31
0.0
  0
LINE
  5
29D0
330
2996
100
AcDbEntity
  8
Visible (ANSI)
100
AcDbLine
 10
898.7704907547499
 20
41.99999720918458
 30
0.0
 11
898.7704907547499
 21
83.99999720918504
 31
0.0
  0
LINE
  5
29D1
330
2996
100
AcDbEntity
  8
Visible (ANSI)
100
AcDbLine
 10
1024.77049075475
 20
41.99999720918458
 30
0.0
 11
1024.77049075475
 21
83.99999720918504
 31
0.0
  0
LINE
  5
29D2
330
2996
100
AcDbEntity
  8
Visible (ANSI)
100
AcDbLine
 10
1024.77049075475
 20
125.999997209185
 30
0.0
 11
898.7704907547499
 21
125.999997209185
 31
0.0
  0
LINE
  5
29D3
330
2996
100
AcDbEntity
  8
Visible (ANSI)
100
AcDbLine
 10
898.7704907547499
 20
83.99999720918458
 30
0.0
 11
1024.77049075475
 21
83.99999720918458
 31
0.0
  0
LINE
  5
29D4
330
2996
100
AcDbEntity
  8
Visible (ANSI)
100
AcDbLine
 10
898.7704907547499
 20
83.99999720918458
 30
0.0
 11
898.7704907547499
 21
125.999997209185
 31
0.0
  0
LINE
  5
29D5
330
2996
100
AcDbEntity
  8
Visible (ANSI)
100
AcDbLine
 10
1024.77049075475
 20
83.99999720918458
 30
0.0
 11
1024.77049075475
 21
125.999997209185
 31
0.0
  0
LINE
  5
29D6
330
2996
100
AcDbEntity
  8
Visible (ANSI)
100
AcDbLine
 10
1024.77049075475
 20
167.9999972091855
 30
0.0
 11
898.7704907547499
 21
167.9999972091855
 31
0.0
  0
LINE
  5
29D7
330
2996
100
AcDbEntity
  8
Visible (ANSI)
100
AcDbLine
 10
898.7704907547499
 20
125.999997209185
 30
0.0
 11
1024.77049075475
 21
125.999997209185
 31
0.0
  0
LINE
  5
29D8
330
2996
100
AcDbEntity
  8
Visible (ANSI)
100
AcDbLine
 10
898.7704907547499
 20
125.999997209185
 30
0.0
 11
898.7704907547499
 21
167.9999972091855
 31
0.0
  0
LINE
  5
29D9
330
2996
100
AcDbEntity
  8
Visible (ANSI)
100
AcDbLine
 10
1024.77049075475
 20
125.999997209185
 30
0.0
 11
1024.77049075475
 21
167.9999972091855
 31
0.0
  0
LINE
  5
29DA
330
2996
100
AcDbEntity
  8
Visible (ANSI)
100
AcDbLine
 10
1024.77049075475
 20
209.9999972091859
 30
0.0
 11
898.7704907547499
 21
209.9999972091859
 31
0.0
  0
LINE
  5
29DB
330
2996
100
AcDbEntity
  8
Visible (ANSI)
100
AcDbLine
 10
898.7704907547499
 20
167.9999972091855
 30
0.0
 11
1024.77049075475
 21
167.9999972091855
 31
0.0
  0
LINE
  5
29DC
330
2996
100
AcDbEntity
  8
Visible (ANSI)
100
AcDbLine
 10
898.7704907547499
 20
167.9999972091855
 30
0.0
 11
898.7704907547499
 21
209.9999972091859
 31
0.0
  0
LINE
  5
29DD
330
2996
100
AcDbEntity
  8
Visible (ANSI)
100
AcDbLine
 10
1024.77049075475
 20
167.9999972091855
 30
0.0
 11
1024.77049075475
 21
209.9999972091859
 31
0.0
  0
LINE
  5
29DE
330
2996
100
AcDbEntity
  8
Visible (ANSI)
100
AcDbLine
 10
45.2294907547166
 20
209.9999972091859
 30
0.0
 11
171.2294907547161
 21
209.9999972091859
 31
0.0
  0
LINE
  5
29DF
330
2996
100
AcDbEntity
  8
Visible (ANSI)
100
AcDbLine
 10
45.2294907547166
 20
209.9999972091859
 30
0.0
 11
45.2294907547166
 21
251.9999972091859
 31
0.0
  0
LINE
  5
29E0
330
2996
100
AcDbEntity
  8
Visible (ANSI)
100
AcDbLine
 10
171.2294907547161
 20
209.9999972091859
 30
0.0
 11
171.2294907547161
 21
251.9999972091859
 31
0.0
  0
LINE
  5
29E1
330
2996
100
AcDbEntity
  8
Visible (ANSI)
100
AcDbLine
 10
898.7704907547499
 20
209.9999972091859
 30
0.0
 11
1024.77049075475
 21
209.9999972091859
 31
0.0
  0
LINE
  5
29E2
330
2996
100
AcDbEntity
  8
Visible (ANSI)
100
AcDbLine
 10
898.7704907547499
 20
209.9999972091859
 30
0.0
 11
898.7704907547499
 21
251.9999972091859
 31
0.0
  0
LINE
  5
29E3
330
2996
100
AcDbEntity
  8
Visible (ANSI)
100
AcDbLine
 10
1024.77049075475
 20
209.9999972091859
 30
0.0
 11
1024.77049075475
 21
251.9999972091859
 31
0.0
  0
LINE
  5
29E4
330
2996
100
AcDbEntity
  8
Visible (ANSI)
100
AcDbLine
 10
534.9999907547326
 20
246.9999972091859
 30
0.0
 11
171.2294907547016
 21
246.9999972091859
 31
0.0
  0
LINE
  5
29E5
330
2996
100
AcDbEntity
  8
Visible (ANSI)
100
AcDbLine
 10
534.9999907547326
 20
250.9999972091855
 30
0.0
 11
534.9999907547326
 21
246.9999972091859
 31
0.0
  0
LINE
  5
29E6
330
2996
100
AcDbEntity
  8
Visible (ANSI)
100
AcDbLine
 10
898.7704907547641
 20
246.9999972091859
 30
0.0
 11
534.9999907547326
 21
246.9999972091859
 31
0.0
  0
LINE
  5
29E7
330
2996
100
AcDbEntity
  8
Visible (ANSI)
100
AcDbLine
 10
578.9999907547326
 20
250.9999972091855
 30
0.0
 11
574.9999907547326
 21
250.9999972091855
 31
0.0
  0
LINE
  5
29E8
330
2996
100
AcDbEntity
  8
Visible (ANSI)
100
AcDbLine
 10
494.9999907547326
 20
250.9999972091855
 30
0.0
 11
490.9999907547326
 21
250.9999972091855
 31
0.0
  0
LINE
  5
29E9
330
2996
100
AcDbEntity
  8
Visible (ANSI)
100
AcDbLine
 10
490.9999907547326
 20
251.9999972091859
 30
0.0
 11
490.9999907547326
 21
250.9999972091855
 31
0.0
  0
LINE
  5
29EA
330
2996
100
AcDbEntity
  8
Visible (ANSI)
100
AcDbLine
 10
578.9999907547326
 20
250.9999972091855
 30
0.0
 11
578.9999907547326
 21
251.9999972091859
 31
0.0
  0
LINE
  5
29EB
330
2996
100
AcDbEntity
  8
Visible (ANSI)
100
AcDbLine
 10
574.9999907547326
 20
250.9999972091855
 30
0.0
 11
494.9999907547326
 21
250.9999972091855
 31
0.0
  0
LINE
  5
29EC
330
2996
100
AcDbEntity
  8
Visible (ANSI)
100
AcDbLine
 10
573.1049907547326
 20
250.4999972091855
 30
0.0
 11
568.8949907547326
 21
250.4999972091855
 31
0.0
  0
ARC
  5
29ED
330
2996
100
AcDbEntity
  8
Visible (ANSI)
100
AcDbCircle
 10
570.9999907547326
 20
254.6810222091858
 30
0.0
 40
4.681024999999993
100
AcDbArc
 50
243.276342437082
 51
296.7236575629181
  0
LINE
  5
29EE
330
2996
100
AcDbEntity
  8
Visible (ANSI)
100
AcDbLine
 10
568.8949907547326
 20
250.4999972091855
 30
0.0
 11
568.8949907547326
 21
250.9999972091855
 31
0.0
  0
LINE
  5
29EF
330
2996
100
AcDbEntity
  8
Visible (ANSI)
100
AcDbLine
 10
573.1049907547326
 20
250.4999972091855
 30
0.0
 11
573.1049907547326
 21
250.9999972091855
 31
0.0
  0
LINE
  5
29F0
330
2996
100
AcDbEntity
  8
Visible (ANSI)
100
AcDbLine
 10
501.1049907547326
 20
250.4999972091855
 30
0.0
 11
496.894990754733
 21
250.4999972091855
 31
0.0
  0
ARC
  5
29F1
330
2996
100
AcDbEntity
  8
Visible (ANSI)
100
AcDbCircle
 10
498.9999907547326
 20
254.6810222091858
 30
0.0
 40
4.681024999999993
100
AcDbArc
 50
243.276342437082
 51
296.7236575629181
  0
LINE
  5
29F2
330
2996
100
AcDbEntity
  8
Visible (ANSI)
100
AcDbLine
 10
496.894990754733
 20
250.4999972091855
 30
0.0
 11
496.894990754733
 21
250.9999972091855
 31
0.0
  0
LINE
  5
29F3
330
2996
100
AcDbEntity
  8
Visible (ANSI)
100
AcDbLine
 10
501.1049907547326
 20
250.4999972091855
 30
0.0
 11
501.1049907547326
 21
250.9999972091855
 31
0.0
  0
LINE
  5
29F4
330
2996
100
AcDbEntity
  8
Visible (ANSI)
100
AcDbLine
 10
2968.53332770282
 20
281.999997209186
 30
0.0
 11
2624.602300458573
 21
281.999997209186
 31
0.0
  0
LINE
  5
29F5
330
2996
100
AcDbEntity
  8
Visible (ANSI)
100
AcDbLine
 10
2626.430340609655
 20
266.999997209186
 30
0.0
 11
2970.361367853901
 21
266.999997209186
 31
0.0
  0
LINE
  5
29F6
330
2996
100
AcDbEntity
  8
Visible (ANSI)
100
AcDbLine
 10
2968.533327702818
 20
281.999997209186
 30
0.0
 11
3010.092639567927
 21
281.999997209186
 31
0.0
  0
LINE
  5
29F7
330
2996
100
AcDbEntity
  8
Visible (ANSI)
100
AcDbLine
 10
3024.907964676855
 20
266.999997209186
 30
0.0
 11
2970.361367853901
 21
266.999997209186
 31
0.0
  0
LINE
  5
29F8
330
2996
100
AcDbEntity
  8
Visible (ANSI)
100
AcDbLine
 10
3078.161612323541
 20
281.999997209186
 30
0.0
 11
3010.092639567927
 21
281.999997209186
 31
0.0
  0
LINE
  5
29F9
330
2996
100
AcDbEntity
  8
Visible (ANSI)
100
AcDbLine
 10
3024.907964676857
 20
266.999997209186
 30
0.0
 11
3092.976937432469
 21
266.999997209186
 31
0.0
  0
LINE
  5
29FA
330
2996
100
AcDbEntity
  8
Visible (ANSI)
100
AcDbLine
 10
3078.161612323541
 20
281.999997209186
 30
0.0
 11
3078.752571974972
 21
281.999997209186
 31
0.0
  0
LINE
  5
29FB
330
2996
100
AcDbEntity
  8
Visible (ANSI)
100
AcDbLine
 10
3093.752571974972
 20
266.999997209186
 30
0.0
 11
3092.976937432469
 21
266.999997209186
 31
0.0
  0
LINE
  5
29FC
330
2996
100
AcDbEntity
  8
Visible (ANSI)
100
AcDbLine
 10
2158.752571974972
 20
281.999997209186
 30
0.0
 11
2159.343531626408
 21
281.999997209186
 31
0.0
  0
LINE
  5
29FD
330
2996
100
AcDbEntity
  8
Visible (ANSI)
100
AcDbLine
 10
2144.528206517481
 20
266.999997209186
 30
0.0
 11
2143.752571974972
 21
266.999997209186
 31
0.0
  0
LINE
  5
29FE
330
2996
100
AcDbEntity
  8
Visible (ANSI)
100
AcDbLine
 10
2227.412504382275
 20
281.999997209186
 30
0.0
 11
2159.343531626408
 21
281.999997209186
 31
0.0
  0
LINE
  5
29FF
330
2996
100
AcDbEntity
  8
Visible (ANSI)
100
AcDbLine
 10
2144.528206517481
 20
266.999997209186
 30
0.0
 11
2212.597179273349
 21
266.999997209186
 31
0.0
  0
LINE
  5
2A00
330
2996
100
AcDbEntity
  8
Visible (ANSI)
100
AcDbLine
 10
2227.412504382275
 20
281.999997209186
 30
0.0
 11
2268.971816247407
 21
281.999997209186
 31
0.0
  0
LINE
  5
2A01
330
2996
100
AcDbEntity
  8
Visible (ANSI)
100
AcDbLine
 10
2267.143776096335
 20
266.999997209186
 30
0.0
 11
2212.597179273349
 21
266.999997209186
 31
0.0
  0
LINE
  5
2A02
330
2996
100
AcDbEntity
  8
Visible (ANSI)
100
AcDbLine
 10
2612.902843491679
 20
281.999997209186
 30
0.0
 11
2268.971816247407
 21
281.999997209186
 31
0.0
  0
LINE
  5
2A03
330
2996
100
AcDbEntity
  8
Visible (ANSI)
100
AcDbLine
 10
2267.143776096335
 20
266.999997209186
 30
0.0
 11
2611.074803340607
 21
266.999997209186
 31
0.0
  0
LINE
  5
2A04
330
2996
100
AcDbEntity
  8
Visible (ANSI)
100
AcDbLine
 10
2612.902843491679
 20
281.999997209186
 30
0.0
 11
2624.602300458573
 21
281.999997209186
 31
0.0
  0
LINE
  5
2A05
330
2996
100
AcDbEntity
  8
Visible (ANSI)
100
AcDbLine
 10
2626.430340609655
 20
266.999997209186
 30
0.0
 11
2611.074803340606
 21
266.999997209186
 31
0.0
  0
LINE
  5
2A06
330
2996
100
AcDbEntity
  8
Visible (ANSI)
100
AcDbLine
 10
3078.752571974972
 20
281.999997209186
 30
0.0
 11
3093.752571974972
 21
266.999997209186
 31
0.0
  0
LINE
  5
2A07
330
2996
100
AcDbEntity
  8
Visible (ANSI)
100
AcDbLine
 10
2158.752571974972
 20
281.999997209186
 30
0.0
 11
2143.752571974972
 21
266.999997209186
 31
0.0
  0
LINE
  5
2A08
330
2996
100
AcDbEntity
  8
Visible (ANSI)
100
AcDbLine
 10
3092.976937432469
 20
251.9999972091859
 30
0.0
 11
3093.752571974972
 21
251.9999972091859
 31
0.0
  0
LINE
  5
2A09
330
2996
100
AcDbEntity
  8
Visible (ANSI)
100
AcDbLine
 10
3092.976937432469
 20
251.9999972091859
 30
0.0
 11
3024.907964676857
 21
251.9999972091859
 31
0.0
  0
LINE
  5
2A0A
330
2996
100
AcDbEntity
  8
Visible (ANSI)
100
AcDbLine
 10
2970.361367853901
 20
251.9999972091859
 30
0.0
 11
3024.907964676855
 21
251.9999972091859
 31
0.0
  0
LINE
  5
2A0B
330
2996
100
AcDbEntity
  8
Visible (ANSI)
100
AcDbLine
 10
2970.361367853901
 20
251.9999972091859
 30
0.0
 11
2626.430340609655
 21
251.9999972091859
 31
0.0
  0
LINE
  5
2A0C
330
2996
100
AcDbEntity
  8
Visible (ANSI)
100
AcDbLine
 10
2143.752571974972
 20
251.9999972091859
 30
0.0
 11
2144.528206517481
 21
251.9999972091859
 31
0.0
  0
LINE
  5
2A0D
330
2996
100
AcDbEntity
  8
Visible (ANSI)
100
AcDbLine
 10
2611.074803340607
 20
251.9999972091859
 30
0.0
 11
2626.430340609655
 21
251.9999972091859
 31
0.0
  0
LINE
  5
2A0E
330
2996
100
AcDbEntity
  8
Visible (ANSI)
100
AcDbLine
 10
2611.074803340607
 20
251.9999972091859
 30
0.0
 11
2267.143776096335
 21
251.9999972091859
 31
0.0
  0
LINE
  5
2A0F
330
2996
100
AcDbEntity
  8
Visible (ANSI)
100
AcDbLine
 10
2212.597179273349
 20
251.9999972091859
 30
0.0
 11
2267.143776096335
 21
251.9999972091859
 31
0.0
  0
LINE
  5
2A10
330
2996
100
AcDbEntity
  8
Visible (ANSI)
100
AcDbLine
 10
2212.597179273349
 20
251.9999972091859
 30
0.0
 11
2144.528206517481
 21
251.9999972091859
 31
0.0
  0
LINE
  5
2A11
330
2996
100
AcDbEntity
  8
Visible (ANSI)
100
AcDbLine
 10
3093.752571974972
 20
251.9999972091859
 30
0.0
 11
3093.752571974972
 21
266.999997209186
 31
0.0
  0
LINE
  5
2A12
330
2996
100
AcDbEntity
  8
Visible (ANSI)
100
AcDbLine
 10
2143.752571974972
 20
251.9999972091859
 30
0.0
 11
2143.752571974972
 21
266.999997209186
 31
0.0
  0
LINE
  5
2A13
330
2996
100
AcDbEntity
  8
Visible (ANSI)
100
AcDbLine
 10
2340.821571975091
 20
41.99999720918458
 30
0.0
 11
2214.82157197509
 21
41.99999720918458
 31
0.0
  0
LINE
  5
2A14
330
2996
100
AcDbEntity
  8
Visible (ANSI)
100
AcDbLine
 10
2214.82157197509
 20
-0.00000279081587
 30
0.0
 11
2340.821571975091
 21
-0.00000279081587
 31
0.0
  0
LINE
  5
2A15
330
2996
100
AcDbEntity
  8
Visible (ANSI)
100
AcDbLine
 10
2214.82157197509
 20
-0.00000279081587
 30
0.0
 11
2214.82157197509
 21
41.99999720918458
 31
0.0
  0
LINE
  5
2A16
330
2996
100
AcDbEntity
  8
Visible (ANSI)
100
AcDbLine
 10
2340.821571975091
 20
-0.00000279081587
 30
0.0
 11
2340.821571975091
 21
41.99999720918458
 31
0.0
  0
LINE
  5
2A17
330
2996
100
AcDbEntity
  8
Visible (ANSI)
100
AcDbLine
 10
2340.821571975091
 20
83.99999720918504
 30
0.0
 11
2214.82157197509
 21
83.99999720918504
 31
0.0
  0
LINE
  5
2A18
330
2996
100
AcDbEntity
  8
Visible (ANSI)
100
AcDbLine
 10
2214.82157197509
 20
41.99999720918458
 30
0.0
 11
2340.821571975091
 21
41.99999720918458
 31
0.0
  0
LINE
  5
2A19
330
2996
100
AcDbEntity
  8
Visible (ANSI)
100
AcDbLine
 10
2214.82157197509
 20
41.99999720918458
 30
0.0
 11
2214.82157197509
 21
83.99999720918504
 31
0.0
  0
LINE
  5
2A1A
330
2996
100
AcDbEntity
  8
Visible (ANSI)
100
AcDbLine
 10
2340.821571975091
 20
41.99999720918458
 30
0.0
 11
2340.821571975091
 21
83.99999720918504
 31
0.0
  0
LINE
  5
2A1B
330
2996
100
AcDbEntity
  8
Visible (ANSI)
100
AcDbLine
 10
2340.821571975091
 20
125.999997209185
 30
0.0
 11
2214.82157197509
 21
125.999997209185
 31
0.0
  0
LINE
  5
2A1C
330
2996
100
AcDbEntity
  8
Visible (ANSI)
100
AcDbLine
 10
2214.82157197509
 20
83.99999720918458
 30
0.0
 11
2340.821571975091
 21
83.99999720918458
 31
0.0
  0
LINE
  5
2A1D
330
2996
100
AcDbEntity
  8
Visible (ANSI)
100
AcDbLine
 10
2214.82157197509
 20
83.99999720918458
 30
0.0
 11
2214.82157197509
 21
125.999997209185
 31
0.0
  0
LINE
  5
2A1E
330
2996
100
AcDbEntity
  8
Visible (ANSI)
100
AcDbLine
 10
2340.821571975091
 20
83.99999720918458
 30
0.0
 11
2340.821571975091
 21
125.999997209185
 31
0.0
  0
LINE
  5
2A1F
330
2996
100
AcDbEntity
  8
Visible (ANSI)
100
AcDbLine
 10
2340.821571975091
 20
167.9999972091855
 30
0.0
 11
2214.82157197509
 21
167.9999972091855
 31
0.0
  0
LINE
  5
2A20
330
2996
100
AcDbEntity
  8
Visible (ANSI)
100
AcDbLine
 10
2214.82157197509
 20
125.999997209185
 30
0.0
 11
2340.821571975091
 21
125.999997209185
 31
0.0
  0
LINE
  5
2A21
330
2996
100
AcDbEntity
  8
Visible (ANSI)
100
AcDbLine
 10
2214.82157197509
 20
125.999997209185
 30
0.0
 11
2214.82157197509
 21
167.9999972091855
 31
0.0
  0
LINE
  5
2A22
330
2996
100
AcDbEntity
  8
Visible (ANSI)
100
AcDbLine
 10
2340.821571975091
 20
125.999997209185
 30
0.0
 11
2340.821571975091
 21
167.9999972091855
 31
0.0
  0
LINE
  5
2A23
330
2996
100
AcDbEntity
  8
Visible (ANSI)
100
AcDbLine
 10
2340.821571975091
 20
209.9999972091859
 30
0.0
 11
2214.82157197509
 21
209.9999972091859
 31
0.0
  0
LINE
  5
2A24
330
2996
100
AcDbEntity
  8
Visible (ANSI)
100
AcDbLine
 10
2214.82157197509
 20
167.9999972091855
 30
0.0
 11
2340.821571975091
 21
167.9999972091855
 31
0.0
  0
LINE
  5
2A25
330
2996
100
AcDbEntity
  8
Visible (ANSI)
100
AcDbLine
 10
2214.82157197509
 20
167.9999972091855
 30
0.0
 11
2214.82157197509
 21
209.9999972091859
 31
0.0
  0
LINE
  5
2A26
330
2996
100
AcDbEntity
  8
Visible (ANSI)
100
AcDbLine
 10
2340.821571975091
 20
167.9999972091855
 30
0.0
 11
2340.821571975091
 21
209.9999972091859
 31
0.0
  0
LINE
  5
2A27
330
2996
100
AcDbEntity
  8
Visible (ANSI)
100
AcDbLine
 10
3022.683571975106
 20
41.99999720918595
 30
0.0
 11
2896.683571975112
 21
41.99999720918595
 31
0.0
  0
LINE
  5
2A28
330
2996
100
AcDbEntity
  8
Visible (ANSI)
100
AcDbLine
 10
2896.683571975112
 20
-0.000002790814051
 30
0.0
 11
3022.683571975106
 21
-0.000002790814051
 31
0.0
  0
LINE
  5
2A29
330
2996
100
AcDbEntity
  8
Visible (ANSI)
100
AcDbLine
 10
2896.683571975112
 20
-0.000002790814051
 30
0.0
 11
2896.683571975112
 21
41.99999720918595
 31
0.0
  0
LINE
  5
2A2A
330
2996
100
AcDbEntity
  8
Visible (ANSI)
100
AcDbLine
 10
3022.683571975106
 20
-0.000002790814051
 30
0.0
 11
3022.683571975106
 21
41.99999720918595
 31
0.0
  0
LINE
  5
2A2B
330
2996
100
AcDbEntity
  8
Visible (ANSI)
100
AcDbLine
 10
3022.683571975106
 20
83.99999720918641
 30
0.0
 11
2896.683571975112
 21
83.99999720918641
 31
0.0
  0
LINE
  5
2A2C
330
2996
100
AcDbEntity
  8
Visible (ANSI)
100
AcDbLine
 10
2896.683571975112
 20
41.9999972091864
 30
0.0
 11
3022.683571975106
 21
41.9999972091864
 31
0.0
  0
LINE
  5
2A2D
330
2996
100
AcDbEntity
  8
Visible (ANSI)
100
AcDbLine
 10
2896.683571975112
 20
41.9999972091864
 30
0.0
 11
2896.683571975112
 21
83.99999720918641
 31
0.0
  0
LINE
  5
2A2E
330
2996
100
AcDbEntity
  8
Visible (ANSI)
100
AcDbLine
 10
3022.683571975106
 20
41.9999972091864
 30
0.0
 11
3022.683571975106
 21
83.99999720918641
 31
0.0
  0
LINE
  5
2A2F
330
2996
100
AcDbEntity
  8
Visible (ANSI)
100
AcDbLine
 10
3022.683571975106
 20
125.9999972091864
 30
0.0
 11
2896.683571975112
 21
125.9999972091864
 31
0.0
  0
LINE
  5
2A30
330
2996
100
AcDbEntity
  8
Visible (ANSI)
100
AcDbLine
 10
2896.683571975112
 20
83.99999720918641
 30
0.0
 11
3022.683571975106
 21
83.99999720918641
 31
0.0
  0
LINE
  5
2A31
330
2996
100
AcDbEntity
  8
Visible (ANSI)
100
AcDbLine
 10
2896.683571975112
 20
83.99999720918641
 30
0.0
 11
2896.683571975112
 21
125.9999972091864
 31
0.0
  0
LINE
  5
2A32
330
2996
100
AcDbEntity
  8
Visible (ANSI)
100
AcDbLine
 10
3022.683571975106
 20
83.99999720918641
 30
0.0
 11
3022.683571975106
 21
125.9999972091864
 31
0.0
  0
LINE
  5
2A33
330
2996
100
AcDbEntity
  8
Visible (ANSI)
100
AcDbLine
 10
3022.683571975106
 20
167.9999972091859
 30
0.0
 11
2896.683571975112
 21
167.9999972091859
 31
0.0
  0
LINE
  5
2A34
330
2996
100
AcDbEntity
  8
Visible (ANSI)
100
AcDbLine
 10
2896.683571975112
 20
125.9999972091864
 30
0.0
 11
3022.683571975106
 21
125.9999972091864
 31
0.0
  0
LINE
  5
2A35
330
2996
100
AcDbEntity
  8
Visible (ANSI)
100
AcDbLine
 10
2896.683571975112
 20
125.9999972091864
 30
0.0
 11
2896.683571975112
 21
167.9999972091859
 31
0.0
  0
LINE
  5
2A36
330
2996
100
AcDbEntity
  8
Visible (ANSI)
100
AcDbLine
 10
3022.683571975106
 20
125.9999972091864
 30
0.0
 11
3022.683571975106
 21
167.9999972091859
 31
0.0
  0
LINE
  5
2A37
330
2996
100
AcDbEntity
  8
Visible (ANSI)
100
AcDbLine
 10
3022.683571975106
 20
209.9999972091859
 30
0.0
 11
2896.683571975112
 21
209.9999972091859
 31
0.0
  0
LINE
  5
2A38
330
2996
100
AcDbEntity
  8
Visible (ANSI)
100
AcDbLine
 10
2896.683571975112
 20
167.9999972091859
 30
0.0
 11
3022.683571975106
 21
167.9999972091859
 31
0.0
  0
LINE
  5
2A39
330
2996
100
AcDbEntity
  8
Visible (ANSI)
100
AcDbLine
 10
2896.683571975112
 20
167.9999972091859
 30
0.0
 11
2896.683571975112
 21
209.9999972091859
 31
0.0
  0
LINE
  5
2A3A
330
2996
100
AcDbEntity
  8
Visible (ANSI)
100
AcDbLine
 10
3022.683571975106
 20
167.9999972091859
 30
0.0
 11
3022.683571975106
 21
209.9999972091859
 31
0.0
  0
LINE
  5
2A3B
330
2996
100
AcDbEntity
  8
Visible (ANSI)
100
AcDbLine
 10
2214.82157197509
 20
209.9999972091859
 30
0.0
 11
2340.821571975091
 21
209.9999972091859
 31
0.0
  0
LINE
  5
2A3C
330
2996
100
AcDbEntity
  8
Visible (ANSI)
100
AcDbLine
 10
2214.82157197509
 20
209.9999972091859
 30
0.0
 11
2214.82157197509
 21
251.9999972091859
 31
0.0
  0
LINE
  5
2A3D
330
2996
100
AcDbEntity
  8
Visible (ANSI)
100
AcDbLine
 10
2340.821571975091
 20
209.9999972091859
 30
0.0
 11
2340.821571975091
 21
251.9999972091859
 31
0.0
  0
LINE
  5
2A3E
330
2996
100
AcDbEntity
  8
Visible (ANSI)
100
AcDbLine
 10
2896.683571975112
 20
209.9999972091859
 30
0.0
 11
3022.683571975106
 21
209.9999972091859
 31
0.0
  0
LINE
  5
2A3F
330
2996
100
AcDbEntity
  8
Visible (ANSI)
100
AcDbLine
 10
2896.683571975112
 20
209.9999972091859
 30
0.0
 11
2896.683571975112
 21
251.9999972091859
 31
0.0
  0
LINE
  5
2A40
330
2996
100
AcDbEntity
  8
Visible (ANSI)
100
AcDbLine
 10
3022.683571975106
 20
209.9999972091859
 30
0.0
 11
3022.683571975106
 21
251.9999972091859
 31
0.0
  0
LINE
  5
2A41
330
2996
100
AcDbEntity
  8
Visible (ANSI)
100
AcDbLine
 10
2409.820409417346
 20
246.9999972091859
 30
0.0
 11
2340.821571975073
 21
246.9999972091859
 31
0.0
  0
LINE
  5
2A42
330
2996
100
AcDbEntity
  8
Visible (ANSI)
100
AcDbLine
 10
2409.820409417346
 20
251.9999972091859
 30
0.0
 11
2409.820409417346
 21
246.9999972091859
 31
0.0
  0
LINE
  5
2A43
330
2996
100
AcDbEntity
  8
Visible (ANSI)
100
AcDbLine
 10
2827.684734532784
 20
246.9999972091859
 30
0.0
 11
2409.820409417346
 21
246.9999972091859
 31
0.0
  0
LINE
  5
2A44
330
2996
100
AcDbEntity
  8
Visible (ANSI)
100
AcDbLine
 10
2827.684734532784
 20
251.9999972091859
 30
0.0
 11
2827.684734532784
 21
246.9999972091859
 31
0.0
  0
LINE
  5
2A45
330
2996
100
AcDbEntity
  8
Visible (ANSI)
100
AcDbLine
 10
2896.683571975107
 20
246.9999972091859
 30
0.0
 11
2827.684734532784
 21
246.9999972091859
 31
0.0
  0
LINE
  5
2A46
330
2996
100
AcDbEntity
  8
Visible (ANSI)
100
AcDbLine
 10
2203.737571974984
 20
250.9999972091855
 30
0.0
 11
2199.737571974985
 21
250.9999972091855
 31
0.0
  0
LINE
  5
2A47
330
2996
100
AcDbEntity
  8
Visible (ANSI)
100
AcDbLine
 10
2182.737571974985
 20
250.9999972091855
 30
0.0
 11
2178.737571974984
 21
250.9999972091855
 31
0.0
  0
LINE
  5
2A48
330
2996
100
AcDbEntity
  8
Visible (ANSI)
100
AcDbLine
 10
2178.737571974984
 20
251.9999972091859
 30
0.0
 11
2178.737571974984
 21
250.9999972091855
 31
0.0
  0
LINE
  5
2A49
330
2996
100
AcDbEntity
  8
Visible (ANSI)
100
AcDbLine
 10
2203.737571974984
 20
250.9999972091855
 30
0.0
 11
2203.737571974984
 21
251.9999972091859
 31
0.0
  0
LINE
  5
2A4A
330
2996
100
AcDbEntity
  8
Visible (ANSI)
100
AcDbLine
 10
2199.737571974985
 20
250.9999972091855
 30
0.0
 11
2182.737571974985
 21
250.9999972091855
 31
0.0
  0
LINE
  5
2A4B
330
2996
100
AcDbEntity
  8
Visible (ANSI)
100
AcDbLine
 10
2193.342571974983
 20
250.4999972091855
 30
0.0
 11
2189.132571974983
 21
250.4999972091855
 31
0.0
  0
ARC
  5
2A4C
330
2996
100
AcDbEntity
  8
Visible (ANSI)
100
AcDbCircle
 10
2191.237571974983
 20
254.6810222091858
 30
0.0
 40
4.681024999999991
100
AcDbArc
 50
243.276342437082
 51
296.7236575629181
  0
LINE
  5
2A4D
330
2996
100
AcDbEntity
  8
Visible (ANSI)
100
AcDbLine
 10
2189.132571974983
 20
250.4999972091855
 30
0.0
 11
2189.132571974983
 21
250.9999972091855
 31
0.0
  0
LINE
  5
2A4E
330
2996
100
AcDbEntity
  8
Visible (ANSI)
100
AcDbLine
 10
2193.342571974983
 20
250.4999972091855
 30
0.0
 11
2193.342571974983
 21
250.9999972091855
 31
0.0
  0
ENDBLK
  5
2A51
330
2996
100
AcDbEntity
  8
0
100
AcDbBlockEnd
  0
BLOCK
  5
2F85
330
2F84
100
AcDbEntity
  8
0
100
AcDbBlockBegin
  2
Grain Direction Vertical
 70
     0
 10
0.0
 20
0.0
 30
0.0
  3
Grain Direction Vertical
  1

  0
LINE
  5
2F86
330
2F84
100
AcDbEntity
  8
Sketch Geometry (ANSI)
100
AcDbLine
 10
-0.0177173911663786
 20
12.25398860301084
 30
0.0
 11
-0.0177173911663786
 21
-12.25398860301084
 31
0.0
  0
LINE
  5
2F87
330
2F84
100
AcDbEntity
  8
Sketch Geometry (ANSI)
100
AcDbLine
 10
-0.0177173911663786
 20
-12.25398860301084
 30
0.0
 11
3.726556757962349
 21
-7.488548590728854
 31
0.0
  0
LINE
  5
2F88
330
2F84
100
AcDbEntity
  8
Sketch Geometry (ANSI)
100
AcDbLine
 10
-0.0177173911663786
 20
12.25398860301084
 30
0.0
 11
-3.72655675796234
 21
7.533647406368295
 31
0.0
  0
ENDBLK
  5
2F89
330
2F84
100
AcDbEntity
  8
0
100
AcDbBlockEnd
  0
BLOCK
  5
2FD7
330
2FD6
100
AcDbEntity
  8
0
100
AcDbBlockBegin
  2
2dTransSection0
 70
     0
 10
0.0
 20
0.0
 30
0.0
  3
2dTransSection0
  1

  0
LINE
  5
2FD8
330
2FD6
100
AcDbEntity
  8
Section Line (ANSI)
  6
DOUBLE_DASH_CHAIN
 48
14.08159828186035
100
AcDbLine
 10
81.75293543450047
 20
176.6797258115267
 30
0.0
 11
160.9799695924128
 21
176.6797258115267
 31
0.0
  0
LINE
  5
2FD9
330
2FD6
100
AcDbEntity
  8
Section Line (ANSI)
  6
Continuous
100
AcDbLine
 10
81.75293543450047
 20
176.6797258115267
 30
0.0
 11
91.11834226608294
 21
176.6797258115267
 31
0.0
  0
LINE
  5
2FDA
330
2FD6
100
AcDbEntity
  8
Section Line (ANSI)
  6
Continuous
100
AcDbLine
 10
151.6145627608303
 20
176.6797258115267
 30
0.0
 11
160.9799695924128
 21
176.6797258115267
 31
0.0
  0
LINE
  5
2FDB
330
2FD6
100
AcDbEntity
  8
Section Line (ANSI)
  6
Continuous
100
AcDbLine
 10
81.75293543450047
 20
183.9106621797802
 30
0.0
 11
81.75293543450047
 21
188.9106621797802
 31
0.0
  0
POLYLINE
  5
2FDC
330
2FD6
100
AcDbEntity
  8
Section Line (ANSI)
  6
Continuous
100
AcDb2dPolyline
 66
     1
 10
0.0
 20
0.0
 30
0.0
 70
   128
  0
VERTEX
  5
2FDD
330
2FDC
100
AcDbEntity
  8
Section Line (ANSI)
  6
Continuous
100
AcDbVertex
100
AcDb2dVertex
 10
82.75293599873718
 20
183.910662815616
 30
0.0
  0
VERTEX
  5
2FDE
330
2FDC
100
AcDbEntity
  8
Section Line (ANSI)
  6
Continuous
100
AcDbVertex
100
AcDb2dVertex
 10
81.7529345682257
 20
188.910662815616
 30
0.0
  0
VERTEX
  5
2FDF
330
2FDC
100
AcDbEntity
  8
Section Line (ANSI)
  6
Continuous
100
AcDbVertex
100
AcDb2dVertex
 10
80.75293552190002
 20
183.910662815616
 30
0.0
  0
VERTEX
  5
2FE0
330
2FDC
100
AcDbEntity
  8
Section Line (ANSI)
  6
Continuous
100
AcDbVertex
100
AcDb2dVertex
 10
82.75293599873718
 20
183.910662815616
 30
0.0
  0
SEQEND
  5
2FE1
330
2FDC
100
AcDbEntity
  8
Section Line (ANSI)
  6
Continuous
  0
SOLID
  5
2FE2
330
2FD6
100
AcDbEntity
  8
Section Line (ANSI)
100
AcDbTrace
 10
82.75293599873718
 20
183.910662815616
 30
0.0
 11
81.7529345682257
 21
188.910662815616
 31
0.0
 12
80.75293552190002
 22
183.910662815616
 32
0.0
 13
82.75293599873718
 23
183.910662815616
 33
0.0
  0
LINE
  5
2FE3
330
2FD6
100
AcDbEntity
  8
Section Line (ANSI)
  6
Continuous
100
AcDbLine
 10
82.75293543450047
 20
183.9106621797802
 30
0.0
 11
81.75293543450047
 21
188.9106621797802
 31
0.0
  0
LINE
  5
2FE4
330
2FD6
100
AcDbEntity
  8
Section Line (ANSI)
  6
Continuous
100
AcDbLine
 10
81.75293543450047
 20
188.9106621797802
 30
0.0
 11
80.75293543450047
 21
183.9106621797802
 31
0.0
  0
LINE
  5
2FE5
330
2FD6
100
AcDbEntity
  8
Section Line (ANSI)
  6
Continuous
100
AcDbLine
 10
80.75293543450047
 20
183.9106621797802
 30
0.0
 11
82.75293543450047
 21
183.9106621797802
 31
0.0
  0
LINE
  5
2FE6
330
2FD6
100
AcDbEntity
  8
Section Line (ANSI)
  6
Continuous
100
AcDbLine
 10
81.75293543450047
 20
176.6797258115267
 30
0.0
 11
81.75293543450047
 21
183.9106621797802
 31
0.0
  0
LINE
  5
2FE7
330
2FD6
100
AcDbEntity
  8
Section Line (ANSI)
  6
Continuous
100
AcDbLine
 10
160.9799695924128
 20
181.6797258115267
 30
0.0
 11
160.9799695924128
 21
186.6797258115266
 31
0.0
  0
POLYLINE
  5
2FE8
330
2FD6
100
AcDbEntity
  8
Section Line (ANSI)
  6
Continuous
100
AcDb2dPolyline
 66
     1
 10
0.0
 20
0.0
 30
0.0
 70
   128
  0
VERTEX
  5
2FE9
330
2FE8
100
AcDbEntity
  8
Section Line (ANSI)
  6
Continuous
100
AcDbVertex
100
AcDb2dVertex
 10
161.9799710443609
 20
181.6797253346895
 30
0.0
  0
VERTEX
  5
2FEA
330
2FE8
100
AcDbEntity
  8
Section Line (ANSI)
  6
Continuous
100
AcDbVertex
100
AcDb2dVertex
 10
160.9799696138495
 20
186.6797253346895
 30
0.0
  0
VERTEX
  5
2FEB
330
2FE8
100
AcDbEntity
  8
Section Line (ANSI)
  6
Continuous
100
AcDbVertex
100
AcDb2dVertex
 10
159.9799705675238
 20
181.6797253346895
 30
0.0
  0
VERTEX
  5
2FEC
330
2FE8
100
AcDbEntity
  8
Section Line (ANSI)
  6
Continuous
100
AcDbVertex
100
AcDb2dVertex
 10
161.9799710443609
 20
181.6797253346895
 30
0.0
  0
SEQEND
  5
2FED
330
2FE8
100
AcDbEntity
  8
Section Line (ANSI)
  6
Continuous
  0
SOLID
  5
2FEE
330
2FD6
100
AcDbEntity
  8
Section Line (ANSI)
100
AcDbTrace
 10
161.9799710443609
 20
181.6797253346895
 30
0.0
 11
160.9799696138495
 21
186.6797253346895
 31
0.0
 12
159.9799705675238
 22
181.6797253346895
 32
0.0
 13
161.9799710443609
 23
181.6797253346895
 33
0.0
  0
LINE
  5
2FEF
330
2FD6
100
AcDbEntity
  8
Section Line (ANSI)
  6
Continuous
100
AcDbLine
 10
161.9799695924128
 20
181.6797258115267
 30
0.0
 11
160.9799695924128
 21
186.6797258115266
 31
0.0
  0
LINE
  5
2FF0
330
2FD6
100
AcDbEntity
  8
Section Line (ANSI)
  6
Continuous
100
AcDbLine
 10
160.9799695924128
 20
186.6797258115266
 30
0.0
 11
159.9799695924128
 21
181.6797258115267
 31
0.0
  0
LINE
  5
2FF1
330
2FD6
100
AcDbEntity
  8
Section Line (ANSI)
  6
Continuous
100
AcDbLine
 10
159.9799695924128
 20
181.6797258115267
 30
0.0
 11
161.9799695924128
 21
181.6797258115267
 31
0.0
  0
LINE
  5
2FF2
330
2FD6
100
AcDbEntity
  8
Section Line (ANSI)
  6
Continuous
100
AcDbLine
 10
160.9799695924128
 20
176.6797258115267
 30
0.0
 11
160.9799695924128
 21
181.6797258115267
 31
0.0
  0
MTEXT
  5
2FF3
330
2FD6
100
AcDbEntity
  8
Section Line (ANSI)
100
AcDbMText
 10
76.02665356900842
 20
182.1132039973463
 30
0.0
 40
3.050000071525573
 41
0.0
 46
0.0
 71
     7
 72
     1
  1
A
  7
Label Text (ANSI)
 73
     1
 44
1.0
  0
MTEXT
  5
2FF4
330
2FD6
100
AcDbEntity
  8
Section Line (ANSI)
100
AcDbMText
 10
164.5311761241344
 20
181.5182876324787
 30
0.0
 40
3.050000071525573
 41
0.0
 46
0.0
 71
     7
 72
     1
  1
A
  7
Label Text (ANSI)
 73
     1
 44
1.0
  0
ENDBLK
  5
2FF5
330
2FD6
100
AcDbEntity
  8
0
100
AcDbBlockEnd
  0
BLOCK
  5
45AD
330
45AA
100
AcDbEntity
  8
0
100
AcDbBlockBegin
  2
A$C37F77E94
 70
     0
 10
0.0
 20
0.0
 30
0.0
  3
A$C37F77E94
  1

  0
TEXT
  5
45AB
330
45AA
100
AcDbEntity
  8
Dimensions
100
AcDbText
 10
5.562906110487347
 20
55.62065474594646
 30
0.0
 40
178.9271249552682
  1
36
 41
1.000399999999999
100
AcDbText
  0
ENDBLK
  5
45AE
330
45AA
100
AcDbEntity
  8
0
100
AcDbBlockEnd
  0
BLOCK
  5
469C
330
469B
100
AcDbEntity
  8
0
100
AcDbBlockBegin
  2
*D14
 70
     1
 10
0.0
 20
0.0
 30
0.0
  3
*D14
  1

  0
LINE
  5
48A3
330
469B
100
AcDbEntity
  8
LINE
 62
     0
440
 16777216
370
    -2
100
AcDbLine
 10
9308.56514654163
 20
-9290.644765557052
 30
0.0
 11
9308.56514654163
 21
-9290.019765557053
 31
0.0
  0
LINE
  5
48A4
330
469B
100
AcDbEntity
  8
LINE
 62
     0
440
 16777216
370
    -2
100
AcDbLine
 10
9359.668733624218
 20
-9290.644765557052
 30
0.0
 11
9359.668733624218
 21
-9290.019765557053
 31
0.0
  0
LINE
  5
48A5
330
469B
100
AcDbEntity
  8
LINE
 62
     0
440
 16777216
370
    -2
100
AcDbLine
 10
9311.065146541631
 20
-9291.269765557052
 30
0.0
 11
9357.168733624218
 21
-9291.269765557052
 31
0.0
  0
SOLID
  5
48A6
330
469B
100
AcDbEntity
  8
LINE
 62
     0
440
 16777216
370
     5
100
AcDbTrace
 10
9311.065146541631
 20
-9290.853098890385
 30
0.0
 11
9311.065146541631
 21
-9291.686432223718
 31
0.0
 12
9308.56514654163
 22
-9291.269765557052
 32
0.0
 13
9308.56514654163
 23
-9291.269765557052
 33
0.0
  0
SOLID
  5
48A7
330
469B
100
AcDbEntity
  8
LINE
 62
     0
440
 16777216
370
     5
100
AcDbTrace
 10
9357.168733624218
 20
-9290.853098890385
 30
0.0
 11
9357.168733624218
 21
-9291.686432223718
 31
0.0
 12
9359.668733624218
 22
-9291.269765557052
 32
0.0
 13
9359.668733624218
 23
-9291.269765557052
 33
0.0
  0
MTEXT
  5
48A8
330
469B
100
AcDbEntity
  8
LINE
 62
     0
440
 16777216
100
AcDbMText
 10
9334.116940082925
 20
-9289.142378108213
 30
0.0
 40
2.5
 41
0.0
 46
0.0
 71
     5
 72
     1
  1
51,1
 73
     1
 44
1.0
  0
POINT
  5
48A9
330
469B
100
AcDbEntity
  8
Defpoints
 62
     0
440
 16777216
370
     5
100
AcDbPoint
 10
9308.56514654163
 20
-9291.269765557052
 30
0.0
  0
POINT
  5
48AA
330
469B
100
AcDbEntity
  8
Defpoints
 62
     0
440
 16777216
370
     5
100
AcDbPoint
 10
9359.668733624218
 20
-9291.269765557052
 30
0.0
  0
POINT
  5
48AB
330
469B
100
AcDbEntity
  8
Defpoints
 62
     0
440
 16777216
370
     5
100
AcDbPoint
 10
9359.668733624218
 20
-9291.269765557052
 30
0.0
  0
ENDBLK
  5
469D
330
469B
100
AcDbEntity
  8
0
100
AcDbBlockEnd
  0
ENDSEC
  0
SECTION
  2
ENTITIES
  0
TEXT
  5
2149
330
1F
100
AcDbEntity
  8
LINE
100
AcDbText
 10
528.3589694226387
 20
4659.879150962981
 30
0.0
 40
233.9816249415046
  1
Side Tables
 41
1.000399999999999
100
AcDbText
  0
LINE
  5
214A
330
1F
100
AcDbEntity
  8
LINE
370
     9
100
AcDbLine
 10
528.3589694226387
 20
5400.326016744666
 30
0.0
 11
19390.0
 21
5400.326016744666
 31
0.0
  0
TEXT
  5
214B
330
1F
100
AcDbEntity
  8
LINE
100
AcDbText
 10
528.3589694226387
 20
7143.816556836139
 30
0.0
 40
192.6907499518273
  1
ACE
 41
1.000399999999999
100
AcDbText
  0
TEXT
  5
214C
330
1F
100
AcDbEntity
  8
LINE
100
AcDbText
 10
528.3589694226387
 20
6541.193588480935
 30
0.0
 40
192.6907499518273
  1
—
 41
1.000399999999999
100
AcDbText
  0
TEXT
  5
214D
330
1F
100
AcDbEntity
  8
LINE
100
AcDbText
 10
528.3589694226389
 20
5866.223072602472
 30
0.0
 40
233.9816249415046
  1
DIMENSIONS
 41
1.000399999999999
100
AcDbText
  0
TEXT
  5
445E
330
1F
100
AcDbEntity
  8
LINE
100
AcDbText
 10
2200.197016443421
 20
3723.710219756871
 30
0.0
 40
178.9271249552682
  1
51
 41
1.000399999999999
100
AcDbText
  0
LINE
  5
5B3F
330
1F
100
AcDbEntity
  8
Visible (ANSI)
100
AcDbLine
 10
5185.001297510791
 20
3535.0
 30
0.0
 11
5185.001297510791
 21
3985.0
 31
0.0
  0
LINE
  5
5B40
330
1F
100
AcDbEntity
  8
Visible (ANSI)
100
AcDbLine
 10
5020.0
 20
3984.0
 30
0.0
 11
5020.0
 21
3535.0
 31
0.0
  0
LINE
  5
5B41
330
1F
100
AcDbEntity
  8
Visible (ANSI)
100
AcDbLine
 10
5182.530007715627
 20
3535.0
 30
0.0
 11
5182.530007715627
 21
3985.0
 31
0.0
  0
LINE
  5
5B42
330
1F
100
AcDbEntity
  8
Visible (ANSI)
100
AcDbLine
 10
5182.530007715627
 20
3535.0
 30
0.0
 11
5185.001297510791
 21
3535.0
 31
0.0
  0
LINE
  5
5B43
330
1F
100
AcDbEntity
  8
Visible (ANSI)
100
AcDbLine
 10
5164.896450146852
 20
3535.0
 30
0.0
 11
5182.530007715627
 21
3535.0
 31
0.0
  0
LINE
  5
5B44
330
1F
100
AcDbEntity
  8
Visible (ANSI)
100
AcDbLine
 10
5164.896450146852
 20
3535.0
 30
0.0
 11
5164.896450146852
 21
3985.0
 31
0.0
  0
LINE
  5
5B45
330
1F
100
AcDbEntity
  8
Visible (ANSI)
100
AcDbLine
 10
5158.281987590345
 20
3535.0
 30
0.0
 11
5164.896450146852
 21
3535.0
 31
0.0
  0
LINE
  5
5B46
330
1F
100
AcDbEntity
  8
Visible (ANSI)
100
AcDbLine
 10
5158.281987590345
 20
3535.0
 30
0.0
 11
5158.281987590345
 21
3985.0
 31
0.0
  0
LINE
  5
5B47
330
1F
100
AcDbEntity
  8
Visible (ANSI)
100
AcDbLine
 10
5135.987642826023
 20
3535.0
 30
0.0
 11
5158.281987590345
 21
3535.0
 31
0.0
  0
LINE
  5
5B48
330
1F
100
AcDbEntity
  8
Visible (ANSI)
100
AcDbLine
 10
5135.987642826023
 20
3535.0
 30
0.0
 11
5135.987642826023
 21
3985.0
 31
0.0
  0
LINE
  5
5B49
330
1F
100
AcDbEntity
  8
Visible (ANSI)
100
AcDbLine
 10
5127.990381056767
 20
3535.0
 30
0.0
 11
5135.987642826023
 21
3535.0
 31
0.0
  0
LINE
  5
5B4A
330
1F
100
AcDbEntity
  8
Visible (ANSI)
100
AcDbLine
 10
5127.990381056767
 20
3535.0
 30
0.0
 11
5127.990381056767
 21
3985.0
 31
0.0
  0
LINE
  5
5B4B
330
1F
100
AcDbEntity
  8
Visible (ANSI)
100
AcDbLine
 10
5102.009618943234
 20
3535.0
 30
0.0
 11
5127.990381056767
 21
3535.0
 31
0.0
  0
LINE
  5
5B4C
330
1F
100
AcDbEntity
  8
Visible (ANSI)
100
AcDbLine
 10
5102.009618943234
 20
3535.0
 30
0.0
 11
5102.009618943234
 21
3985.0
 31
0.0
  0
LINE
  5
5B4D
330
1F
100
AcDbEntity
  8
Visible (ANSI)
100
AcDbLine
 10
5092.979076675668
 20
3535.0
 30
0.0
 11
5102.009618943234
 21
3535.0
 31
0.0
  0
LINE
  5
5B4E
330
1F
100
AcDbEntity
  8
Visible (ANSI)
100
AcDbLine
 10
5092.979076675668
 20
3535.0
 30
0.0
 11
5092.979076675668
 21
3985.0
 31
0.0
  0
LINE
  5
5B4F
330
1F
100
AcDbEntity
  8
Visible (ANSI)
100
AcDbLine
 10
5064.447381186814
 20
3535.0
 30
0.0
 11
5092.979076675668
 21
3535.0
 31
0.0
  0
LINE
  5
5B50
330
1F
100
AcDbEntity
  8
Visible (ANSI)
100
AcDbLine
 10
5064.447381186814
 20
3535.0
 30
0.0
 11
5064.447381186814
 21
3985.0
 31
0.0
  0
LINE
  5
5B51
330
1F
100
AcDbEntity
  8
Visible (ANSI)
100
AcDbLine
 10
5054.778236451379
 20
3535.0
 30
0.0
 11
5064.447381186814
 21
3535.0
 31
0.0
  0
LINE
  5
5B52
330
1F
100
AcDbEntity
  8
Visible (ANSI)
100
AcDbLine
 10
5054.778236451379
 20
3535.0
 30
0.0
 11
5054.778236451379
 21
3984.0
 31
0.0
  0
LINE
  5
5B53
330
1F
100
AcDbEntity
  8
Visible (ANSI)
100
AcDbLine
 10
5024.94257959033
 20
3535.0
 30
0.0
 11
5054.778236451379
 21
3535.0
 31
0.0
  0
LINE
  5
5B54
330
1F
100
AcDbEntity
  8
Visible (ANSI)
100
AcDbLine
 10
5024.94257959033
 20
3535.0
 30
0.0
 11
5024.94257959033
 21
3984.0
 31
0.0
  0
LINE
  5
5B55
330
1F
100
AcDbEntity
  8
Visible (ANSI)
100
AcDbLine
 10
5020.0
 20
3535.0
 30
0.0
 11
5024.94257959033
 21
3535.0
 31
0.0
  0
LINE
  5
5B56
330
1F
100
AcDbEntity
  8
Visible (ANSI)
100
AcDbLine
 10
5185.001297510793
 20
3985.0
 30
0.0
 11
5185.001297510793
 21
3535.0
 31
0.0
  0
LINE
  5
5B57
330
1F
100
AcDbEntity
  8
Visible (ANSI)
100
AcDbLine
 10
5210.0
 20
3535.0
 30
0.0
 11
5210.0
 21
3985.0
 31
0.0
  0
LINE
  5
5B58
330
1F
100
AcDbEntity
  8
Visible (ANSI)
100
AcDbLine
 10
5208.96671950169
 20
3535.0
 30
0.0
 11
5210.0
 21
3535.0
 31
0.0
  0
LINE
  5
5B59
330
1F
100
AcDbEntity
  8
Visible (ANSI)
100
AcDbLine
 10
5208.96671950169
 20
3535.0
 30
0.0
 11
5208.96671950169
 21
3985.0
 31
0.0
  0
LINE
  5
5B5A
330
1F
100
AcDbEntity
  8
Visible (ANSI)
100
AcDbLine
 10
5202.729368777156
 20
3535.0
 30
0.0
 11
5208.96671950169
 21
3535.0
 31
0.0
  0
LINE
  5
5B5B
330
1F
100
AcDbEntity
  8
Visible (ANSI)
100
AcDbLine
 10
5202.729368777156
 20
3535.0
 30
0.0
 11
5202.729368777156
 21
3985.0
 31
0.0
  0
LINE
  5
5B5C
330
1F
100
AcDbEntity
  8
Visible (ANSI)
100
AcDbLine
 10
5199.674686598232
 20
3535.0
 30
0.0
 11
5202.729368777156
 21
3535.0
 31
0.0
  0
LINE
  5
5B5D
330
1F
100
AcDbEntity
  8
Visible (ANSI)
100
AcDbLine
 10
5199.674686598232
 20
3535.0
 30
0.0
 11
5199.674686598232
 21
3985.0
 31
0.0
  0
LINE
  5
5B5E
330
1F
100
AcDbEntity
  8
Visible (ANSI)
100
AcDbLine
 10
5187.472587305958
 20
3535.0
 30
0.0
 11
5199.674686598232
 21
3535.0
 31
0.0
  0
LINE
  5
5B5F
330
1F
100
AcDbEntity
  8
Visible (ANSI)
100
AcDbLine
 10
5187.472587305958
 20
3535.0
 30
0.0
 11
5187.472587305958
 21
3985.0
 31
0.0
  0
LINE
  5
5B60
330
1F
100
AcDbEntity
  8
Visible (ANSI)
100
AcDbLine
 10
5185.001297510793
 20
3535.0
 30
0.0
 11
5187.472587305958
 21
3535.0
 31
0.0
  0
LINE
  5
5B61
330
1F
100
AcDbEntity
  8
Visible (ANSI)
100
AcDbLine
 10
4854.998702489208
 20
3535.0
 30
0.0
 11
4854.998702489208
 21
3985.0
 31
0.0
  0
LINE
  5
5B62
330
1F
100
AcDbEntity
  8
Visible (ANSI)
100
AcDbLine
 10
4852.527412694043
 20
3535.0
 30
0.0
 11
4852.527412694043
 21
3985.0
 31
0.0
  0
LINE
  5
5B63
330
1F
100
AcDbEntity
  8
Visible (ANSI)
100
AcDbLine
 10
4852.527412694043
 20
3535.0
 30
0.0
 11
4854.998702489208
 21
3535.0
 31
0.0
  0
LINE
  5
5B64
330
1F
100
AcDbEntity
  8
Visible (ANSI)
100
AcDbLine
 10
4840.325313401769
 20
3535.0
 30
0.0
 11
4852.527412694043
 21
3535.0
 31
0.0
  0
LINE
  5
5B65
330
1F
100
AcDbEntity
  8
Visible (ANSI)
100
AcDbLine
 10
4840.325313401769
 20
3535.0
 30
0.0
 11
4840.325313401769
 21
3985.0
 31
0.0
  0
LINE
  5
5B66
330
1F
100
AcDbEntity
  8
Visible (ANSI)
100
AcDbLine
 10
4837.270631222843
 20
3535.0
 30
0.0
 11
4840.325313401769
 21
3535.0
 31
0.0
  0
LINE
  5
5B67
330
1F
100
AcDbEntity
  8
Visible (ANSI)
100
AcDbLine
 10
4837.270631222843
 20
3535.0
 30
0.0
 11
4837.270631222843
 21
3985.0
 31
0.0
  0
LINE
  5
5B68
330
1F
100
AcDbEntity
  8
Visible (ANSI)
100
AcDbLine
 10
4831.03328049831
 20
3535.0
 30
0.0
 11
4837.270631222843
 21
3535.0
 31
0.0
  0
LINE
  5
5B69
330
1F
100
AcDbEntity
  8
Visible (ANSI)
100
AcDbLine
 10
4831.03328049831
 20
3535.0
 30
0.0
 11
4831.03328049831
 21
3985.0
 31
0.0
  0
LINE
  5
5B6A
330
1F
100
AcDbEntity
  8
Visible (ANSI)
100
AcDbLine
 10
4830.0
 20
3535.0
 30
0.0
 11
4831.03328049831
 21
3535.0
 31
0.0
  0
LINE
  5
5B6B
330
1F
100
AcDbEntity
  8
Visible (ANSI)
100
AcDbLine
 10
4830.0
 20
3535.0
 30
0.0
 11
4830.0
 21
3985.0
 31
0.0
  0
LINE
  5
5B6C
330
1F
100
AcDbEntity
  8
Visible (ANSI)
100
AcDbLine
 10
5020.0
 20
3535.0
 30
0.0
 11
5020.0
 21
3984.0
 31
0.0
  0
LINE
  5
5B6D
330
1F
100
AcDbEntity
  8
Visible (ANSI)
100
AcDbLine
 10
4854.998702489208
 20
3985.0
 30
0.0
 11
4854.998702489208
 21
3535.0
 31
0.0
  0
LINE
  5
5B6E
330
1F
100
AcDbEntity
  8
Visible (ANSI)
100
AcDbLine
 10
5015.05742040967
 20
3535.0
 30
0.0
 11
5015.05742040967
 21
3984.0
 31
0.0
  0
LINE
  5
5B6F
330
1F
100
AcDbEntity
  8
Visible (ANSI)
100
AcDbLine
 10
5015.05742040967
 20
3535.0
 30
0.0
 11
5020.0
 21
3535.0
 31
0.0
  0
LINE
  5
5B70
330
1F
100
AcDbEntity
  8
Visible (ANSI)
100
AcDbLine
 10
4985.221763548621
 20
3535.0
 30
0.0
 11
5015.05742040967
 21
3535.0
 31
0.0
  0
LINE
  5
5B71
330
1F
100
AcDbEntity
  8
Visible (ANSI)
100
AcDbLine
 10
4985.221763548621
 20
3535.0
 30
0.0
 11
4985.221763548621
 21
3984.0
 31
0.0
  0
LINE
  5
5B72
330
1F
100
AcDbEntity
  8
Visible (ANSI)
100
AcDbLine
 10
4975.552618813188
 20
3535.0
 30
0.0
 11
4985.221763548621
 21
3535.0
 31
0.0
  0
LINE
  5
5B73
330
1F
100
AcDbEntity
  8
Visible (ANSI)
100
AcDbLine
 10
4975.552618813188
 20
3535.0
 30
0.0
 11
4975.552618813188
 21
3985.0
 31
0.0
  0
LINE
  5
5B74
330
1F
100
AcDbEntity
  8
Visible (ANSI)
100
AcDbLine
 10
4947.020923324333
 20
3535.0
 30
0.0
 11
4975.552618813188
 21
3535.0
 31
0.0
  0
LINE
  5
5B75
330
1F
100
AcDbEntity
  8
Visible (ANSI)
100
AcDbLine
 10
4947.020923324333
 20
3535.0
 30
0.0
 11
4947.020923324333
 21
3985.0
 31
0.0
  0
LINE
  5
5B76
330
1F
100
AcDbEntity
  8
Visible (ANSI)
100
AcDbLine
 10
4937.990381056767
 20
3535.0
 30
0.0
 11
4947.020923324333
 21
3535.0
 31
0.0
  0
LINE
  5
5B77
330
1F
100
AcDbEntity
  8
Visible (ANSI)
100
AcDbLine
 10
4937.990381056767
 20
3535.0
 30
0.0
 11
4937.990381056767
 21
3985.0
 31
0.0
  0
LINE
  5
5B78
330
1F
100
AcDbEntity
  8
Visible (ANSI)
100
AcDbLine
 10
4912.009618943233
 20
3535.0
 30
0.0
 11
4937.990381056767
 21
3535.0
 31
0.0
  0
LINE
  5
5B79
330
1F
100
AcDbEntity
  8
Visible (ANSI)
100
AcDbLine
 10
4912.009618943233
 20
3535.0
 30
0.0
 11
4912.009618943233
 21
3985.0
 31
0.0
  0
LINE
  5
5B7A
330
1F
100
AcDbEntity
  8
Visible (ANSI)
100
AcDbLine
 10
4904.012357173979
 20
3535.0
 30
0.0
 11
4912.009618943233
 21
3535.0
 31
0.0
  0
LINE
  5
5B7B
330
1F
100
AcDbEntity
  8
Visible (ANSI)
100
AcDbLine
 10
4904.012357173979
 20
3535.0
 30
0.0
 11
4904.012357173979
 21
3985.0
 31
0.0
  0
LINE
  5
5B7C
330
1F
100
AcDbEntity
  8
Visible (ANSI)
100
AcDbLine
 10
4881.718012409656
 20
3535.0
 30
0.0
 11
4904.012357173978
 21
3535.0
 31
0.0
  0
LINE
  5
5B7D
330
1F
100
AcDbEntity
  8
Visible (ANSI)
100
AcDbLine
 10
4881.718012409656
 20
3535.0
 30
0.0
 11
4881.718012409656
 21
3985.0
 31
0.0
  0
LINE
  5
5B7E
330
1F
100
AcDbEntity
  8
Visible (ANSI)
100
AcDbLine
 10
4875.103549853147
 20
3535.0
 30
0.0
 11
4881.718012409656
 21
3535.0
 31
0.0
  0
LINE
  5
5B7F
330
1F
100
AcDbEntity
  8
Visible (ANSI)
100
AcDbLine
 10
4875.103549853147
 20
3535.0
 30
0.0
 11
4875.103549853147
 21
3985.0
 31
0.0
  0
LINE
  5
5B80
330
1F
100
AcDbEntity
  8
Visible (ANSI)
100
AcDbLine
 10
4857.469992284372
 20
3535.0
 30
0.0
 11
4875.103549853147
 21
3535.0
 31
0.0
  0
LINE
  5
5B81
330
1F
100
AcDbEntity
  8
Visible (ANSI)
100
AcDbLine
 10
4857.469992284372
 20
3535.0
 30
0.0
 11
4857.469992284372
 21
3985.0
 31
0.0
  0
LINE
  5
5B82
330
1F
100
AcDbEntity
  8
Visible (ANSI)
100
AcDbLine
 10
4854.998702489208
 20
3535.0
 30
0.0
 11
4857.469992284372
 21
3535.0
 31
0.0
  0
LINE
  5
5B83
330
1F
100
AcDbEntity
  8
Visible (ANSI)
100
AcDbLine
 10
5280.0
 20
4045.0
 30
0.0
 11
4760.0
 21
4045.0
 31
0.0
  0
LINE
  5
5B84
330
1F
100
AcDbEntity
  8
Visible (ANSI)
100
AcDbLine
 10
4760.0
 20
3985.0
 30
0.0
 11
5280.0
 21
3985.0
 31
0.0
  0
LINE
  5
5B85
330
1F
100
AcDbEntity
  8
Visible (ANSI)
100
AcDbLine
 10
4760.0
 20
3985.0
 30
0.0
 11
4760.0
 21
4045.0
 31
0.0
  0
LINE
  5
5B86
330
1F
100
AcDbEntity
  8
Visible (ANSI)
100
AcDbLine
 10
5280.0
 20
3985.0
 30
0.0
 11
5280.0
 21
4045.0
 31
0.0
  0
LINE
  5
5B87
330
1F
100
AcDbEntity
  8
Visible (ANSI)
100
AcDbLine
 10
5064.0
 20
3984.0
 30
0.0
 11
5060.0
 21
3984.0
 31
0.0
  0
LINE
  5
5B88
330
1F
100
AcDbEntity
  8
Visible (ANSI)
100
AcDbLine
 10
4980.0
 20
3984.0
 30
0.0
 11
4976.0
 21
3984.0
 31
0.0
  0
LINE
  5
5B89
330
1F
100
AcDbEntity
  8
Visible (ANSI)
100
AcDbLine
 10
4976.0
 20
3985.0
 30
0.0
 11
4976.0
 21
3984.0
 31
0.0
  0
LINE
  5
5B8A
330
1F
100
AcDbEntity
  8
Visible Narrow (ANSI)
100
AcDbLine
 10
4980.0
 20
3984.0
 30
0.0
 11
4980.0
 21
3985.0
 31
0.0
  0
LINE
  5
5B8B
330
1F
100
AcDbEntity
  8
Visible Narrow (ANSI)
100
AcDbLine
 10
5060.0
 20
3985.0
 30
0.0
 11
5060.0
 21
3984.0
 31
0.0
  0
LINE
  5
5B8C
330
1F
100
AcDbEntity
  8
Visible (ANSI)
100
AcDbLine
 10
5064.0
 20
3984.0
 30
0.0
 11
5064.0
 21
3985.0
 31
0.0
  0
LINE
  5
5B8D
330
1F
100
AcDbEntity
  8
Visible (ANSI)
100
AcDbLine
 10
5060.0
 20
3984.0
 30
0.0
 11
4980.0
 21
3984.0
 31
0.0
  0
CIRCLE
  5
5B8E
330
1F
100
AcDbEntity
  8
Visible (ANSI)
100
AcDbCircle
 10
6610.0
 20
3795.0
 30
0.0
 40
260.0
  0
LINE
  5
5B8F
330
1F
100
AcDbEntity
  8
Visible (ANSI)
100
AcDbLine
 10
3239.905449221133
 20
3535.0
 30
0.0
 11
3239.905449221133
 21
3985.0
 31
0.0
  0
LINE
  5
5B90
330
1F
100
AcDbEntity
  8
Visible (ANSI)
100
AcDbLine
 10
3235.62504973568
 20
3535.0
 30
0.0
 11
3235.62504973568
 21
3985.0
 31
0.0
  0
LINE
  5
5B91
330
1F
100
AcDbEntity
  8
Visible (ANSI)
100
AcDbLine
 10
3235.62504973568
 20
3535.0
 30
0.0
 11
3239.905449221133
 21
3535.0
 31
0.0
  0
LINE
  5
5B92
330
1F
100
AcDbEntity
  8
Visible (ANSI)
100
AcDbLine
 10
3211.354539904427
 20
3535.0
 30
0.0
 11
3235.62504973568
 21
3535.0
 31
0.0
  0
LINE
  5
5B93
330
1F
100
AcDbEntity
  8
Visible (ANSI)
100
AcDbLine
 10
3211.354539904427
 20
3535.0
 30
0.0
 11
3211.354539904427
 21
3985.0
 31
0.0
  0
LINE
  5
5B94
330
1F
100
AcDbEntity
  8
Visible (ANSI)
100
AcDbLine
 10
3204.008435010295
 20
3535.0
 30
0.0
 11
3211.354539904427
 21
3535.0
 31
0.0
  0
LINE
  5
5B95
330
1F
100
AcDbEntity
  8
Visible (ANSI)
100
AcDbLine
 10
3204.008435010295
 20
3535.0
 30
0.0
 11
3204.008435010295
 21
3985.0
 31
0.0
  0
LINE
  5
5B96
330
1F
100
AcDbEntity
  8
Visible (ANSI)
100
AcDbLine
 10
3183.934516819523
 20
3535.0
 30
0.0
 11
3204.008435010294
 21
3535.0
 31
0.0
  0
LINE
  5
5B97
330
1F
100
AcDbEntity
  8
Visible (ANSI)
100
AcDbLine
 10
3183.934516819523
 20
3535.0
 30
0.0
 11
3183.934516819523
 21
3985.0
 31
0.0
  0
LINE
  5
5B98
330
1F
100
AcDbEntity
  8
Visible (ANSI)
100
AcDbLine
 10
3178.124166036565
 20
3535.0
 30
0.0
 11
3183.934516819523
 21
3535.0
 31
0.0
  0
LINE
  5
5B99
330
1F
100
AcDbEntity
  8
Visible (ANSI)
100
AcDbLine
 10
3178.124166036565
 20
3535.0
 30
0.0
 11
3178.124166036565
 21
3985.0
 31
0.0
  0
LINE
  5
5B9A
330
1F
100
AcDbEntity
  8
Visible (ANSI)
100
AcDbLine
 10
3163.124166036558
 20
3535.0
 30
0.0
 11
3178.124166036561
 21
3535.0
 31
0.0
  0
LINE
  5
5B9B
330
1F
100
AcDbEntity
  8
Visible (ANSI)
100
AcDbLine
 10
3163.124166036558
 20
3535.0
 30
0.0
 11
3163.124166036558
 21
3985.0
 31
0.0
  0
LINE
  5
5B9C
330
1F
100
AcDbEntity
  8
Visible (ANSI)
100
AcDbLine
 10
3159.103509575143
 20
3535.0
 30
0.0
 11
3163.124166036558
 21
3535.0
 31
0.0
  0
LINE
  5
5B9D
330
1F
100
AcDbEntity
  8
Visible (ANSI)
100
AcDbLine
 10
3159.103509575143
 20
3535.0
 30
0.0
 11
3159.103509575143
 21
3985.0
 31
0.0
  0
LINE
  5
5B9E
330
1F
100
AcDbEntity
  8
Visible (ANSI)
100
AcDbLine
 10
3149.832999743887
 20
3535.0
 30
0.0
 11
3159.103509575138
 21
3535.0
 31
0.0
  0
LINE
  5
5B9F
330
1F
100
AcDbEntity
  8
Visible (ANSI)
100
AcDbLine
 10
3149.832999743887
 20
3535.0
 30
0.0
 11
3149.832999743887
 21
3985.0
 31
0.0
  0
LINE
  5
5BA0
330
1F
100
AcDbEntity
  8
Visible (ANSI)
100
AcDbLine
 10
3147.777759584631
 20
3535.0
 30
0.0
 11
3149.832999743887
 21
3535.0
 31
0.0
  0
LINE
  5
5BA1
330
1F
100
AcDbEntity
  8
Visible (ANSI)
100
AcDbLine
 10
3147.777759584631
 20
3535.0
 30
0.0
 11
3147.777759584631
 21
3985.0
 31
0.0
  0
LINE
  5
5BA2
330
1F
100
AcDbEntity
  8
Visible (ANSI)
100
AcDbLine
 10
3144.641905686592
 20
3535.0
 30
0.0
 11
3147.777759584622
 21
3535.0
 31
0.0
  0
LINE
  5
5BA3
330
1F
100
AcDbEntity
  8
Visible (ANSI)
100
AcDbLine
 10
3144.641905686592
 20
3535.0
 30
0.0
 11
3144.641905686592
 21
3985.0
 31
0.0
  0
LINE
  5
5BA4
330
1F
100
AcDbEntity
  8
Visible (ANSI)
100
AcDbLine
 10
3430.43253629012
 20
3535.0
 30
0.0
 11
3430.43253629012
 21
3985.0
 31
0.0
  0
LINE
  5
5BA5
330
1F
100
AcDbEntity
  8
Visible (ANSI)
100
AcDbLine
 10
3239.905449221133
 20
3985.0
 30
0.0
 11
3239.905449221133
 21
3535.0
 31
0.0
  0
LINE
  5
5BA6
330
1F
100
AcDbEntity
  8
Visible (ANSI)
100
AcDbLine
 10
3426.152136804668
 20
3535.0
 30
0.0
 11
3426.152136804668
 21
3985.0
 31
0.0
  0
LINE
  5
5BA7
330
1F
100
AcDbEntity
  8
Visible (ANSI)
100
AcDbLine
 10
3426.152136804668
 20
3535.0
 30
0.0
 11
3430.43253629012
 21
3535.0
 31
0.0
  0
LINE
  5
5BA8
330
1F
100
AcDbEntity
  8
Visible (ANSI)
100
AcDbLine
 10
3398.745773075394
 20
3535.0
 30
0.0
 11
3426.152136804668
 21
3535.0
 31
0.0
  0
LINE
  5
5BA9
330
1F
100
AcDbEntity
  8
Visible (ANSI)
100
AcDbLine
 10
3398.745773075394
 20
3535.0
 30
0.0
 11
3398.745773075394
 21
3985.0
 31
0.0
  0
LINE
  5
5BAA
330
1F
100
AcDbEntity
  8
Visible (ANSI)
100
AcDbLine
 10
3389.344428022013
 20
3535.0
 30
0.0
 11
3398.745773075394
 21
3535.0
 31
0.0
  0
LINE
  5
5BAB
330
1F
100
AcDbEntity
  8
Visible (ANSI)
100
AcDbLine
 10
3389.344428022013
 20
3535.0
 30
0.0
 11
3389.344428022013
 21
3985.0
 31
0.0
  0
LINE
  5
5BAC
330
1F
100
AcDbEntity
  8
Visible (ANSI)
100
AcDbLine
 10
3360.0
 20
3535.0
 30
0.0
 11
3389.344428022013
 21
3535.0
 31
0.0
  0
LINE
  5
5BAD
330
1F
100
AcDbEntity
  8
Visible (ANSI)
100
AcDbLine
 10
3360.0
 20
3535.0
 30
0.0
 11
3360.0
 21
3985.0
 31
0.0
  0
LINE
  5
5BAE
330
1F
100
AcDbEntity
  8
Visible (ANSI)
100
AcDbLine
 10
3350.168992755634
 20
3535.0
 30
0.0
 11
3360.0
 21
3535.0
 31
0.0
  0
LINE
  5
5BAF
330
1F
100
AcDbEntity
  8
Visible (ANSI)
100
AcDbLine
 10
3350.168992755634
 20
3535.0
 30
0.0
 11
3350.168992755634
 21
3985.0
 31
0.0
  0
LINE
  5
5BB0
330
1F
100
AcDbEntity
  8
Visible (ANSI)
100
AcDbLine
 10
3320.168992755634
 20
3535.0
 30
0.0
 11
3350.168992755634
 21
3535.0
 31
0.0
  0
LINE
  5
5BB1
330
1F
100
AcDbEntity
  8
Visible (ANSI)
100
AcDbLine
 10
3320.168992755634
 20
3535.0
 30
0.0
 11
3320.168992755634
 21
3985.0
 31
0.0
  0
LINE
  5
5BB2
330
1F
100
AcDbEntity
  8
Visible (ANSI)
100
AcDbLine
 10
3310.337985511266
 20
3535.0
 30
0.0
 11
3320.168992755634
 21
3535.0
 31
0.0
  0
LINE
  5
5BB3
330
1F
100
AcDbEntity
  8
Visible (ANSI)
100
AcDbLine
 10
3310.337985511266
 20
3535.0
 30
0.0
 11
3310.337985511266
 21
3985.0
 31
0.0
  0
LINE
  5
5BB4
330
1F
100
AcDbEntity
  8
Visible (ANSI)
100
AcDbLine
 10
3280.99355748925
 20
3535.0
 30
0.0
 11
3310.337985511266
 21
3535.0
 31
0.0
  0
LINE
  5
5BB5
330
1F
100
AcDbEntity
  8
Visible (ANSI)
100
AcDbLine
 10
3280.99355748925
 20
3535.0
 30
0.0
 11
3280.99355748925
 21
3985.0
 31
0.0
  0
LINE
  5
5BB6
330
1F
100
AcDbEntity
  8
Visible (ANSI)
100
AcDbLine
 10
3271.592212435868
 20
3535.0
 30
0.0
 11
3280.99355748925
 21
3535.0
 31
0.0
  0
LINE
  5
5BB7
330
1F
100
AcDbEntity
  8
Visible (ANSI)
100
AcDbLine
 10
3271.592212435868
 20
3535.0
 30
0.0
 11
3271.592212435868
 21
3985.0
 31
0.0
  0
LINE
  5
5BB8
330
1F
100
AcDbEntity
  8
Visible (ANSI)
100
AcDbLine
 10
3244.185848706586
 20
3535.0
 30
0.0
 11
3271.592212435868
 21
3535.0
 31
0.0
  0
LINE
  5
5BB9
330
1F
100
AcDbEntity
  8
Visible (ANSI)
100
AcDbLine
 10
3244.185848706586
 20
3535.0
 30
0.0
 11
3244.185848706586
 21
3985.0
 31
0.0
  0
LINE
  5
5BBA
330
1F
100
AcDbEntity
  8
Visible (ANSI)
100
AcDbLine
 10
3239.905449221133
 20
3535.0
 30
0.0
 11
3244.185848706586
 21
3535.0
 31
0.0
  0
LINE
  5
5BBB
330
1F
100
AcDbEntity
  8
Visible (ANSI)
100
AcDbLine
 10
3430.43253629012
 20
3985.0
 30
0.0
 11
3430.43253629012
 21
3535.0
 31
0.0
  0
LINE
  5
5BBC
330
1F
100
AcDbEntity
  8
Visible (ANSI)
100
AcDbLine
 10
3525.696079824565
 20
3535.0
 30
0.0
 11
3525.696079824565
 21
3985.0
 31
0.0
  0
LINE
  5
5BBD
330
1F
100
AcDbEntity
  8
Visible (ANSI)
100
AcDbLine
 10
3522.560225926536
 20
3535.0
 30
0.0
 11
3525.696079824566
 21
3535.0
 31
0.0
  0
LINE
  5
5BBE
330
1F
100
AcDbEntity
  8
Visible (ANSI)
100
AcDbLine
 10
3522.560225926544
 20
3535.0
 30
0.0
 11
3522.560225926544
 21
3985.0
 31
0.0
  0
LINE
  5
5BBF
330
1F
100
AcDbEntity
  8
Visible (ANSI)
100
AcDbLine
 10
3520.504985767294
 20
3535.0
 30
0.0
 11
3522.560225926544
 21
3535.0
 31
0.0
  0
LINE
  5
5BC0
330
1F
100
AcDbEntity
  8
Visible (ANSI)
100
AcDbLine
 10
3520.504985767294
 20
3535.0
 30
0.0
 11
3520.504985767294
 21
3985.0
 31
0.0
  0
LINE
  5
5BC1
330
1F
100
AcDbEntity
  8
Visible (ANSI)
100
AcDbLine
 10
3511.234475936048
 20
3535.0
 30
0.0
 11
3520.504985767294
 21
3535.0
 31
0.0
  0
LINE
  5
5BC2
330
1F
100
AcDbEntity
  8
Visible (ANSI)
100
AcDbLine
 10
3511.234475936054
 20
3535.0
 30
0.0
 11
3511.234475936054
 21
3985.0
 31
0.0
  0
LINE
  5
5BC3
330
1F
100
AcDbEntity
  8
Visible (ANSI)
100
AcDbLine
 10
3507.213819474645
 20
3535.0
 30
0.0
 11
3511.234475936054
 21
3535.0
 31
0.0
  0
LINE
  5
5BC4
330
1F
100
AcDbEntity
  8
Visible (ANSI)
100
AcDbLine
 10
3507.213819474645
 20
3535.0
 30
0.0
 11
3507.213819474645
 21
3985.0
 31
0.0
  0
LINE
  5
5BC5
330
1F
100
AcDbEntity
  8
Visible (ANSI)
100
AcDbLine
 10
3492.213819474649
 20
3535.0
 30
0.0
 11
3507.213819474645
 21
3535.0
 31
0.0
  0
LINE
  5
5BC6
330
1F
100
AcDbEntity
  8
Visible (ANSI)
100
AcDbLine
 10
3492.213819474653
 20
3535.0
 30
0.0
 11
3492.213819474653
 21
3985.0
 31
0.0
  0
LINE
  5
5BC7
330
1F
100
AcDbEntity
  8
Visible (ANSI)
100
AcDbLine
 10
3486.4034686917
 20
3535.0
 30
0.0
 11
3492.213819474653
 21
3535.0
 31
0.0
  0
LINE
  5
5BC8
330
1F
100
AcDbEntity
  8
Visible (ANSI)
100
AcDbLine
 10
3486.4034686917
 20
3535.0
 30
0.0
 11
3486.4034686917
 21
3985.0
 31
0.0
  0
LINE
  5
5BC9
330
1F
100
AcDbEntity
  8
Visible (ANSI)
100
AcDbLine
 10
3466.329550500939
 20
3535.0
 30
0.0
 11
3486.4034686917
 21
3535.0
 31
0.0
  0
LINE
  5
5BCA
330
1F
100
AcDbEntity
  8
Visible (ANSI)
100
AcDbLine
 10
3466.329550500941
 20
3535.0
 30
0.0
 11
3466.329550500941
 21
3985.0
 31
0.0
  0
LINE
  5
5BCB
330
1F
100
AcDbEntity
  8
Visible (ANSI)
100
AcDbLine
 10
3458.983445606815
 20
3535.0
 30
0.0
 11
3466.329550500941
 21
3535.0
 31
0.0
  0
LINE
  5
5BCC
330
1F
100
AcDbEntity
  8
Visible (ANSI)
100
AcDbLine
 10
3458.983445606815
 20
3535.0
 30
0.0
 11
3458.983445606815
 21
3985.0
 31
0.0
  0
LINE
  5
5BCD
330
1F
100
AcDbEntity
  8
Visible (ANSI)
100
AcDbLine
 10
3434.712935775571
 20
3535.0
 30
0.0
 11
3458.983445606815
 21
3535.0
 31
0.0
  0
LINE
  5
5BCE
330
1F
100
AcDbEntity
  8
Visible (ANSI)
100
AcDbLine
 10
3434.712935775571
 20
3535.0
 30
0.0
 11
3434.712935775571
 21
3985.0
 31
0.0
  0
LINE
  5
5BCF
330
1F
100
AcDbEntity
  8
Visible (ANSI)
100
AcDbLine
 10
3430.43253629012
 20
3535.0
 30
0.0
 11
3434.712935775571
 21
3535.0
 31
0.0
  0
LINE
  5
5BD0
330
1F
100
AcDbEntity
  8
Visible (ANSI)
100
AcDbLine
 10
3595.168992755578
 20
4045.0
 30
0.0
 11
3075.168992755578
 21
4045.0
 31
0.0
  0
LINE
  5
5BD1
330
1F
100
AcDbEntity
  8
Visible (ANSI)
100
AcDbLine
 10
3075.168992755578
 20
3985.0
 30
0.0
 11
3595.168992755578
 21
3985.0
 31
0.0
  0
LINE
  5
5BD2
330
1F
100
AcDbEntity
  8
Visible (ANSI)
100
AcDbLine
 10
3075.168992755578
 20
3985.0
 30
0.0
 11
3075.168992755578
 21
4045.0
 31
0.0
  0
LINE
  5
5BD3
330
1F
100
AcDbEntity
  8
Visible (ANSI)
100
AcDbLine
 10
3595.168992755578
 20
3985.0
 30
0.0
 11
3595.168992755578
 21
4045.0
 31
0.0
  0
LINE
  5
5BD4
330
1F
100
AcDbEntity
  8
Visible (ANSI)
100
AcDbLine
 10
3122.34149275559
 20
3984.0
 30
0.0
 11
3118.341492755591
 21
3984.0
 31
0.0
  0
LINE
  5
5BD5
330
1F
100
AcDbEntity
  8
Visible (ANSI)
100
AcDbLine
 10
3101.341492755591
 20
3984.0
 30
0.0
 11
3097.34149275559
 21
3984.0
 31
0.0
  0
LINE
  5
5BD6
330
1F
100
AcDbEntity
  8
Visible (ANSI)
100
AcDbLine
 10
3097.34149275559
 20
3985.0
 30
0.0
 11
3097.34149275559
 21
3984.0
 31
0.0
  0
LINE
  5
5BD7
330
1F
100
AcDbEntity
  8
Visible Narrow (ANSI)
100
AcDbLine
 10
3101.341492755591
 20
3984.0
 30
0.0
 11
3101.341492755591
 21
3985.0
 31
0.0
  0
LINE
  5
5BD8
330
1F
100
AcDbEntity
  8
Visible Narrow (ANSI)
100
AcDbLine
 10
3118.341492755591
 20
3985.0
 30
0.0
 11
3118.341492755591
 21
3984.0
 31
0.0
  0
LINE
  5
5BD9
330
1F
100
AcDbEntity
  8
Visible (ANSI)
100
AcDbLine
 10
3122.34149275559
 20
3984.0
 30
0.0
 11
3122.34149275559
 21
3985.0
 31
0.0
  0
LINE
  5
5BDA
330
1F
100
AcDbEntity
  8
Visible (ANSI)
100
AcDbLine
 10
3118.341492755591
 20
3984.0
 30
0.0
 11
3101.341492755591
 21
3984.0
 31
0.0
  0
TEXT
  5
5BF0
330
1F
100
AcDbEntity
  8
LINE
100
AcDbText
 10
3042.192670433222
 20
2869.283918452024
 30
0.0
 40
178.9271249552682
  1
ACE52
 41
1.000399999999999
100
AcDbText
  0
TEXT
  5
5BF7
330
1F
100
AcDbEntity
  8
LINE
100
AcDbText
 10
6215.854191710587
 20
2869.283918452023
 30
0.0
 40
178.9271249552682
  1
ACE52
 41
1.000399999999999
100
AcDbText
  0
MTEXT
  5
5BF8
330
1F
100
AcDbEntity
  8
0
370
     5
100
AcDbMText
 10
6480.0
 20
4450.972006383328
 30
0.0
 40
178.9271249552682
 41
291.5014337807873
 46
0.0
 71
     1
 72
     1
  1
52
 73
     1
 44
1.0
  0
MTEXT
  5
5BF9
330
1F
100
AcDbEntity
  8
0
370
     5
100
AcDbMText
 10
7120.0
 20
3910.972006383329
 30
0.0
 40
178.9271249552682
 41
291.5014337807873
 46
0.0
 71
     1
 72
     1
  1
52
 73
     1
 44
1.0
  0
VIEWPORT
  5
47D2
102
{ACAD_XDICTIONARY
360
47D3
102
}
330
D2
100
AcDbEntity
 67
     1
  8
0
100
AcDbViewport
 10
140.198712086883
 20
75.93139917521688
 30
0.0
 40
563.6628657517531
 41
245.8498273237193
 68
     1
 69
     1
 12
140.198712086883
 22
75.93139917521688
 13
0.0
 23
0.0
 14
10.0
 24
10.0
 15
10.0
 25
10.0
 16
0.0
 26
0.0
 36
1.0
 17
0.0
 27
0.0
 37
0.0
 42
50.0
 43
0.0
 44
0.0
 45
245.8498273237193
 50
0.0
 51
0.0
 72
  1000
 90
   819232
  1

281
     0
 71
     1
 74
     0
110
0.0
120
0.0
130
0.0
111
1.0
121
0.0
131
0.0
112
0.0
122
1.0
132
0.0
 79
     0
146
0.0
170
     0
 61
     5
348
F5
292
     1
282
     1
141
0.0
142
0.0
 63
   250
421
  3355443
  0
VIEWPORT
  5
5A42
102
{ACAD_XDICTIONARY
360
5A43
102
}
330
D2
100
AcDbEntity
 67
     1
  8
0
370
     5
100
AcDbViewport
 10
127.942639040727
 20
98.00105518165953
 30
0.0
 40
256.8639036758982
 41
194.9869758792287
 68
     2
 69
     2
 12
27607.14071683683
 22
-5034.931607361694
 13
0.0
 23
0.0
 14
10.0
 24
10.0
 15
10.0
 25
10.0
 16
0.0
 26
0.0
 36
1.0
 17
0.0
 27
0.0
 37
0.0
 42
50.0
 43
0.0
 44
0.0
 45
17071.45679574512
 50
0.0
 51
0.0
 72
  1000
 90
   819552
  1

281
     0
 71
     1
 74
     0
110
0.0
120
0.0
130
0.0
111
1.0
121
0.0
131
0.0
112
0.0
122
1.0
132
0.0
 79
     0
146
0.0
170
     0
 61
     5
348
F5
292
     1
282
     1
141
0.0
142
0.0
 63
   250
421
  3355443
  0
ENDSEC
  0
SECTION
  2
OBJECTS
  0
DICTIONARY
  5
C
330
0
100
AcDbDictionary
281
     1
  3
ACAD_CIP_PREVIOUS_PRODUCT_INFO
350
216
  3
ACAD_COLOR
350
6B
  3
ACAD_DETAILVIEWSTYLE
350
21B
  3
ACAD_GROUP
350
D
  3
ACAD_LAYOUT
350
1A
  3
ACAD_MATERIAL
350
6A
  3
ACAD_MLEADERSTYLE
350
12D
  3
ACAD_MLINESTYLE
350
17
  3
ACAD_PLOTSETTINGS
350
19
  3
ACAD_PLOTSTYLENAME
350
E
  3
ACAD_SCALELIST
350
10C
  3
ACAD_SECTIONVIEWSTYLE
350
219
  3
ACAD_TABLESTYLE
350
7E
  3
ACAD_VISUALSTYLE
350
EF
  3
ACDB_RECOMPOSE_DATA
350
5CE9
  3
AcDbVariableDictionary
350
5E
  3
AcDsDecomposeData
350
5CEF
  0
DICTIONARY
  5
1FF
330
2
100
AcDbDictionary
280
     1
281
     1
  3
ACAD_LAYERSTATES
360
200
  0
DICTIONARY
  5
13C
330
10
100
AcDbDictionary
280
     1
281
     1
  0
DICTIONARY
  5
1CE
330
1F
100
AcDbDictionary
280
     1
281
     1
  0
DICTIONARY
  5
2A4F
330
2996
100
AcDbDictionary
280
     1
281
     1
  0
DICTIONARY
  5
45AC
330
45AA
100
AcDbDictionary
280
     1
281
     1
  0
DICTIONARY
  5
54EE
330
54ED
100
AcDbDictionary
280
     1
281
     1
  3
ASDK_XREC_ANNOTATION_SCALE_INFO
360
54EF
  0
DICTIONARY
  5
54F2
330
54F1
100
AcDbDictionary
280
     1
281
     1
  3
ASDK_XREC_ANNOTATION_SCALE_INFO
360
54F3
  0
DICTIONARY
  5
47D3
330
47D2
100
AcDbDictionary
280
     1
281
     1
  3
ASDK_XREC_ANNOTATION_SCALE_INFO
360
47D4
  0
DICTIONARY
  5
5A43
330
5A42
100
AcDbDictionary
280
     1
281
     1
  3
ASDK_XREC_ANNOTATION_SCALE_INFO
360
5A44
  0
XRECORD
  5
216
102
{ACAD_REACTORS
330
C
102
}
330
C
100
AcDbXrecord
280
     1
300
ACD
300
2019
300
BDSADV_F_S
  0
DICTIONARY
  5
6B
102
{ACAD_REACTORS
330
C
102
}
330
C
100
AcDbDictionary
281
     1
  0
DICTIONARY
  5
21B
102
{ACAD_REACTORS
330
C
102
}
330
C
100
AcDbDictionary
281
     1
  3
Imperial24
350
65F
  3
Metric50
350
21C
  0
DICTIONARY
  5
D
102
{ACAD_REACTORS
330
C
102
}
330
C
100
AcDbDictionary
281
     1
  0
DICTIONARY
  5
1A
102
{ACAD_REACTORS
330
C
102
}
330
C
100
AcDbDictionary
281
     1
  3
Layout1
350
D3
  3
Layout2
350
D7
  3
Model
350
22
  0
DICTIONARY
  5
6A
102
{ACAD_REACTORS
330
C
102
}
330
C
100
AcDbDictionary
281
     1
  3
ByBlock
350
ED
  3
ByLayer
350
EC
  3
Global
350
EE
  0
DICTIONARY
  5
12D
102
{ACAD_REACTORS
330
C
102
}
330
C
100
AcDbDictionary
281
     1
  3
Annotative
350
13B
  3
Standard
350
12E
  0
DICTIONARY
  5
17
102
{ACAD_REACTORS
330
C
102
}
330
C
100
AcDbDictionary
281
     1
  3
Standard
350
18
  0
DICTIONARY
  5
19
102
{ACAD_REACTORS
330
C
102
}
330
C
100
AcDbDictionary
281
     1
  0
ACDBDICTIONARYWDFLT
  5
E
102
{ACAD_REACTORS
330
C
102
}
330
C
100
AcDbDictionary
281
     1
  3
Normal
350
F
100
AcDbDictionaryWithDefault
340
F
  0
DICTIONARY
  5
10C
102
{ACAD_REACTORS
330
C
102
}
330
C
100
AcDbDictionary
281
     1
  3
A0
350
10D
  3
A1
350
1BE
  3
A2
350
1BF
  3
A3
350
1C0
  3
A4
350
1C1
  3
A5
350
1C2
  3
A6
350
1C3
  3
A7
350
1C4
  3
A8
350
1C5
  3
A9
350
1C6
  3
B0
350
1C7
  3
B1
350
1C8
  3
B2
350
1C9
  3
B3
350
1CA
  3
B4
350
1CB
  3
B5
350
1CC
  3
B6
350
1CD
  0
DICTIONARY
  5
219
102
{ACAD_REACTORS
330
C
102
}
330
C
100
AcDbDictionary
281
     1
  3
Imperial24
350
65E
  3
Metric50
350
21A
  0
DICTIONARY
  5
7E
102
{ACAD_REACTORS
330
C
102
}
330
C
100
AcDbDictionary
281
     1
  3
Standard
350
7F
  0
DICTIONARY
  5
EF
102
{ACAD_REACTORS
330
C
102
}
330
C
100
AcDbDictionary
281
     1
  3
2dWireframe
350
F5
  3
Basic
350
F4
  3
Brighten
350
FB
  3
ColorChange
350
FF
  3
Conceptual
350
F8
  3
Dim
350
FA
  3
EdgeColorOff
350
1E6
  3
Facepattern
350
FE
  3
Flat
350
F0
  3
FlatWithEdges
350
F1
  3
Gouraud
350
F2
  3
GouraudWithEdges
350
F3
  3
Hidden
350
F7
  3
JitterOff
350
1E4
  3
Linepattern
350
FD
  3
OverhangOff
350
1E5
  3
Realistic
350
F9
  3
Shaded
350
1F3
  3
Shaded with edges
350
1F2
  3
Shades of Gray
350
1EF
  3
Sketchy
350
1F0
  3
Thicken
350
FC
  3
Wireframe
350
F6
  3
X-Ray
350
1F1
  0
XRECORD
  5
5CE9
102
{ACAD_REACTORS
330
C
102
}
330
C
100
AcDbXrecord
280
     1
 90
        1
330
7F
  0
DICTIONARY
  5
5E
102
{ACAD_REACTORS
330
C
102
}
330
C
100
AcDbDictionary
281
     1
  3
CANNOSCALE
350
146
  3
CMLEADERSTYLE
350
145
  3
CTABLESTYLE
350
84
  3
CVIEWDETAILSTYLE
350
227
  3
CVIEWSECTIONSTYLE
350
228
  3
DIMASSOC
350
5F
  3
HIDETEXT
350
63
  3
LAYEREVAL
350
1AE
  3
LAYERNOTIFY
350
1AF
  0
DICTIONARY
  5
5CEF
102
{ACAD_REACTORS
330
C
102
}
330
C
100
AcDbDictionary
281
     1
  3
AcDsRecords
350
5CF1
  3
AcDsSchemas
350
5CF0
1001
ACAD
1070
     2
  0
DICTIONARY
  5
200
102
{ACAD_REACTORS
330
1FF
102
}
330
1FF
100
AcDbDictionary
281
     1
  0
XRECORD
  5
54EF
102
{ACAD_REACTORS
330
54EE
102
}
330
54EE
100
AcDbXrecord
280
     1
 90
        1
340
10D
  0
XRECORD
  5
54F3
102
{ACAD_REACTORS
330
54F2
102
}
330
54F2
100
AcDbXrecord
280
     1
 90
        1
340
10D
  0
XRECORD
  5
47D4
102
{ACAD_REACTORS
330
47D3
102
}
330
47D3
100
AcDbXrecord
280
     1
 90
        1
340
10D
  0
XRECORD
  5
5A44
102
{ACAD_REACTORS
330
5A43
102
}
330
5A43
100
AcDbXrecord
280
     1
 90
        1
340
10D
  0
ACDBDETAILVIEWSTYLE
  5
65F
102
{ACAD_XDICTIONARY
360
5CF8
102
}
102
{ACAD_REACTORS
330
21B
102
}
330
21B
100
AcDbModelDocViewStyle
 70
     0
  3
Imperial24
290
     0
100
AcDbDetailViewStyle
 70
     0
 71
     0
 90
        3
 71
     1
340
11
 62
   256
 40
0.24
340
0
 62
   256
 40
0.24
300

 40
0.36
280
     3
 71
     2
340
16
 90
       25
 62
   256
 71
     3
340
11
 62
   256
 40
0.24
 90
        1
 40
0.75
 90
        1
300
%<\AcVar ViewType \f "%tc1">% %<\AcVar ViewDetailId>%\PSCALE %<\AcVar ViewScale \f "%sn">%
 71
     4
340
16
 90
       25
 62
   256
340
16
 90
       25
 62
   256
280
     0
  0
ACDBDETAILVIEWSTYLE
  5
21C
102
{ACAD_XDICTIONARY
360
5CF4
102
}
102
{ACAD_REACTORS
330
21B
102
}
330
21B
100
AcDbModelDocViewStyle
 70
     0
  3
Metric50
290
     0
100
AcDbDetailViewStyle
 70
     0
 71
     0
 90
        3
 71
     1
340
11
 62
   256
 40
5.0
340
0
 62
   256
 40
5.0
300

 40
0.0
280
     1
 71
     2
340
16
 90
       25
 62
   256
 71
     3
340
11
 62
   256
 40
5.0
 90
        0
 40
15.0
 90
        1
300
%<\AcVar ViewDetailId>% (%<\AcVar ViewScale \f "%sn">%)
 71
     4
340
16
 90
       25
 62
   256
340
16
 90
       25
 62
   256
280
     0
  0
LAYOUT
  5
D3
102
{ACAD_REACTORS
330
1A
102
}
330
1A
100
AcDbPlotSettings
  1

  2
None
  4
ISO_A4_(210.00_x_297.00_MM)
  6

 40
7.5
 41
20.0
 42
7.5
 43
20.0
 44
210.0
 45
297.0
 46
0.0
 47
0.0
 48
0.0
 49
0.0
140
0.0
141
0.0
142
1.0
143
1.0
 70
   688
 72
     1
 73
     1
 74
     5
  7

 75
    16
147
1.0
 76
     0
 77
     2
 78
   300
148
0.0
149
0.0
100
AcDbLayout
  1
Layout1
 70
     1
 71
     1
 10
-20.0
 20
-7.5
 11
277.0
 21
202.5
 12
0.0
 22
0.0
 32
0.0
 14
-0.4893127972220555
 24
0.5075672420451838
 34
0.0
 15
256.3745908786761
 25
195.4945431212738
 35
0.0
146
0.0
 13
0.0
 23
0.0
 33
0.0
 16
1.0
 26
0.0
 36
0.0
 17
0.0
 27
1.0
 37
0.0
 76
     0
330
D2
331
47D2
1001
ACAD_PSEXT
1000
None
1000
None
1000
Not applicable
1000
The layout will not be plotted unless a new plotter configuration name is selected.
1070
     0
  0
LAYOUT
  5
D7
102
{ACAD_REACTORS
330
1A
102
}
330
1A
100
AcDbPlotSettings
  1

  2
None
  4
ISO_A4_(210.00_x_297.00_MM)
  6

 40
7.5
 41
20.0
 42
7.5
 43
20.0
 44
210.0
 45
297.0
 46
0.0
 47
0.0
 48
0.0
 49
0.0
140
0.0
141
0.0
142
1.0
143
1.0
 70
   688
 72
     1
 73
     1
 74
     5
  7

 75
    16
147
1.0
 76
     0
 77
     2
 78
   300
148
0.0
149
0.0
100
AcDbLayout
  1
Layout2
 70
     1
 71
     2
 10
-20.0
 20
-7.5
 11
277.0
 21
202.5
 12
0.0
 22
0.0
 32
0.0
 14
25.69999999999999
 24
19.5
 34
0.0
 15
231.3
 25
175.5
 35
0.0
146
0.0
 13
0.0
 23
0.0
 33
0.0
 16
1.0
 26
0.0
 36
0.0
 17
0.0
 27
1.0
 37
0.0
 76
     0
330
D6
331
54ED
1001
ACAD_PSEXT
1000
None
1000
None
1000
Not applicable
1000
The layout will not be plotted unless a new plotter configuration name is selected.
1070
     0
  0
LAYOUT
  5
22
102
{ACAD_XDICTIONARY
360
205
102
}
102
{ACAD_REACTORS
330
1A
102
}
330
1A
100
AcDbPlotSettings
  1

  2
none_device
  4
ISO_A4_(210.00_x_297.00_MM)
  6

 40
7.5
 41
20.0
 42
7.5
 43
20.0
 44
210.0
 45
297.0
 46
11.54999923706054
 47
-13.65000009536743
 48
0.0
 49
0.0
140
0.0
141
0.0
142
1.0
143
8.704084754739808
 70
 11952
 72
     1
 73
     0
 74
     0
  7

 75
     0
147
0.1148885871608098
 76
     0
 77
     2
 78
   300
148
0.0
149
0.0
100
AcDbLayout
  1
Model
 70
     1
 71
     0
 10
0.0
 20
0.0
 11
12.0
 21
9.0
 12
0.0
 22
0.0
 32
0.0
 14
0.0
 24
0.0
 34
0.0
 15
0.0
 25
0.0
 35
0.0
146
0.0
 13
0.0
 23
0.0
 33
0.0
 16
1.0
 26
0.0
 36
0.0
 17
0.0
 27
1.0
 37
0.0
 76
     0
330
1F
331
EA
1001
ACAD_PSEXT
1000
None
1000
None
1000
Not applicable
1000
The layout will not be plotted unless a new plotter configuration name is selected.
1070
     0
  0
MATERIAL
  5
ED
102
{ACAD_XDICTIONARY
360
1F9
102
}
102
{ACAD_REACTORS
330
6A
102
}
330
6A
100
AcDbMaterial
  1
ByBlock
 94
       63
  0
MATERIAL
  5
EC
102
{ACAD_XDICTIONARY
360
1F7
102
}
102
{ACAD_REACTORS
330
6A
102
}
330
6A
100
AcDbMaterial
  1
ByLayer
 94
       63
  0
MATERIAL
  5
EE
102
{ACAD_XDICTIONARY
360
173
102
}
102
{ACAD_REACTORS
330
6A
102
}
330
6A
100
AcDbMaterial
  1
Global
 43
0.0007999999797903
 43
0.0
 43
0.0
 43
0.0
 43
0.0
 43
0.0007999999797903
 43
0.0
 43
0.0
 43
0.0
 43
0.0
 43
1.0
 43
0.0
 43
0.0
 43
0.0
 43
0.0
 43
1.0
 49
0.0007999999797903
 49
0.0
 49
0.0
 49
0.0
 49
0.0
 49
0.0007999999797903
 49
0.0
 49
0.0
 49
0.0
 49
0.0
 49
1.0
 49
0.0
 49
0.0
 49
0.0
 49
0.0
 49
1.0
142
0.0007999999797903
142
0.0
142
0.0
142
0.0
142
0.0
142
0.0007999999797903
142
0.0
142
0.0
142
0.0
142
0.0
142
1.0
142
0.0
142
0.0
142
0.0
142
0.0
142
1.0
144
0.0007999999797903
144
0.0
144
0.0
144
0.0
144
0.0
144
0.0007999999797903
144
0.0
144
0.0
144
0.0
144
0.0
144
1.0
144
0.0
144
0.0
144
0.0
144
0.0
144
1.0
 94
       63
1001
ACAD
1070
    -1
1070
     3
1070
     0
1000

1071
        0
1070
     0
  0
MLEADERSTYLE
  5
13B
102
{ACAD_REACTORS
330
12D
102
}
330
12D
100
AcDbMLeaderStyle
179
     2
170
     2
171
     1
172
     0
 90
        2
 40
0.0
 41
0.0
173
     1
 91
-1056964608
340
14
 92
       -2
290
     1
 42
2.0
291
     1
 43
8.0
  3
Standard
 44
4.0
300

342
11
174
     1
178
     1
175
     1
176
     0
 93
-1056964608
 45
4.0
292
     0
297
     0
 46
4.0
 94
-1056964608
 47
1.0
 49
1.0
140
1.0
293
     1
141
0.0
294
     1
177
     0
142
1.0
295
     0
296
     1
143
3.75
271
     0
272
     9
273
     9
298
     0
  0
MLEADERSTYLE
  5
12E
102
{ACAD_REACTORS
330
12D
102
}
330
12D
100
AcDbMLeaderStyle
179
     2
170
     2
171
     1
172
     0
 90
        2
 40
0.0
 41
0.0
173
     1
 91
-1056964608
340
14
 92
       -2
290
     1
 42
2.0
291
     1
 43
8.0
  3
Standard
 44
4.0
300

342
11
174
     1
178
     1
175
     1
176
     0
 93
-1056964608
 45
4.0
292
     0
297
     0
 46
4.0
 94
-1056964608
 47
1.0
 49
1.0
140
1.0
293
     1
141
0.0
294
     1
177
     0
142
1.0
295
     0
296
     0
143
3.75
271
     0
272
     9
273
     9
298
     0
  0
MLINESTYLE
  5
18
102
{ACAD_REACTORS
330
17
102
}
330
17
100
AcDbMlineStyle
  2
STANDARD
 70
     0
  3

 62
   256
 51
90.0
 52
90.0
 71
     2
 49
0.5
 62
   256
  6
BYLAYER
 49
-0.5
 62
   256
  6
BYLAYER
  0
ACDBPLACEHOLDER
  5
F
102
{ACAD_REACTORS
330
E
102
}
330
E
  0
SCALE
  5
10D
102
{ACAD_REACTORS
330
10C
102
}
330
10C
100
AcDbScale
 70
     0
300
1:1
140
1.0
141
1.0
290
     1
  0
SCALE
  5
1BE
102
{ACAD_REACTORS
330
10C
102
}
330
10C
100
AcDbScale
 70
     0
300
1:2
140
1.0
141
2.0
290
     0
  0
SCALE
  5
1BF
102
{ACAD_REACTORS
330
10C
102
}
330
10C
100
AcDbScale
 70
     0
300
1:4
140
1.0
141
4.0
290
     0
  0
SCALE
  5
1C0
102
{ACAD_REACTORS
330
10C
102
}
330
10C
100
AcDbScale
 70
     0
300
1:5
140
1.0
141
5.0
290
     0
  0
SCALE
  5
1C1
102
{ACAD_REACTORS
330
10C
102
}
330
10C
100
AcDbScale
 70
     0
300
1:8
140
1.0
141
8.0
290
     0
  0
SCALE
  5
1C2
102
{ACAD_REACTORS
330
10C
102
}
330
10C
100
AcDbScale
 70
     0
300
1:10
140
1.0
141
10.0
290
     0
  0
SCALE
  5
1C3
102
{ACAD_REACTORS
330
10C
102
}
330
10C
100
AcDbScale
 70
     0
300
1:16
140
1.0
141
16.0
290
     0
  0
SCALE
  5
1C4
102
{ACAD_REACTORS
330
10C
102
}
330
10C
100
AcDbScale
 70
     0
300
1:20
140
1.0
141
20.0
290
     0
  0
SCALE
  5
1C5
102
{ACAD_REACTORS
330
10C
102
}
330
10C
100
AcDbScale
 70
     0
300
1:30
140
1.0
141
30.0
290
     0
  0
SCALE
  5
1C6
102
{ACAD_REACTORS
330
10C
102
}
330
10C
100
AcDbScale
 70
     0
300
1:40
140
1.0
141
40.0
290
     0
  0
SCALE
  5
1C7
102
{ACAD_REACTORS
330
10C
102
}
330
10C
100
AcDbScale
 70
     0
300
1:50
140
1.0
141
50.0
290
     0
  0
SCALE
  5
1C8
102
{ACAD_REACTORS
330
10C
102
}
330
10C
100
AcDbScale
 70
     0
300
1:100
140
1.0
141
100.0
290
     0
  0
SCALE
  5
1C9
102
{ACAD_REACTORS
330
10C
102
}
330
10C
100
AcDbScale
 70
     0
300
2:1
140
2.0
141
1.0
290
     0
  0
SCALE
  5
1CA
102
{ACAD_REACTORS
330
10C
102
}
330
10C
100
AcDbScale
 70
     0
300
4:1
140
4.0
141
1.0
290
     0
  0
SCALE
  5
1CB
102
{ACAD_REACTORS
330
10C
102
}
330
10C
100
AcDbScale
 70
     0
300
8:1
140
8.0
141
1.0
290
     0
  0
SCALE
  5
1CC
102
{ACAD_REACTORS
330
10C
102
}
330
10C
100
AcDbScale
 70
     0
300
10:1
140
10.0
141
1.0
290
     0
  0
SCALE
  5
1CD
102
{ACAD_REACTORS
330
10C
102
}
330
10C
100
AcDbScale
 70
     0
300
100:1
140
100.0
141
1.0
290
     0
  0
ACDBSECTIONVIEWSTYLE
  5
65E
102
{ACAD_XDICTIONARY
360
5CF6
102
}
102
{ACAD_REACTORS
330
219
102
}
330
219
100
AcDbModelDocViewStyle
 70
     0
  3
Imperial24
290
     0
100
AcDbSectionViewStyle
 70
     0
 71
     0
 90
       78
 71
     1
340
11
 62
   256
 40
0.24
340
0
340
0
 62
   256
 40
0.24
300
I, O, Q, S, X, Z
 40
0.48
 90
        3
 40
0.18
 90
        1
 71
     2
340
16
 90
       25
 62
   256
340
16
 90
       50
 62
   256
 40
0.24
 40
0.0
 40
0.24
 71
     3
340
11
 62
   256
 40
0.24
 90
        1
 40
0.75
 90
        1
300
%<\AcVar ViewType \f "%tc1">% %<\AcVar ViewSectionStartId>%-%<\AcVar ViewSectionEndId>%\PSCALE %<\AcVar ViewScale \f "%sn">%
 71
     4
 62
   256
 62
   257
300
ANSI31
 40
1.0
 90
        0
290
     0
290
     0
 90
        6
 40
0.0
 40
1.570796326794896
 40
0.2617993877991494
 40
1.308996938995747
 40
-0.2617993877991494
 40
1.832595714594046
  0
ACDBSECTIONVIEWSTYLE
  5
21A
102
{ACAD_XDICTIONARY
360
5CF2
102
}
102
{ACAD_REACTORS
330
219
102
}
330
219
100
AcDbModelDocViewStyle
 70
     0
  3
Metric50
290
     0
100
AcDbSectionViewStyle
 70
     0
 71
     0
 90
      102
 71
     1
340
11
 62
   256
 40
5.0
340
0
340
0
 62
   256
 40
5.0
300
I, O, Q, S, X, Z
 40
10.0
 90
        0
 40
2.5
 90
        0
 71
     2
340
16
 90
       25
 62
   256
340
16
 90
       50
 62
   256
 40
5.0
 40
2.5
 40
5.0
 71
     3
340
11
 62
   256
 40
5.0
 90
        0
 40
15.0
 90
        1
300
%<\AcVar ViewSectionStartId>%-%<\AcVar ViewSectionEndId>% (%<\AcVar ViewScale \f "%sn">%)
 71
     4
 62
   256
 62
   257
300
ANSI31
 40
1.0
 90
        0
290
     0
290
     0
 90
        6
 40
0.0
 40
1.570796326794896
 40
0.2617993877991494
 40
1.308996938995747
 40
-0.2617993877991494
 40
1.832595714594046
  0
TABLESTYLE
  5
7F
102
{ACAD_XDICTIONARY
360
162
102
}
102
{ACAD_REACTORS
330
7E
102
}
330
7E
100
AcDbTableStyle
280
     0
  3
Standard
 70
     0
 71
     0
 40
1.5
 41
1.5
280
     0
281
     0
  7
Standard
140
4.5
170
     2
 62
     0
 63
     7
283
     0
 90
      512
 91
        0
  1

274
    -2
284
     1
 64
     0
275
    -2
285
     1
 65
     0
276
    -2
286
     1
 66
     0
277
    -2
287
     1
 67
     0
278
    -2
288
     1
 68
     0
279
    -2
289
     1
 69
     0
  7
Standard
140
6.0
170
     5
 62
     0
 63
     7
283
     0
 90
      512
 91
        0
  1

274
    -2
284
     1
 64
     0
275
    -2
285
     1
 65
     0
276
    -2
286
     1
 66
     0
277
    -2
287
     1
 67
     0
278
    -2
288
     1
 68
     0
279
    -2
289
     1
 69
     0
  7
Standard
140
4.5
170
     5
 62
     0
 63
     7
283
     0
 90
      512
 91
        0
  1

274
    -2
284
     1
 64
     0
275
    -2
285
     1
 65
     0
276
    -2
286
     1
 66
     0
277
    -2
287
     1
 67
     0
278
    -2
288
     1
 68
     0
279
    -2
289
     1
 69
     0
  0
VISUALSTYLE
  5
F5
102
{ACAD_REACTORS
330
EF
102
}
330
EF
100
AcDbVisualStyle
  2
2dWireframe
 70
     4
177
     3
291
     0
 70
    58
 90
        0
176
     1
 90
        2
176
     1
 90
        1
176
     1
 90
        0
176
     1
 40
0.6
176
     1
 40
30.0
176
     1
 62
     7
420
 16777215
176
     1
 90
        1
176
     1
 90
        4
176
     1
 62
     7
176
     1
 62
   257
176
     1
 90
        1
176
     1
 90
        1
176
     1
 40
1.0
176
     1
 90
        0
176
     1
 62
   257
176
     1
 40
1.0
176
     1
 90
        1
176
     1
 90
        6
176
     1
 90
        2
176
     1
 62
     7
176
     1
 90
        5
176
     1
 90
        0
176
     1
 90
        0
176
     1
290
     0
176
     1
 90
        1
176
     1
 40
0.0
176
     1
 90
        0
176
     1
290
     1
176
     1
290
     1
176
     1
290
     0
176
     1
290
     0
176
     1
290
     0
176
     1
290
     0
176
     1
290
     0
176
     1
290
     0
176
     1
290
     0
176
     1
 90
       50
176
     1
 40
0.0
176
     1
 40
1.0
176
     1
 90
        0
176
     1
 62
    18
420
        0
176
     1
 90
       50
176
     1
 90
        3
176
     1
 62
     5
420
      255
176
     1
290
     0
176
     1
 90
       50
176
     1
 90
       50
176
     1
 90
       50
176
     1
290
     0
176
     1
 90
       50
176
     1
 62
   256
176
     0
 40
1.0
176
     0
 90
        2
176
     1
  1
strokes_ogs.tif
176
     1
290
     0
176
     1
 40
1.0
176
     1
 40
1.0
176
     1
1001
ACAD
1000
AcDbSavedByObjectVersion
1070
     0
  0
VISUALSTYLE
  5
F4
102
{ACAD_REACTORS
330
EF
102
}
330
EF
100
AcDbVisualStyle
  2
Basic
 70
     7
177
     3
291
     1
 70
    58
 90
        1
176
     1
 90
        0
176
     1
 90
        1
176
     1
 90
        0
176
     1
 40
0.6
176
     1
 40
30.0
176
     1
 62
     7
420
 16777215
176
     1
 90
        0
176
     1
 90
        4
176
     1
 62
     7
176
     1
 62
   257
176
     1
 90
        1
176
     1
 90
        1
176
     1
 40
1.0
176
     1
 90
        8
176
     1
 62
     7
176
     1
 40
1.0
176
     1
 90
        1
176
     1
 90
        6
176
     1
 90
        2
176
     1
 62
     7
176
     1
 90
        5
176
     1
 90
        0
176
     1
 90
        0
176
     1
290
     0
176
     1
 90
        1
176
     1
 40
0.0
176
     1
 90
        0
176
     1
290
     0
176
     1
290
     1
176
     1
290
     1
176
     1
290
     0
176
     1
290
     0
176
     1
290
     0
176
     1
290
     0
176
     1
290
     0
176
     1
290
     0
176
     1
 90
       50
176
     1
 40
0.0
176
     1
 40
1.0
176
     1
 90
        0
176
     1
 62
    18
420
        0
176
     1
 90
       50
176
     1
 90
        3
176
     1
 62
     5
420
      255
176
     1
290
     0
176
     1
 90
       50
176
     1
 90
       50
176
     1
 90
       50
176
     1
290
     0
176
     1
 90
       50
176
     1
 62
   256
176
     0
 40
1.0
176
     0
 90
        2
176
     1
  1
strokes_ogs.tif
176
     1
290
     0
176
     1
 40
1.0
176
     1
 40
1.0
176
     1
1001
ACAD
1000
AcDbSavedByObjectVersion
1070
     0
  0
VISUALSTYLE
  5
FB
102
{ACAD_REACTORS
330
EF
102
}
330
EF
100
AcDbVisualStyle
  2
Brighten
 70
    12
177
     3
291
     1
 70
    58
 90
        2
176
     1
 90
        2
176
     1
 90
        1
176
     1
 90
        0
176
     1
 40
0.6
176
     1
 40
30.0
176
     1
 62
     7
420
 16777215
176
     1
 90
        1
176
     1
 90
        4
176
     1
 62
     7
176
     1
 62
   257
176
     1
 90
        1
176
     1
 90
        1
176
     1
 40
1.0
176
     1
 90
        8
176
     1
 62
     7
176
     1
 40
1.0
176
     1
 90
        1
176
     1
 90
        6
176
     1
 90
        2
176
     1
 62
     7
176
     1
 90
        5
176
     1
 90
        0
176
     1
 90
        0
176
     1
290
     0
176
     1
 90
        1
176
     1
 40
50.0
176
     1
 90
        0
176
     1
290
     0
176
     1
290
     1
176
     1
290
     1
176
     1
290
     0
176
     1
290
     0
176
     1
290
     0
176
     1
290
     0
176
     1
290
     0
176
     1
290
     0
176
     1
 90
       50
176
     1
 40
0.0
176
     1
 40
1.0
176
     1
 90
        0
176
     1
 62
    18
420
        0
176
     1
 90
       50
176
     1
 90
        3
176
     1
 62
     5
420
      255
176
     1
290
     0
176
     1
 90
       50
176
     1
 90
       50
176
     1
 90
       50
176
     1
290
     0
176
     1
 90
       50
176
     1
 62
   256
176
     0
 40
1.0
176
     0
 90
        2
176
     1
  1
strokes_ogs.tif
176
     1
290
     0
176
     1
 40
1.0
176
     1
 40
1.0
176
     1
1001
ACAD
1000
AcDbSavedByObjectVersion
1070
     0
  0
VISUALSTYLE
  5
FF
102
{ACAD_REACTORS
330
EF
102
}
330
EF
100
AcDbVisualStyle
  2
ColorChange
 70
    16
177
     3
291
     1
 70
    58
 90
        2
176
     1
 90
        2
176
     1
 90
        3
176
     1
 90
        0
176
     1
 40
0.6
176
     1
 40
30.0
176
     1
 62
     8
420
  8421504
176
     1
 90
        1
176
     1
 90
        4
176
     1
 62
     7
176
     1
 62
   257
176
     1
 90
        1
176
     1
 90
        1
176
     1
 40
1.0
176
     1
 90
        8
176
     1
 62
     8
420
  8421504
176
     1
 40
1.0
176
     1
 90
        1
176
     1
 90
        6
176
     1
 90
        2
176
     1
 62
     7
176
     1
 90
        5
176
     1
 90
        0
176
     1
 90
        0
176
     1
290
     0
176
     1
 90
        1
176
     1
 40
0.0
176
     1
 90
        0
176
     1
290
     0
176
     1
290
     1
176
     1
290
     1
176
     1
290
     0
176
     1
290
     0
176
     1
290
     0
176
     1
290
     0
176
     1
290
     0
176
     1
290
     0
176
     1
 90
       50
176
     1
 40
0.0
176
     1
 40
1.0
176
     1
 90
        0
176
     1
 62
    18
420
        0
176
     1
 90
       50
176
     1
 90
        3
176
     1
 62
     5
420
      255
176
     1
290
     0
176
     1
 90
       50
176
     1
 90
       50
176
     1
 90
       50
176
     1
290
     0
176
     1
 90
       50
176
     1
 62
   256
176
     0
 40
1.0
176
     0
 90
        2
176
     1
  1
strokes_ogs.tif
176
     1
290
     0
176
     1
 40
1.0
176
     1
 40
1.0
176
     1
1001
ACAD
1000
AcDbSavedByObjectVersion
1070
     0
  0
VISUALSTYLE
  5
F8
102
{ACAD_REACTORS
330
EF
102
}
330
EF
100
AcDbVisualStyle
  2
Conceptual
 70
     9
177
     3
291
     0
 70
    58
 90
        3
176
     1
 90
        2
176
     1
 90
        1
176
     1
 90
        0
176
     1
 40
0.6
176
     1
 40
30.0
176
     1
 62
     7
420
 16777215
176
     1
 90
        2
176
     1
 90
        2
176
     1
 62
     7
176
     1
 62
   257
176
     1
 90
        1
176
     1
 90
        1
176
     1
 40
40.0
176
     1
 90
        8
176
     1
 62
     7
176
     1
 40
1.0
176
     1
 90
        1
176
     1
 90
        6
176
     1
 90
        2
176
     1
 62
     7
176
     1
 90
        3
176
     1
 90
        0
176
     1
 90
        0
176
     1
290
     0
176
     1
 90
        1
176
     1
 40
0.0
176
     1
 90
        0
176
     1
290
     0
176
     1
290
     1
176
     1
290
     1
176
     1
290
     0
176
     1
290
     0
176
     1
290
     0
176
     1
290
     0
176
     1
290
     0
176
     1
290
     0
176
     1
 90
       50
176
     1
 40
0.0
176
     1
 40
1.0
176
     1
 90
        0
176
     1
 62
    18
420
        0
176
     1
 90
       50
176
     1
 90
        3
176
     1
 62
     5
420
      255
176
     1
290
     0
176
     1
 90
       50
176
     1
 90
       50
176
     1
 90
       50
176
     1
290
     0
176
     1
 90
       50
176
     1
 62
   256
176
     0
 40
1.0
176
     0
 90
        2
176
     1
  1
strokes_ogs.tif
176
     1
290
     0
176
     1
 40
1.0
176
     1
 40
1.0
176
     1
1001
ACAD
1000
AcDbSavedByObjectVersion
1070
     0
  0
VISUALSTYLE
  5
FA
102
{ACAD_REACTORS
330
EF
102
}
330
EF
100
AcDbVisualStyle
  2
Dim
 70
    11
177
     3
291
     1
 70
    58
 90
        2
176
     1
 90
        2
176
     1
 90
        1
176
     1
 90
        0
176
     1
 40
0.6
176
     1
 40
30.0
176
     1
 62
     7
420
 16777215
176
     1
 90
        1
176
     1
 90
        4
176
     1
 62
     7
176
     1
 62
   257
176
     1
 90
        1
176
     1
 90
        1
176
     1
 40
1.0
176
     1
 90
        8
176
     1
 62
     7
176
     1
 40
1.0
176
     1
 90
        1
176
     1
 90
        6
176
     1
 90
        2
176
     1
 62
     7
176
     1
 90
        5
176
     1
 90
        0
176
     1
 90
        0
176
     1
290
     0
176
     1
 90
        1
176
     1
 40
-50.0
176
     1
 90
        0
176
     1
290
     0
176
     1
290
     1
176
     1
290
     1
176
     1
290
     0
176
     1
290
     0
176
     1
290
     0
176
     1
290
     0
176
     1
290
     0
176
     1
290
     0
176
     1
 90
       50
176
     1
 40
0.0
176
     1
 40
1.0
176
     1
 90
        0
176
     1
 62
    18
420
        0
176
     1
 90
       50
176
     1
 90
        3
176
     1
 62
     5
420
      255
176
     1
290
     0
176
     1
 90
       50
176
     1
 90
       50
176
     1
 90
       50
176
     1
290
     0
176
     1
 90
       50
176
     1
 62
   256
176
     0
 40
1.0
176
     0
 90
        2
176
     1
  1
strokes_ogs.tif
176
     1
290
     0
176
     1
 40
1.0
176
     1
 40
1.0
176
     1
1001
ACAD
1000
AcDbSavedByObjectVersion
1070
     0
  0
VISUALSTYLE
  5
1E6
102
{ACAD_REACTORS
330
EF
102
}
330
EF
100
AcDbVisualStyle
  2
EdgeColorOff
 70
    22
177
     3
291
     1
 70
    58
 90
        2
176
     0
 90
        2
176
     0
 90
        0
176
     0
 90
        0
176
     0
 40
0.6
176
     0
 40
30.0
176
     0
 62
     7
420
 16777215
176
     0
 90
        1
176
     0
 90
        4
176
     0
 62
     7
176
     0
 62
   257
176
     0
 90
        1
176
     0
 90
        1
176
     0
 40
1.0
176
     0
 90
        8
176
     2
 62
     7
176
     0
 40
1.0
176
     0
 90
        1
176
     0
 90
        6
176
     0
 90
        2
176
     0
 62
     7
176
     0
 90
        5
176
     0
 90
        0
176
     0
 90
        0
176
     0
290
     0
176
     0
 90
        1
176
     0
 40
0.0
176
     0
 90
        0
176
     0
290
     0
176
     1
290
     1
176
     1
290
     1
176
     1
290
     0
176
     1
290
     0
176
     1
290
     0
176
     1
290
     0
176
     1
290
     0
176
     1
290
     0
176
     1
 90
       50
176
     1
 40
0.0
176
     1
 40
1.0
176
     1
 90
        0
176
     1
 62
    18
420
        0
176
     1
 90
       50
176
     1
 90
        3
176
     1
 62
     5
420
      255
176
     1
290
     0
176
     1
 90
       50
176
     1
 90
       50
176
     1
 90
       50
176
     1
290
     0
176
     1
 90
       50
176
     1
 62
   256
176
     0
 40
1.0
176
     0
 90
        2
176
     1
  1
strokes_ogs.tif
176
     1
290
     0
176
     1
 40
1.0
176
     1
 40
1.0
176
     1
1001
ACAD
1000
AcDbSavedByObjectVersion
1070
     0
  0
VISUALSTYLE
  5
FE
102
{ACAD_REACTORS
330
EF
102
}
330
EF
100
AcDbVisualStyle
  2
Facepattern
 70
    15
177
     3
291
     1
 70
    58
 90
        2
176
     1
 90
        2
176
     1
 90
        1
176
     1
 90
        0
176
     1
 40
0.6
176
     1
 40
30.0
176
     1
 62
     7
420
 16777215
176
     1
 90
        1
176
     1
 90
        4
176
     1
 62
     7
176
     1
 62
   257
176
     1
 90
        1
176
     1
 90
        1
176
     1
 40
1.0
176
     1
 90
        8
176
     1
 62
     7
176
     1
 40
1.0
176
     1
 90
        1
176
     1
 90
        6
176
     1
 90
        2
176
     1
 62
     7
176
     1
 90
        5
176
     1
 90
        0
176
     1
 90
        0
176
     1
290
     0
176
     1
 90
        1
176
     1
 40
0.0
176
     1
 90
        0
176
     1
290
     0
176
     1
290
     1
176
     1
290
     1
176
     1
290
     0
176
     1
290
     0
176
     1
290
     0
176
     1
290
     0
176
     1
290
     0
176
     1
290
     0
176
     1
 90
       50
176
     1
 40
0.0
176
     1
 40
1.0
176
     1
 90
        0
176
     1
 62
    18
420
        0
176
     1
 90
       50
176
     1
 90
        3
176
     1
 62
     5
420
      255
176
     1
290
     0
176
     1
 90
       50
176
     1
 90
       50
176
     1
 90
       50
176
     1
290
     0
176
     1
 90
       50
176
     1
 62
   256
176
     0
 40
1.0
176
     0
 90
        2
176
     1
  1
strokes_ogs.tif
176
     1
290
     0
176
     1
 40
1.0
176
     1
 40
1.0
176
     1
1001
ACAD
1000
AcDbSavedByObjectVersion
1070
     0
  0
VISUALSTYLE
  5
F0
102
{ACAD_REACTORS
330
EF
102
}
330
EF
100
AcDbVisualStyle
  2
Flat
 70
     0
177
     3
291
     1
 70
    58
 90
        2
176
     1
 90
        1
176
     1
 90
        1
176
     1
 90
        2
176
     1
 40
0.6
176
     1
 40
30.0
176
     1
 62
     7
420
 16777215
176
     1
 90
        0
176
     1
 90
        0
176
     1
 62
     7
176
     1
 62
   257
176
     1
 90
        1
176
     1
 90
        1
176
     1
 40
1.0
176
     1
 90
        8
176
     1
 62
     7
176
     1
 40
1.0
176
     1
 90
        1
176
     1
 90
        6
176
     1
 90
        2
176
     1
 62
     7
176
     1
 90
        5
176
     1
 90
        0
176
     1
 90
        0
176
     1
290
     0
176
     1
 90
       13
176
     1
 40
0.0
176
     1
 90
        0
176
     1
290
     0
176
     1
290
     1
176
     1
290
     1
176
     1
290
     0
176
     1
290
     0
176
     1
290
     0
176
     1
290
     0
176
     1
290
     0
176
     1
290
     0
176
     1
 90
       50
176
     1
 40
0.0
176
     1
 40
1.0
176
     1
 90
        0
176
     1
 62
    18
420
        0
176
     1
 90
       50
176
     1
 90
        3
176
     1
 62
     5
420
      255
176
     1
290
     0
176
     1
 90
       50
176
     1
 90
       50
176
     1
 90
       50
176
     1
290
     0
176
     1
 90
       50
176
     1
 62
   256
176
     0
 40
1.0
176
     0
 90
        2
176
     1
  1
strokes_ogs.tif
176
     1
290
     0
176
     1
 40
1.0
176
     1
 40
1.0
176
     1
1001
ACAD
1000
AcDbSavedByObjectVersion
1070
     0
  0
VISUALSTYLE
  5
F1
102
{ACAD_REACTORS
330
EF
102
}
330
EF
100
AcDbVisualStyle
  2
FlatWithEdges
 70
     1
177
     3
291
     1
 70
    58
 90
        2
176
     1
 90
        1
176
     1
 90
        1
176
     1
 90
        2
176
     1
 40
0.6
176
     1
 40
30.0
176
     1
 62
     7
420
 16777215
176
     1
 90
        1
176
     1
 90
        0
176
     1
 62
     7
176
     1
 62
   257
176
     1
 90
        1
176
     1
 90
        1
176
     1
 40
1.0
176
     1
 90
        0
176
     1
 62
   257
176
     1
 40
1.0
176
     1
 90
        1
176
     1
 90
        6
176
     1
 90
        2
176
     1
 62
     7
176
     1
 90
        5
176
     1
 90
        0
176
     1
 90
        0
176
     1
290
     0
176
     1
 90
       13
176
     1
 40
0.0
176
     1
 90
        0
176
     1
290
     0
176
     1
290
     1
176
     1
290
     1
176
     1
290
     0
176
     1
290
     0
176
     1
290
     0
176
     1
290
     0
176
     1
290
     0
176
     1
290
     0
176
     1
 90
       50
176
     1
 40
0.0
176
     1
 40
1.0
176
     1
 90
        0
176
     1
 62
    18
420
        0
176
     1
 90
       50
176
     1
 90
        3
176
     1
 62
     5
420
      255
176
     1
290
     0
176
     1
 90
       50
176
     1
 90
       50
176
     1
 90
       50
176
     1
290
     0
176
     1
 90
       50
176
     1
 62
   256
176
     0
 40
1.0
176
     0
 90
        2
176
     1
  1
strokes_ogs.tif
176
     1
290
     0
176
     1
 40
1.0
176
     1
 40
1.0
176
     1
1001
ACAD
1000
AcDbSavedByObjectVersion
1070
     0
  0
VISUALSTYLE
  5
F2
102
{ACAD_REACTORS
330
EF
102
}
330
EF
100
AcDbVisualStyle
  2
Gouraud
 70
     2
177
     3
291
     1
 70
    58
 90
        2
176
     1
 90
        2
176
     1
 90
        1
176
     1
 90
        2
176
     1
 40
0.6
176
     1
 40
30.0
176
     1
 62
     7
420
 16777215
176
     1
 90
        0
176
     1
 90
        0
176
     1
 62
     7
176
     1
 62
   257
176
     1
 90
        1
176
     1
 90
        1
176
     1
 40
1.0
176
     1
 90
        0
176
     1
 62
     7
176
     1
 40
1.0
176
     1
 90
        1
176
     1
 90
        6
176
     1
 90
        2
176
     1
 62
     7
176
     1
 90
        5
176
     1
 90
        0
176
     1
 90
        0
176
     1
290
     0
176
     1
 90
       13
176
     1
 40
0.0
176
     1
 90
        0
176
     1
290
     0
176
     1
290
     1
176
     1
290
     1
176
     1
290
     0
176
     1
290
     0
176
     1
290
     0
176
     1
290
     0
176
     1
290
     0
176
     1
290
     0
176
     1
 90
       50
176
     1
 40
0.0
176
     1
 40
1.0
176
     1
 90
        0
176
     1
 62
    18
420
        0
176
     1
 90
       50
176
     1
 90
        3
176
     1
 62
     5
420
      255
176
     1
290
     0
176
     1
 90
       50
176
     1
 90
       50
176
     1
 90
       50
176
     1
290
     0
176
     1
 90
       50
176
     1
 62
   256
176
     0
 40
1.0
176
     0
 90
        2
176
     1
  1
strokes_ogs.tif
176
     1
290
     0
176
     1
 40
1.0
176
     1
 40
1.0
176
     1
1001
ACAD
1000
AcDbSavedByObjectVersion
1070
     0
  0
VISUALSTYLE
  5
F3
102
{ACAD_REACTORS
330
EF
102
}
330
EF
100
AcDbVisualStyle
  2
GouraudWithEdges
 70
     3
177
     3
291
     1
 70
    58
 90
        2
176
     1
 90
        2
176
     1
 90
        1
176
     1
 90
        2
176
     1
 40
0.6
176
     1
 40
30.0
176
     1
 62
     7
420
 16777215
176
     1
 90
        1
176
     1
 90
        0
176
     1
 62
     7
176
     1
 62
   257
176
     1
 90
        1
176
     1
 90
        1
176
     1
 40
1.0
176
     1
 90
        0
176
     1
 62
   257
176
     1
 40
1.0
176
     1
 90
        1
176
     1
 90
        6
176
     1
 90
        2
176
     1
 62
     7
176
     1
 90
        5
176
     1
 90
        0
176
     1
 90
        0
176
     1
290
     0
176
     1
 90
       13
176
     1
 40
0.0
176
     1
 90
        0
176
     1
290
     0
176
     1
290
     1
176
     1
290
     1
176
     1
290
     0
176
     1
290
     0
176
     1
290
     0
176
     1
290
     0
176
     1
290
     0
176
     1
290
     0
176
     1
 90
       50
176
     1
 40
0.0
176
     1
 40
1.0
176
     1
 90
        0
176
     1
 62
    18
420
        0
176
     1
 90
       50
176
     1
 90
        3
176
     1
 62
     5
420
      255
176
     1
290
     0
176
     1
 90
       50
176
     1
 90
       50
176
     1
 90
       50
176
     1
290
     0
176
     1
 90
       50
176
     1
 62
   256
176
     0
 40
1.0
176
     0
 90
        2
176
     1
  1
strokes_ogs.tif
176
     1
290
     0
176
     1
 40
1.0
176
     1
 40
1.0
176
     1
1001
ACAD
1000
AcDbSavedByObjectVersion
1070
     0
  0
VISUALSTYLE
  5
F7
102
{ACAD_REACTORS
330
EF
102
}
330
EF
100
AcDbVisualStyle
  2
Hidden
 70
     6
177
     3
291
     0
 70
    58
 90
        1
176
     1
 90
        2
176
     1
 90
        2
176
     1
 90
        0
176
     1
 40
0.6
176
     1
 40
30.0
176
     1
 62
     7
420
 16777215
176
     1
 90
        2
176
     1
 90
        2
176
     1
 62
     7
176
     1
 62
   257
176
     1
 90
        2
176
     1
 90
        1
176
     1
 40
40.0
176
     1
 90
        0
176
     1
 62
   257
176
     1
 40
1.0
176
     1
 90
        1
176
     1
 90
        6
176
     1
 90
        2
176
     1
 62
     7
176
     1
 90
        3
176
     1
 90
        0
176
     1
 90
        0
176
     1
290
     0
176
     1
 90
        1
176
     1
 40
0.0
176
     1
 90
        0
176
     1
290
     0
176
     1
290
     1
176
     1
290
     1
176
     1
290
     0
176
     1
290
     0
176
     1
290
     0
176
     1
290
     0
176
     1
290
     0
176
     1
290
     0
176
     1
 90
       50
176
     1
 40
0.0
176
     1
 40
1.0
176
     1
 90
        0
176
     1
 62
    18
420
        0
176
     1
 90
       50
176
     1
 90
        3
176
     1
 62
     5
420
      255
176
     1
290
     0
176
     1
 90
       50
176
     1
 90
       50
176
     1
 90
       50
176
     1
290
     0
176
     1
 90
       50
176
     1
 62
   256
176
     0
 40
1.0
176
     0
 90
        2
176
     1
  1
strokes_ogs.tif
176
     1
290
     0
176
     1
 40
1.0
176
     1
 40
1.0
176
     1
1001
ACAD
1000
AcDbSavedByObjectVersion
1070
     0
  0
VISUALSTYLE
  5
1E4
102
{ACAD_REACTORS
330
EF
102
}
330
EF
100
AcDbVisualStyle
  2
JitterOff
 70
    20
177
     3
291
     1
 70
    58
 90
        2
176
     0
 90
        2
176
     0
 90
        0
176
     0
 90
        0
176
     0
 40
0.6
176
     0
 40
30.0
176
     0
 62
     7
420
 16777215
176
     0
 90
        1
176
     0
 90
        4
176
     0
 62
     7
176
     0
 62
   257
176
     0
 90
        1
176
     0
 90
        1
176
     0
 40
1.0
176
     0
 90
       10
176
     2
 62
     7
176
     0
 40
1.0
176
     0
 90
        1
176
     0
 90
        6
176
     0
 90
        2
176
     0
 62
     7
176
     0
 90
        5
176
     0
 90
        0
176
     0
 90
        0
176
     0
290
     0
176
     0
 90
        1
176
     0
 40
0.0
176
     0
 90
        0
176
     0
290
     0
176
     1
290
     1
176
     1
290
     1
176
     1
290
     0
176
     1
290
     0
176
     1
290
     0
176
     1
290
     0
176
     1
290
     0
176
     1
290
     0
176
     1
 90
       50
176
     1
 40
0.0
176
     1
 40
1.0
176
     1
 90
        0
176
     1
 62
    18
420
        0
176
     1
 90
       50
176
     1
 90
        3
176
     1
 62
     5
420
      255
176
     1
290
     0
176
     1
 90
       50
176
     1
 90
       50
176
     1
 90
       50
176
     1
290
     0
176
     1
 90
       50
176
     1
 62
   256
176
     0
 40
1.0
176
     0
 90
        2
176
     1
  1
strokes_ogs.tif
176
     1
290
     0
176
     1
 40
1.0
176
     1
 40
1.0
176
     1
1001
ACAD
1000
AcDbSavedByObjectVersion
1070
     0
  0
VISUALSTYLE
  5
FD
102
{ACAD_REACTORS
330
EF
102
}
330
EF
100
AcDbVisualStyle
  2
Linepattern
 70
    14
177
     3
291
     1
 70
    58
 90
        2
176
     1
 90
        2
176
     1
 90
        1
176
     1
 90
        0
176
     1
 40
0.6
176
     1
 40
30.0
176
     1
 62
     7
420
 16777215
176
     1
 90
        1
176
     1
 90
        4
176
     1
 62
     7
176
     1
 62
   257
176
     1
 90
        7
176
     1
 90
        7
176
     1
 40
1.0
176
     1
 90
        8
176
     1
 62
     7
176
     1
 40
1.0
176
     1
 90
        1
176
     1
 90
        6
176
     1
 90
        2
176
     1
 62
     7
176
     1
 90
        5
176
     1
 90
        0
176
     1
 90
        0
176
     1
290
     0
176
     1
 90
        1
176
     1
 40
0.0
176
     1
 90
        0
176
     1
290
     0
176
     1
290
     1
176
     1
290
     1
176
     1
290
     0
176
     1
290
     0
176
     1
290
     0
176
     1
290
     0
176
     1
290
     0
176
     1
290
     0
176
     1
 90
       50
176
     1
 40
0.0
176
     1
 40
1.0
176
     1
 90
        0
176
     1
 62
    18
420
        0
176
     1
 90
       50
176
     1
 90
        3
176
     1
 62
     5
420
      255
176
     1
290
     0
176
     1
 90
       50
176
     1
 90
       50
176
     1
 90
       50
176
     1
290
     0
176
     1
 90
       50
176
     1
 62
   256
176
     0
 40
1.0
176
     0
 90
        2
176
     1
  1
strokes_ogs.tif
176
     1
290
     0
176
     1
 40
1.0
176
     1
 40
1.0
176
     1
1001
ACAD
1000
AcDbSavedByObjectVersion
1070
     0
  0
VISUALSTYLE
  5
1E5
102
{ACAD_REACTORS
330
EF
102
}
330
EF
100
AcDbVisualStyle
  2
OverhangOff
 70
    21
177
     3
291
     1
 70
    58
 90
        2
176
     0
 90
        2
176
     0
 90
        0
176
     0
 90
        0
176
     0
 40
0.6
176
     0
 40
30.0
176
     0
 62
     7
420
 16777215
176
     0
 90
        1
176
     0
 90
        4
176
     0
 62
     7
176
     0
 62
   257
176
     0
 90
        1
176
     0
 90
        1
176
     0
 40
1.0
176
     0
 90
        9
176
     2
 62
     7
176
     0
 40
1.0
176
     0
 90
        1
176
     0
 90
        6
176
     0
 90
        2
176
     0
 62
     7
176
     0
 90
        5
176
     0
 90
        0
176
     0
 90
        0
176
     0
290
     0
176
     0
 90
        1
176
     0
 40
0.0
176
     0
 90
        0
176
     0
290
     0
176
     1
290
     1
176
     1
290
     1
176
     1
290
     0
176
     1
290
     0
176
     1
290
     0
176
     1
290
     0
176
     1
290
     0
176
     1
290
     0
176
     1
 90
       50
176
     1
 40
0.0
176
     1
 40
1.0
176
     1
 90
        0
176
     1
 62
    18
420
        0
176
     1
 90
       50
176
     1
 90
        3
176
     1
 62
     5
420
      255
176
     1
290
     0
176
     1
 90
       50
176
     1
 90
       50
176
     1
 90
       50
176
     1
290
     0
176
     1
 90
       50
176
     1
 62
   256
176
     0
 40
1.0
176
     0
 90
        2
176
     1
  1
strokes_ogs.tif
176
     1
290
     0
176
     1
 40
1.0
176
     1
 40
1.0
176
     1
1001
ACAD
1000
AcDbSavedByObjectVersion
1070
     0
  0
VISUALSTYLE
  5
F9
102
{ACAD_REACTORS
330
EF
102
}
330
EF
100
AcDbVisualStyle
  2
Realistic
 70
     8
177
     3
291
     0
 70
    58
 90
        2
176
     1
 90
        3
176
     1
 90
        0
176
     1
 90
        2
176
     1
 40
0.6
176
     1
 40
30.0
176
     1
 62
     7
420
 16777215
176
     1
 90
        0
176
     1
 90
        0
176
     1
 62
     7
176
     1
 62
   257
176
     1
 90
        1
176
     1
 90
        1
176
     1
 40
1.0
176
     1
 90
        8
176
     1
 62
   257
176
     1
 40
1.0
176
     1
 90
        1
176
     1
 90
        6
176
     1
 90
        2
176
     1
 62
     7
176
     1
 90
        3
176
     1
 90
        0
176
     1
 90
        0
176
     1
290
     0
176
     1
 90
       13
176
     1
 40
0.0
176
     1
 90
        0
176
     1
290
     0
176
     1
290
     1
176
     1
290
     1
176
     1
290
     0
176
     1
290
     0
176
     1
290
     0
176
     1
290
     0
176
     1
290
     0
176
     1
290
     0
176
     1
 90
       50
176
     1
 40
0.0
176
     1
 40
1.0
176
     1
 90
        0
176
     1
 62
    18
420
        0
176
     1
 90
       50
176
     1
 90
        3
176
     1
 62
     5
420
      255
176
     1
290
     0
176
     1
 90
       50
176
     1
 90
       50
176
     1
 90
       50
176
     1
290
     0
176
     1
 90
       50
176
     1
 62
   256
176
     0
 40
1.0
176
     0
 90
        2
176
     1
  1
strokes_ogs.tif
176
     1
290
     0
176
     1
 40
1.0
176
     1
 40
1.0
176
     1
1001
ACAD
1000
AcDbSavedByObjectVersion
1070
     0
  0
VISUALSTYLE
  5
1F3
102
{ACAD_REACTORS
330
EF
102
}
330
EF
100
AcDbVisualStyle
  2
Shaded
 70
    27
177
     3
291
     0
 70
    58
 90
        2
176
     1
 90
        2
176
     1
 90
        1
176
     1
 90
        2
176
     1
 40
0.6
176
     1
 40
30.0
176
     1
 62
     7
420
 16777215
176
     1
 90
        0
176
     1
 90
        4
176
     1
 62
     7
176
     1
 62
   257
176
     1
 90
        1
176
     1
 90
        1
176
     1
 40
1.0
176
     1
 90
        8
176
     1
 62
   257
176
     1
 40
1.0
176
     1
 90
        1
176
     1
 90
        6
176
     1
 90
        2
176
     1
 62
     8
420
  7895160
176
     1
 90
        3
176
     1
 90
        0
176
     1
 90
        0
176
     1
290
     0
176
     1
 90
        5
176
     1
 40
0.0
176
     1
 90
        0
176
     1
290
     0
176
     1
290
     1
176
     1
290
     1
176
     1
290
     0
176
     1
290
     0
176
     1
290
     0
176
     1
290
     0
176
     1
290
     0
176
     1
290
     0
176
     1
 90
       50
176
     1
 40
0.0
176
     1
 40
1.0
176
     1
 90
        0
176
     1
 62
    18
420
        0
176
     1
 90
       50
176
     1
 90
        3
176
     1
 62
     5
420
      255
176
     1
290
     0
176
     1
 90
       50
176
     1
 90
       50
176
     1
 90
       50
176
     1
290
     0
176
     1
 90
       50
176
     1
 62
   256
176
     0
 40
1.0
176
     0
 90
        2
176
     1
  1
strokes_ogs.tif
176
     1
290
     0
176
     1
 40
1.0
176
     1
 40
1.0
176
     1
1001
ACAD
1000
AcDbSavedByObjectVersion
1070
     0
  0
VISUALSTYLE
  5
1F2
102
{ACAD_REACTORS
330
EF
102
}
330
EF
100
AcDbVisualStyle
  2
Shaded with edges
 70
    26
177
     3
291
     0
 70
    58
 90
        2
176
     1
 90
        2
176
     1
 90
        1
176
     1
 90
        2
176
     1
 40
0.6
176
     1
 40
30.0
176
     1
 62
     7
420
 16777215
176
     1
 90
        1
176
     1
 90
        2
176
     1
 62
     7
176
     1
 62
   257
176
     1
 90
        2
176
     1
 90
        1
176
     1
 40
1.0
176
     1
 90
        8
176
     1
 62
   257
176
     1
 40
1.0
176
     1
 90
        1
176
     1
 90
        6
176
     1
 90
        2
176
     1
 62
     7
176
     1
 90
        3
176
     1
 90
        0
176
     1
 90
        0
176
     1
290
     0
176
     1
 90
        5
176
     1
 40
0.0
176
     1
 90
        0
176
     1
290
     0
176
     1
290
     1
176
     1
290
     1
176
     1
290
     0
176
     1
290
     0
176
     1
290
     0
176
     1
290
     0
176
     1
290
     0
176
     1
290
     0
176
     1
 90
       50
176
     1
 40
0.0
176
     1
 40
1.0
176
     1
 90
        0
176
     1
 62
    18
420
        0
176
     1
 90
       50
176
     1
 90
        3
176
     1
 62
     5
420
      255
176
     1
290
     0
176
     1
 90
       50
176
     1
 90
       50
176
     1
 90
       50
176
     1
290
     0
176
     1
 90
       50
176
     1
 62
   256
176
     0
 40
1.0
176
     0
 90
        2
176
     1
  1
strokes_ogs.tif
176
     1
290
     0
176
     1
 40
1.0
176
     1
 40
1.0
176
     1
1001
ACAD
1000
AcDbSavedByObjectVersion
1070
     0
  0
VISUALSTYLE
  5
1EF
102
{ACAD_REACTORS
330
EF
102
}
330
EF
100
AcDbVisualStyle
  2
Shades of Gray
 70
    23
177
     3
291
     0
 70
    58
 90
        2
176
     1
 90
        2
176
     1
 90
        3
176
     1
 90
        0
176
     1
 40
0.6
176
     1
 40
30.0
176
     1
 62
     7
420
 16777215
176
     1
 90
        2
176
     1
 90
        2
176
     1
 62
     7
176
     1
 62
     7
176
     1
 90
        1
176
     1
 90
        1
176
     1
 40
40.0
176
     1
 90
        8
176
     1
 62
     7
176
     1
 40
1.0
176
     1
 90
        1
176
     1
 90
        6
176
     1
 90
        2
176
     1
 62
     7
176
     1
 90
        3
176
     1
 90
        0
176
     1
 90
        0
176
     1
290
     0
176
     1
 90
        1
176
     1
 40
0.0
176
     1
 90
        0
176
     1
290
     0
176
     1
290
     1
176
     1
290
     1
176
     1
290
     0
176
     1
290
     0
176
     1
290
     0
176
     1
290
     0
176
     1
290
     0
176
     1
290
     0
176
     1
 90
       50
176
     1
 40
0.0
176
     1
 40
1.0
176
     1
 90
        0
176
     1
 62
    18
420
        0
176
     1
 90
       50
176
     1
 90
        3
176
     1
 62
     5
420
      255
176
     1
290
     0
176
     1
 90
       50
176
     1
 90
       50
176
     1
 90
       50
176
     1
290
     0
176
     1
 90
       50
176
     1
 62
   256
176
     0
 40
1.0
176
     0
 90
        2
176
     1
  1
strokes_ogs.tif
176
     1
290
     0
176
     1
 40
1.0
176
     1
 40
1.0
176
     1
1001
ACAD
1000
AcDbSavedByObjectVersion
1070
     0
  0
VISUALSTYLE
  5
1F0
102
{ACAD_REACTORS
330
EF
102
}
330
EF
100
AcDbVisualStyle
  2
Sketchy
 70
    24
177
     3
291
     0
 70
    58
 90
        1
176
     1
 90
        2
176
     1
 90
        2
176
     1
 90
        0
176
     1
 40
0.6
176
     1
 40
30.0
176
     1
 62
     7
420
 16777215
176
     1
 90
        2
176
     1
 90
        2
176
     1
 62
     7
176
     1
 62
     7
176
     1
 90
        1
176
     1
 90
        1
176
     1
 40
40.0
176
     1
 90
       11
176
     1
 62
     7
176
     1
 40
1.0
176
     1
 90
        1
176
     1
 90
        6
176
     1
 90
        2
176
     1
 62
     7
176
     1
 90
        6
176
     1
 90
        0
176
     1
 90
        0
176
     1
290
     0
176
     1
 90
        1
176
     1
 40
0.0
176
     1
 90
        0
176
     1
290
     0
176
     1
290
     1
176
     1
290
     1
176
     1
290
     0
176
     1
290
     0
176
     1
290
     0
176
     1
290
     0
176
     1
290
     0
176
     1
290
     0
176
     1
 90
       50
176
     1
 40
0.0
176
     1
 40
1.0
176
     1
 90
        0
176
     1
 62
    18
420
        0
176
     1
 90
       50
176
     1
 90
        3
176
     1
 62
     5
420
      255
176
     1
290
     0
176
     1
 90
       50
176
     1
 90
       50
176
     1
 90
       50
176
     1
290
     0
176
     1
 90
       50
176
     1
 62
   256
176
     0
 40
1.0
176
     0
 90
        2
176
     1
  1
strokes_ogs.tif
176
     1
290
     0
176
     1
 40
1.0
176
     1
 40
1.0
176
     1
1001
ACAD
1000
AcDbSavedByObjectVersion
1070
     0
  0
VISUALSTYLE
  5
FC
102
{ACAD_REACTORS
330
EF
102
}
330
EF
100
AcDbVisualStyle
  2
Thicken
 70
    13
177
     3
291
     1
 70
    58
 90
        2
176
     1
 90
        2
176
     1
 90
        1
176
     1
 90
        0
176
     1
 40
0.6
176
     1
 40
30.0
176
     1
 62
     7
420
 16777215
176
     1
 90
        1
176
     1
 90
        4
176
     1
 62
     7
176
     1
 62
   257
176
     1
 90
        1
176
     1
 90
        1
176
     1
 40
1.0
176
     1
 90
       12
176
     1
 62
     7
176
     1
 40
1.0
176
     1
 90
        1
176
     1
 90
        6
176
     1
 90
        2
176
     1
 62
     7
176
     1
 90
        5
176
     1
 90
        0
176
     1
 90
        0
176
     1
290
     0
176
     1
 90
        1
176
     1
 40
0.0
176
     1
 90
        0
176
     1
290
     0
176
     1
290
     1
176
     1
290
     1
176
     1
290
     0
176
     1
290
     0
176
     1
290
     0
176
     1
290
     0
176
     1
290
     0
176
     1
290
     0
176
     1
 90
       50
176
     1
 40
0.0
176
     1
 40
1.0
176
     1
 90
        0
176
     1
 62
    18
420
        0
176
     1
 90
       50
176
     1
 90
        3
176
     1
 62
     5
420
      255
176
     1
290
     0
176
     1
 90
       50
176
     1
 90
       50
176
     1
 90
       50
176
     1
290
     0
176
     1
 90
       50
176
     1
 62
   256
176
     0
 40
1.0
176
     0
 90
        2
176
     1
  1
strokes_ogs.tif
176
     1
290
     0
176
     1
 40
1.0
176
     1
 40
1.0
176
     1
1001
ACAD
1000
AcDbSavedByObjectVersion
1070
     0
  0
VISUALSTYLE
  5
F6
102
{ACAD_REACTORS
330
EF
102
}
330
EF
100
AcDbVisualStyle
  2
Wireframe
 70
     5
177
     3
291
     0
 70
    58
 90
        0
176
     1
 90
        2
176
     1
 90
        0
176
     1
 90
        0
176
     1
 40
0.6
176
     1
 40
30.0
176
     1
 62
     7
420
 16777215
176
     1
 90
        1
176
     1
 90
        4
176
     1
 62
     7
176
     1
 62
   257
176
     1
 90
        1
176
     1
 90
        1
176
     1
 40
1.0
176
     1
 90
        0
176
     1
 62
   257
176
     1
 40
1.0
176
     1
 90
        1
176
     1
 90
        6
176
     1
 90
        2
176
     1
 62
     7
176
     1
 90
        3
176
     1
 90
        0
176
     1
 90
        0
176
     1
290
     0
176
     1
 90
        1
176
     1
 40
0.0
176
     1
 90
        0
176
     1
290
     0
176
     1
290
     1
176
     1
290
     1
176
     1
290
     0
176
     1
290
     0
176
     1
290
     0
176
     1
290
     0
176
     1
290
     0
176
     1
290
     0
176
     1
 90
       50
176
     1
 40
0.0
176
     1
 40
1.0
176
     1
 90
        0
176
     1
 62
    18
420
        0
176
     1
 90
       50
176
     1
 90
        3
176
     1
 62
     5
420
      255
176
     1
290
     0
176
     1
 90
       50
176
     1
 90
       50
176
     1
 90
       50
176
     1
290
     0
176
     1
 90
       50
176
     1
 62
   256
176
     0
 40
1.0
176
     0
 90
        2
176
     1
  1
strokes_ogs.tif
176
     1
290
     0
176
     1
 40
1.0
176
     1
 40
1.0
176
     1
1001
ACAD
1000
AcDbSavedByObjectVersion
1070
     0
  0
VISUALSTYLE
  5
1F1
102
{ACAD_REACTORS
330
EF
102
}
330
EF
100
AcDbVisualStyle
  2
X-Ray
 70
    25
177
     3
291
     0
 70
    58
 90
        2
176
     1
 90
        2
176
     1
 90
        1
176
     1
 90
        1
176
     1
 40
0.5
176
     1
 40
30.0
176
     1
 62
     7
420
 16777215
176
     1
 90
        1
176
     1
 90
        0
176
     1
 62
     7
176
     1
 62
   257
176
     1
 90
        1
176
     1
 90
        1
176
     1
 40
1.0
176
     1
 90
        8
176
     1
 62
     7
176
     1
 40
1.0
176
     1
 90
        1
176
     1
 90
        6
176
     1
 90
        2
176
     1
 62
     7
176
     1
 90
        3
176
     1
 90
        0
176
     1
 90
        0
176
     1
290
     0
176
     1
 90
       13
176
     1
 40
0.0
176
     1
 90
        0
176
     1
290
     0
176
     1
290
     1
176
     1
290
     1
176
     1
290
     0
176
     1
290
     0
176
     1
290
     0
176
     1
290
     0
176
     1
290
     0
176
     1
290
     0
176
     1
 90
       50
176
     1
 40
0.0
176
     1
 40
1.0
176
     1
 90
        0
176
     1
 62
    18
420
        0
176
     1
 90
       50
176
     1
 90
        3
176
     1
 62
     5
420
      255
176
     1
290
     0
176
     1
 90
       50
176
     1
 90
       50
176
     1
 90
       50
176
     1
290
     0
176
     1
 90
       50
176
     1
 62
   256
176
     0
 40
1.0
176
     0
 90
        2
176
     1
  1
strokes_ogs.tif
176
     1
290
     0
176
     1
 40
1.0
176
     1
 40
1.0
176
     1
1001
ACAD
1000
AcDbSavedByObjectVersion
1070
     0
  0
DICTIONARYVAR
  5
146
102
{ACAD_REACTORS
330
5E
102
}
330
5E
100
DictionaryVariables
280
     0
  1
1:1
  0
DICTIONARYVAR
  5
145
102
{ACAD_REACTORS
330
5E
102
}
330
5E
100
DictionaryVariables
280
     0
  1
STANDARD
  0
DICTIONARYVAR
  5
84
102
{ACAD_REACTORS
330
5E
102
}
330
5E
100
DictionaryVariables
280
     0
  1
STANDARD
  0
DICTIONARYVAR
  5
227
102
{ACAD_REACTORS
330
5E
102
}
330
5E
100
DictionaryVariables
280
     0
  1
Metric50
  0
DICTIONARYVAR
  5
228
102
{ACAD_REACTORS
330
5E
102
}
330
5E
100
DictionaryVariables
280
     0
  1
Metric50
  0
DICTIONARYVAR
  5
5F
102
{ACAD_REACTORS
330
5E
102
}
330
5E
100
DictionaryVariables
280
     0
  1
2
  0
DICTIONARYVAR
  5
63
102
{ACAD_REACTORS
330
5E
102
}
330
5E
100
DictionaryVariables
280
     0
  1
1
  0
DICTIONARYVAR
  5
1AE
102
{ACAD_REACTORS
330
5E
102
}
330
5E
100
DictionaryVariables
280
     0
  1
0
  0
DICTIONARYVAR
  5
1AF
102
{ACAD_REACTORS
330
5E
102
}
330
5E
100
DictionaryVariables
280
     0
  1
0
  0
DICTIONARY
  5
5CF1
102
{ACAD_REACTORS
330
5CEF
102
}
330
5CEF
100
AcDbDictionary
281
     1
  0
DICTIONARY
  5
5CF0
102
{ACAD_REACTORS
330
5CEF
102
}
330
5CEF
100
AcDbDictionary
281
     1
  3
1940235458848
350
5CEA
  3
1940235458864
350
5CEB
  3
1940235458880
350
5CEC
  3
1940235458896
350
5CED
  3
1940235458912
350
5CEE
  0
DICTIONARY
  5
5CF8
330
65F
100
AcDbDictionary
280
     1
281
     1
  3
ACAD_XREC_ROUNDTRIP
360
5CF9
  0
DICTIONARY
  5
5CF4
330
21C
100
AcDbDictionary
280
     1
281
     1
  3
ACAD_XREC_ROUNDTRIP
360
5CF5
  0
DICTIONARY
  5
205
330
22
100
AcDbDictionary
280
     1
281
     1
  0
DICTIONARY
  5
1F9
330
ED
100
AcDbDictionary
280
     1
281
     1
  3
FBXASSET
360
1FA
  0
DICTIONARY
  5
1F7
330
EC
100
AcDbDictionary
280
     1
281
     1
  3
FBXASSET
360
1F8
  0
DICTIONARY
  5
173
330
EE
100
AcDbDictionary
280
     1
281
     1
  3
BUMPTILE
360
175
  3
DIFFUSETILE
360
174
  3
FBXASSET
360
1FB
  3
OPACITYTILE
360
176
  3
REFLECTIONTILE
360
177
  0
DICTIONARY
  5
5CF6
330
65E
100
AcDbDictionary
280
     1
281
     1
  3
ACAD_XREC_ROUNDTRIP
360
5CF7
  0
DICTIONARY
  5
5CF2
330
21A
100
AcDbDictionary
280
     1
281
     1
  3
ACAD_XREC_ROUNDTRIP
360
5CF3
  0
DICTIONARY
  5
162
330
7F
100
AcDbDictionary
280
     1
281
     1
  3
ACAD_ROUNDTRIP_2008_TABLESTYLE_CELLSTYLEMAP
360
5CE8
  0
XRECORD
  5
5CEA
102
{ACAD_REACTORS
330
5CF0
102
}
330
5CF0
100
AcDbXrecord
280
     1
  1
AcDb_Thumbnail_Schema
102
{ATTRRECORD
341
5CEB
  2
AcDbDs::TreatedAsObjectData
280
     1
291
     1
102
ATTRRECORD}
102
{ATTRRECORD
341
5CEC
  2
AcDbDs::Legacy
280
     1
291
     1
102
ATTRRECORD}
  2
AcDbDs::ID
280
    10
 91
        8
102
{ATTRRECORD
341
5CED
  2
AcDs:Indexable
280
     1
291
     1
102
ATTRRECORD}
102
{ATTRRECORD
341
5CEE
  2
AcDbDs::HandleAttribute
280
     7
282
     1
102
ATTRRECORD}
  2
Thumbnail_Data
280
    15
 91
        0
  0
XRECORD
  5
5CEB
102
{ACAD_REACTORS
330
5CF0
102
}
330
5CF0
100
AcDbXrecord
280
     1
  1
AcDbDs::TreatedAsObjectDataSchema
  2
AcDbDs::TreatedAsObjectData
280
     1
 91
        0
  0
XRECORD
  5
5CEC
102
{ACAD_REACTORS
330
5CF0
102
}
330
5CF0
100
AcDbXrecord
280
     1
  1
AcDbDs::LegacySchema
  2
AcDbDs::Legacy
280
     1
 91
        0
  0
XRECORD
  5
5CED
102
{ACAD_REACTORS
330
5CF0
102
}
330
5CF0
100
AcDbXrecord
280
     1
  1
AcDbDs::IndexedPropertySchema
  2
AcDs:Indexable
280
     1
 91
        0
  0
XRECORD
  5
5CEE
102
{ACAD_REACTORS
330
5CF0
102
}
330
5CF0
100
AcDbXrecord
280
     1
  1
AcDbDs::HandleAttributeSchema
  2
AcDbDs::HandleAttribute
280
     7
 91
        1
284
     1
  0
XRECORD
  5
5CF9
102
{ACAD_REACTORS
330
5CF8
102
}
330
5CF8
100
AcDbXrecord
280
     1
102
DISPLAYNAME
  1
Imperial24
102
FLAGS
 90
        0
  0
XRECORD
  5
5CF5
102
{ACAD_REACTORS
330
5CF4
102
}
330
5CF4
100
AcDbXrecord
280
     1
102
DISPLAYNAME
  1
Metric50
102
FLAGS
 90
        0
  0
XRECORD
  5
1FA
102
{ACAD_REACTORS
330
1F9
102
}
330
1F9
100
AcDbXrecord
280
     1
 70
     1
 90
429727718
  1
D62C5603-E3A1-4AEA-B7FB-FE5D8D0755AF
310
504B03040A0000080000CC70623B3DEE336E79000000790000001B0000006175746F6465736B2D64657369676E2D7061636B6167652E786D6C3C3F786D6C2076657273696F6E3D22312E302220656E636F64696E673D227574662D3822203F3E3C666F726D6174733E3C666F726D61743E687474703A2F2F736368656D612E
310
6175746F6465736B2E636F6D2F64657369676E2D7061636B6167652F323030393C2F666F726D61743E3C2F666F726D6174733E504B0304140006080800CC70623BD486FD9CA0000000F4000000130000005B436F6E74656E745F54797065735D2E786D6C7D8EC10E82300C865F65E91D8A1E8C310C0EEA1BF002731658846E
310
D98AC1B77784ABF1D8FE5FBFBF75BBCE937A534CCEB38643598122B6FEE978D0B0485F9C41B54DDD7D022595594E1A469170414C76A4D9A4D207E29CF43ECE46F218070CC6BECC4078ACAA135ACF422C856C0E68EA1BF5669944DDD7BCDE7B1F8E415D77AECB980613C2E4AC91FC167A2B244592486606FC29C8FD7F045B9A
310
EF7053A7E60B504B0304140006080800CC70623B853B8169EB0000007C01000008000000636F72652E786D6C8D90416EC3201045AF62CDB6C206821CC7C244919D9CA01740401C94182C03558F5F9C3852BBEB6A467FFE9B197D7EFC9E1EC5975982F5AE035262288C535E5B377690E21535501C055FBC8FBF6C503839990E
310
5619041F179FE64D52DE45E362569DD7661365082642A11EB9E920A89B99642953CC8E702F67A9EE7234257977194EC9EAE275C4EABCCF5EAD5940D4AC6F0E35A568B8F43562CD7046CD199FD07E60174276A7BE677B5EADB0E0D14EEFFB6A31321A0D82627C4084204C3F096B71DD52F6819B16635EADF63F509AF53FA164
310
5DDCD1EDDD17164090FCC8732078B56691CB33A85CD7DCC40F504B0304140006080800CC70623B55019EA25F0000007C00000007000000636E782E786D6C4DCB3B0E80201045D1AD90E915ED2CF8AC45050C11660C8261F98AB1B07AC9C97D42D718D865D3E909258CFD00CCE24AC6E326A164D74DC0B4128928FF32603847
310
2BA13128B1252AC747C6BAB984FC68F0B87FE8960A5C09FE86CFB69FBA01504B0304140006080800CC70623BDBABAAF470010000D40300000C0000006662782F636F72652E786D6CC553D16E823014FD95A6AF4B694182CC941A83FA05FB810A9511A125A5257EFE2E82712ECEB8A7F100CD39F7F69E734AF9FADC366850B6
310
AF8DCE7018308C942E4C59EB2AC3DE1D498AD15A706B8CFB56869196ADCAF00863C12B6B7C374385D14E6907A836A59A41D9F7CA615434B0C8705F7CAA5606D23BA8E84F41278B93AC54100640439DE0BDB320004D43C63716C7C399D30917DCFBBA9CD9BA8469F5B156168B24CED3F7248AC8769F27244EB73B92EED8862C
310
B7F13E0C179B3C8F979C8ECD82BBBABDAA2BAC924E9558448CBD9330242CFA08E3154B5651FCC6D215639C8EE5774DBE2B5F6CF2B5768B68963BB5F5588420E442FC700B1139D4CB01F450C1E918227C2E09DF070D8140C84E1E9AAB8F1340832A9CB13130A5F1376A908D57309505ECF2A0DF179C4E9D30F5B239B87E3823
310
7A79C6F31DE1A8A5AEC08474B03C7837EAE4938639B44E5932B833D2C6B6B279CDC613877FA26EE21F4A2A4C63EC7F29A2F301D1F9F7A0E37D145F504B0304140006080800CC70623B9C113CC27E0000009D0000000B0000006662782F636E782E786D6C4DCCDF0A83201C86E15B91DFB94BFB330DD428C8FB886521330DA7
310
6397BF1A1DECE883878F57749FCDA1B7892F1BBC047A23808C7F84D9FA55424E0BE6803A256208E9EF06C84F9B91703228B1C690F78B66B34CD9A5439DF5CF0BFBF65E35BCA1B8D6A5C6F540381E886698B5741C695F9503EBA150A2F8958E3DC3EA0B504B0304140006080800CC70623B7DF2F77C2A010000120200003100
310
00006662782F41393633353835312D344632462D344230382D423046372D3739314545314133324237412F636F72652E786D6C8D51DB8EC22014FC15C2939B0D2DB4B45643319AE817EC0F6041255A68B86CFCFC856D4D76DF7CE190393373060EDB3DC707F856CE6B6B7A480A0C81328395DA5C7B18C3057510EC3873D686
310
3F34088C18550F330C39BB3A1BA7051AAC09CA84841A2BD5020AEF55806078A44B0FFD7053A328440C89E1EFC52486BBB8AA8214A99D789CF9E05200300FC927E4FB4D5B375D43103D5527440FB843077C5AA3F5861C8F645F5787F59E95B390B318B55CE45AA638FAA2957BD7248B390B7A7CC51F9C124149C82B8C378810
310
84AB2F42B7B8DD56F413775B8C5999E9FF4471926F8AA236A1AE96B8B3CC434E5839373893369E1FAF30EA395917409EB7F26AF8801C171837A4A6AC9C89E9F9C9B1A58BA30FD6A5EF5DDDCF894B9AD9B6A59C957943A9FCAE2FD5BC4DFE03504B0304140006080800CC70623BAD7543B64E01000033030000300000006662
310
782F41393633353835312D344632462D344230382D423046372D3739314545314133324237412F636E782E786D6CD593CD6EC32010845F0571AD6CE3D48AD20813A9873E410FBD12D82434182C7EAAE6EDBB2424CD25871E7B41D6EC30B3FA84F9E67BB2E40B4234DE8DB46F1925E094D7C6ED479AD3AE5951B2113C789FEE
310
6C943839C1488B4C05DF079FE72A69D8C96C13AAD6B8631503449F83828872B949AC57D26200B826A308D316B4064D6E46FCDA41C05550DC9E483A00797BFD207EFB092A45DE9514C1BBD22178396BD39D891265658C238DEA00936C654E5E433CB65A26D9F6EDB5EBC14EBF49A45CB856E66048291F6939A9A81BB5C89177
310
38143CA680F4AA299D66A042CEB3354A2684DC9D8D178FE0D9B8B41CAAD720F880EE7EF93C0C18769E099ECC04D5A102C8049A8A05632F4DDF376CF1DE0F6BB65C2F8627B65A33C6BB62177CEBBDAD973006829F89F22E814B54F4BC2BE347F8AA8F681390B50FA73F804400B5F542E796F19FF974E7F78DB802FE05E20750
310
4B0304140006080800CC70623BE75B7789680500003C100000340000006662782F41393633353835312D344632462D344230382D423046372D3739314545314133324237412F6F626A656374732E786D6CAD575B8F9B3818FD2B887D06C22499CB8AA1CA655245D5B455A356FB305264C061D8018C6C3393D95FBFC7600890
310
A4CD5EF210B0B1BFEBF98E3F7B1FF6596ABC522E1296DF9BAE3D320D9A872C4AF2F8DE2CE5CEBA358D0FBEC719939D65A691938CDE9B6ADAF4BD98B3B2D05311DD91329583D9D5FC0F438434A7A611A644887B5384CF34233629258BA878B12322891DEFF6B66BD70BFB62634E8AE781D082709A4B588AF91C528CDA28B73F
310
1C998EEF39EABBEFA97FBD6A7C7E9553F9D3D79FE442923C3C523610337627CB87ABE99D359D4CC6D6E4FACAB5E6ABF9D2726FC6A3C5F56271377BB88362213924694B38DD99FE47C48627A1E7D49F5A8BB5E1A74C0A599ED3B0F21F1E56366B89112D681E218F0915D0D6F17AD41FBA2A369DCF6335D62ABBD39779D5DDD1
310
11D4D8DE3CBB96B2E04FB8202E41051754A1AA8E8F76B4C6DFE810B580B1547F4B84911149794252234D024EF8BBE963A95AE27B3D310A9D5C215C7960FAEE415ED75694C6AFB17BCACA5D99A60A9AA65F217B0BFC53292ACB92BF283FAD0D3621576592CB5BED907C2FA8E9DF794E35E97BEA31BED21FEB401ABB94C44839
310
DCACBF0E1C5DA8DA5B2F4DFFD32AD86F543D9E565E7056502E157C00AD2671CD534549AB752FCA9CDA00677A313F04E51B22FF19E57B300579E3C97EB29F682D92935CEC18CF901B7B54FD8C51F362B56FC72FE0B3C1EAE335EDCCBF5AEC39ADB17DC238973F804BA5E6F6BFE7AF1FB32E523BE9F3BD571418E3631DCA4D48
310
5250CF639223210A9446CA30052EDF057BD35F8329C1ECD84552BF0DC8D18BE7BCE23BFE6BD960AB4A7DE79923A103BEBD80F911CBAA2C60DB19B01CF164A5583B772EE6D3FFA56666CBCDA74DC97724A48F9A58967497E489C4D979006FD7A05E227A1EBDD0F737C623387A9C844D3709995625106D157315F8B8392CD4E0
310
A0B9A720C4BE9829CEF37EA1E13111214D53925356365ADA634861B52519DD27A00AEB808EAF0628E6F435519D446F45CF2C9CF5214F0A15B2F6D06B79DA3EE3CBF7F56780D2F4E7EF73A0F5E5B02A38D07DC852C6B7C1FBB6664213E0C39E3EBA7FF4E1AD23EA2829407C85E586727488B751B2DB9502BC7B228A3FD68B6E
310
A65A22397E690AA8D158D7E404EC8CDA235CC3B7D1898680131CEC2CDF2638C65196279577750F15884AEE19F94199155B92B13297978469D4F8D358DF0AEF7631E28DC8F0D9F437D5D39A83B2231A1D52D543813A824EF8D44BCFF2FA6A31BD1E8DAD87F1CCB526B3879935BF59CDADD5C37479BB1CDD4CA7B3556B516589
310
EF352754B706114D9C885EC9131DE6EFEB43D99AFE2391C2F958179413D7CFEF6B1B6DB1E7600F00DE6E5C67454A339A4BA2E0FBA85ED26F045D454F463DBFCE484C2F90F2E5E3666003662ED8F755951A7D1BECD5B30B550B2785C8E7320B7292A4838DDA71BBC863ED7613CAF659337A3354231D4FF4A182A54904C2898C
310
98B28C4AD0CE056CCF332A80986E571EE9DBC305BB5FEB7E509220A58D25CF042D712A806AC0AD0C657FDEF80D2D9CEAA2EE4D1C76F60BFE74219A06527D6F82DF6412526107381E55E353090704D085B52408A8913C4ED159D79BDA71BB4BC506F4831350EB6F975CD22D69BF7AC49B91A2C0A9DDA3D5CA36AD20FC478E37
310
E61844E2352865EBCB61A275A65283CAAA9DD27703B4102F5AF51EF5F573B75CBB5AD38BC845F7A49F82A0966A49C2E3EA5EA0ECD326CD965F1DB402C6FA8B51A4658C5C5E2EC9E214602E55810345408596591009A82E7E7FFACA19EEA299B14A0081A705CB3296EBC14CDF658DCD336EA6D1136881AAEB87B81AB9EE53D5
310
F5EB8BC8362082DA24122F98680A4E7930C01A0079749CEA14382A0783E5EBA5A10F8C098456A03D6A4AEB6BB881E2513747552A5DB22C7EDAF83BD5528081A365F7FF06504B0304140006080000CC70623B000000000000000000000000350000006662782F41393633353835312D344632462D344230382D423046372D37
310
39314545314133324237412F76657274696365732E62696E504B0304140006080800CC70623BF270F1330600000004000000360000006662782F41393633353835312D344632462D344230382D423046372D3739314545314133324237412F747269616E676C65732E62696E636660600000504B0304140006080000CC7062
310
3B000000000000000000000000370000006662782F41393633353835312D344632462D344230382D423046372D3739314545314133324237412F617474726962757465732E62696E504B0304140006080800CC70623B08DA0BD19000000041010000360000006662782F41393633353835312D344632462D344230382D4230
310
46372D3739314545314133324237412F6469726563746F72792E786D6C858F410AC3201045AF22B36F53E9A60B35CBEEBAE80D244E44489C6234F4F835464A48035D0DF398FF9F8AF63D0E6CC63039F212F8F9020C7D47C6792B21C5FE7403D62A1188E2E60C98D7234A5830286103A55745067B9D86B8A3CF9C7F90C11DE6
310
07FB144396D7B6A82D282E9A152AD114D5EF2CB866EEE831B8EEA07A7BB5A8D7D61A2BAAEB7FD5F70921FF497D00504B0304140006080800CC70623BEDD1DC58FD000000A00100003B0000006662782F41393633353835312D344632462D344230382D423046372D3739314545314133324237412F7265736F75726365732F
310
636F72652E786D6C8D504B6E833010BD0A9A6D65B00922041947112427E8052C33A156828DFCA97AFC9A40A576D7CDCCE87D344F8F9FBFE667F689CE6B6B3A6039850C8DB2A336530731DC4903D95970676DF82583CCC8193B5861107C72362E3BA4AC096842428D1D7107A5F7182053CF7474E0D507CE32973124857FE48B
310
540F3961CEF244279DE03EB81420DB9EAC1384436FA353E879B1B182C7A8C75DA3C7F453DF353A1075D537A7BA6464B8F535A99AE14A9A2BBD90E350DD183B5CFABE3AF262350B1EF4FC9351399401471025A527C218A1E53BAB5A5AB765F5469B96525EACF23FA6B88CFF34456DC2A1DCE36E360F82A5202F42F062ED2BAD
310
579969AFDD8A6F504B010214000A0000080000CC70623B3DEE336E79000000790000001B00000000000000000000000000000000006175746F6465736B2D64657369676E2D7061636B6167652E786D6C504B01021400140006080800CC70623BD486FD9CA0000000F40000001300000000000000000000000000B20000005B
310
436F6E74656E745F54797065735D2E786D6C504B01021400140006080800CC70623B853B8169EB0000007C010000080000000000000000000000000083010000636F72652E786D6C504B01021400140006080800CC70623B55019EA25F0000007C000000070000000000000000000000000094020000636E782E786D6C504B
310
01021400140006080800CC70623BDBABAAF470010000D40300000C00000000000000000000000000180300006662782F636F72652E786D6C504B01021400140006080800CC70623B9C113CC27E0000009D0000000B00000000000000000000000000B20400006662782F636E782E786D6C504B01021400140006080800CC70
310
623B7DF2F77C2A010000120200003100000000000000000000000000590500006662782F41393633353835312D344632462D344230382D423046372D3739314545314133324237412F636F72652E786D6C504B01021400140006080800CC70623BAD7543B64E010000330300003000000000000000000000000000D2060000
310
6662782F41393633353835312D344632462D344230382D423046372D3739314545314133324237412F636E782E786D6C504B01021400140006080800CC70623BE75B7789680500003C10000034000000000000000000000000006E0800006662782F41393633353835312D344632462D344230382D423046372D3739314545
310
314133324237412F6F626A656374732E786D6C504B01021400140006080000CC70623B0000000000000000000000003500000000000000000000000000280E00006662782F41393633353835312D344632462D344230382D423046372D3739314545314133324237412F76657274696365732E62696E504B01021400140006
310
080800CC70623BF270F133060000000400000036000000000000000000000000007B0E00006662782F41393633353835312D344632462D344230382D423046372D3739314545314133324237412F747269616E676C65732E62696E504B01021400140006080000CC70623B0000000000000000000000003700000000000000
310
000000000000D50E00006662782F41393633353835312D344632462D344230382D423046372D3739314545314133324237412F617474726962757465732E62696E504B01021400140006080800CC70623B08DA0BD1900000004101000036000000000000000000000000002A0F00006662782F41393633353835312D344632
310
462D344230382D423046372D3739314545314133324237412F6469726563746F72792E786D6C504B01021400140006080800CC70623BEDD1DC58FD000000A00100003B000000000000000000000000000E1000006662782F41393633353835312D344632462D344230382D423046372D3739314545314133324237412F7265
310
736F75726365732F636F72652E786D6C504B0506000000000E000E0080040000641100000000
  0
XRECORD
  5
1F8
102
{ACAD_REACTORS
330
1F7
102
}
330
1F7
100
AcDbXrecord
280
     1
 70
     1
 90
429727718
  1
30362254-06B7-45E0-A893-8CFA70E3D6BC
310
504B03040A0000080000CC70623B3DEE336E79000000790000001B0000006175746F6465736B2D64657369676E2D7061636B6167652E786D6C3C3F786D6C2076657273696F6E3D22312E302220656E636F64696E673D227574662D3822203F3E3C666F726D6174733E3C666F726D61743E687474703A2F2F736368656D612E
310
6175746F6465736B2E636F6D2F64657369676E2D7061636B6167652F323030393C2F666F726D61743E3C2F666F726D6174733E504B0304140006080800CC70623BD486FD9CA0000000F4000000130000005B436F6E74656E745F54797065735D2E786D6C7D8EC10E82300C865F65E91D8A1E8C310C0EEA1BF002731658846E
310
D98AC1B77784ABF1D8FE5FBFBF75BBCE937A534CCEB38643598122B6FEE978D0B0485F9C41B54DDD7D022595594E1A469170414C76A4D9A4D207E29CF43ECE46F218070CC6BECC4078ACAA135ACF422C856C0E68EA1BF5669944DDD7BCDE7B1F8E415D77AECB980613C2E4AC91FC167A2B244592486606FC29C8FD7F045B9A
310
EF7053A7E60B504B0304140006080800CC70623B1EC5D7A3EB0000007C01000008000000636F72652E786D6C8D90416EC3201045AF82665B6103C6756C6122AB4D4ED00B204C5C94182C03558F5F9C3852BBEB6A467FFE9B197D71FC9E6FE8CBACC17AD7032D0820E3B41FAD9B7A48F1820F808E52ACDEC75F36404ECDA687
310
4D0629A6D5A76597B477D1B89855E747B38B2A041301E95B6E7A08FAD3CCAA50296647B8168BD2573599823EBB0CA76447F43862C7BCCF5EAC59410E4DDD9C7973C2755553CCCFA4C603E3040F1565ED3B1FDE4E432BCA0D9622DAF9795FAF464533826484B498524CD807E51D79ED187F21878E10516EF63F505AC67F42C9
310
BA58B1FDDD071640D2FCC87D2045B96591CB3DA85CB7DCE40F504B0304140006080800CC70623B55019EA25F0000007C00000007000000636E782E786D6C4DCB3B0E80201045D1AD90E915ED2CF8AC45050C11660C8261F98AB1B07AC9C97D42D718D865D3E909258CFD00CCE24AC6E326A164D74DC0B4128928FF32603847
310
2BA13128B1252AC747C6BAB984FC68F0B87FE8960A5C09FE86CFB69FBA01504B0304140006080800CC70623B8C9102E971010000D40300000C0000006662782F636F72652E786D6CC5535B6E833010BC8AE5DF0A6C08340F1947A84D4ED00B38C6A128602363A31CBFCB234A53A551FA553EC09AD9F5CE8C31DB9E9B1AF5CA
310
7695D1198E428A91D2D214952E33ECDD315861B4E5CC1AE3BE9561A445A3323CC098B3D21ADFCE9034DA29ED00D5A6503328BA4E398C640D8B0C77F253352214DE4145770A5B214FA2546114020D759C75CE8200340D19DE981F0F6746269C33EFAB6266AB02A655C74A59CCF365BADC27CB5D902ED22848F6340DF238A141
310
BE88E2F57B92BFEDF23523433367AE6A2EEAA455C2A902F398D2751045018D3FA264435F3771F242571B4A1919CA6F9A7C5B3CD9E42BED16F12C776AEB308F40C848FC700B1139D4891EF410CEC810227CC6846F8386402064270EF5C5C709A05E49676C024C61FC95EA45ED154CA5211D1FF4FB8291A913A68E9B83EBBB33
310
E2A7673CDE118E5AE8124C0807CB8377834E366998436B950D7A7746DAD846D4CFD978E0F04FD455FC5D49D2D4C6FE9722321F10997F0F32DC47FE05504B0304140006080800CC70623BFFEA85907E0000009D0000000B0000006662782F636E782E786D6C4DCCD10A83201886E15B91FFDC95D95A811AB6F23E625948A6C3
310
E9D8E5AF46073BFAE0E1E365ED67B3E8ADC3CB78C7815C7240DA3DFC64DCC221C519D7805AC182F7F1EF06C88D9BE6703008B6049F9E274D7A1E938DBB5AE3D6131B2589BA0D3D965551E0B2EA732C9B9A624AAEB41E3A557677029960D9AFB4EF11165F504B0304140006080800CC70623B4FEEA4082C0100001202000031
310
0000006662782F39464131463745442D413632322D343644302D413938332D3331353338454246344243312F636F72652E786D6C8D515B6EC32010BC0AE2AB55850DD871ED0813254D72825EC00192A2C460F1A872FC42ED48ED5F7E00CDCECCCEB26C731F6FE05B39AFADE921293004CA082BB5B9F43086336A21D870E6AC
310
0D7F68109861543DCC30E4ECE26C9C164858139409093556AA051CBC570102714B8F1E7AF1A5C6A11862480C7F2DA6415C878B2A4891CA89C7990F2E050073937C42DE1DB7E4F87ED8A36D4329AA9B3D46DBAEAD504556557BD81DEBDD0761E52CE42C462D17B996298E3E6BE59E35C962CE821E1FF18553435012728A7187
310
0841987E927A8D9B35ADDF70BBC6989599FE4F1427F9A4286A132ABAC49D651EF234CD5CE04CDA78BA3DC2A8FB645D00B9DF8B57E215725C60BCA2A463E54C4CE327C7A65E1C7DB02E7DEFCBF594B864C5CA6CDBD49C957943E9FA5D5FBAF336F90F504B0304140006080800CC70623BAD7543B64E01000033030000300000
310
006662782F39464131463745442D413632322D343644302D413938332D3331353338454246344243312F636E782E786D6CD593CD6EC32010845F0571AD6CE3D48AD20813A9873E410FBD12D82434182C7EAAE6EDBB2424CD25871E7B41D6EC30B3FA84F9E67BB2E40B4234DE8DB46F1925E094D7C6ED479AD3AE5951B2113C
310
789FEE6C943839C1488B4C05DF079FE72A69D8C96C13AAD6B8631503449F83828872B949AC57D26200B826A308D316B4064D6E46FCDA41C05550DC9E483A00797BFD207EFB092A45DE9514C1BBD22178396BD39D891265658C238DEA00936C654E5E433CB65A26D9F6EDB5EBC14EBF49A45CB856E66048291F6939A9A81BB5
310
C8917738143CA680F4AA299D66A042CEB3354A2684DC9D8D178FE0D9B8B41CAAD720F880EE7EF93C0C18769E099ECC04D5A102C8049A8A05632F4DDF376CF1DE0F6BB65C2F8627B65A33C6BB62177CEBBDAD973006829F89F22E814B54F4BC2BE347F8AA8F681390B50FA73F804400B5F542E796F19FF974E7F78DB802FE05
310
E207504B0304140006080800CC70623B16AB87BA640500003C100000340000006662782F39464131463745442D413632322D343644302D413938332D3331353338454246344243312F6F626A656374732E786D6CAD575B6FA33818FD2B887DE6924B3BED8A326A92B68A663B534DD4D13E548A0C38942D60649B369D5FBFC7
310
600890A493BDE42160637FD7F31D7FF63E6FB3D478A55C242CBF3247B66B1A340F5994E4F19559CA8D75611A9F7D8F33263BCB4C232719BD32D5B4E97B316765A1A722BA21652A07B3B7B33F0D11D29C9A46981221AE4C113ED38CD8A4942CA2E2C58E882476BCD9DA23BB5ED8171B73523C0F841684D35CC252CCE79062D4
310
468DFA43D7747CCF51DF7D4FFDEB5593E3AB9CCA9FBEFE241792E4E19EB28198C968BAB8199F5D5A67D3E9C49A9E8F47D6EC76B6B0469F26EEFC7C3EBFBCBEB98462213924694B38DD98FE1D62C393D073EA4FADC5DAF04326852CCF6958F90F0F2B9BB5C48816348F90C7840A68EB78EDF68723159BCEE7891A6B95DDE9D3
310
BCEAEEE8086A6C6F9E5D4B59F0175C10A7A0820BAA5055C7473B5AE3CFDD452D602CD5DF12616444529E90D448938013FE6EFA58AA96F85E4F8C42275708571E98FE6827AF6B2B4AE3D7D83D64E5A64C53054DD3AF90BD06FEA9149565C94FCA0F6B834DC85599E4F2423B24DF0B6AFA979E534DFA9E7A4CC6FA631D486393
310
921829879BF5D781A373557BCB85E97FB90DB62B558F8795179C15944B051F40AB495CF35451D26A4727654E6D8033BD98EF82F21D91FF8AF2DD9982BCF1643BDD4EB516C9492E368C67C88DED563FC36D5EACF66DFF057C3658BDBFA69DF9578B3DA735B64F18C7F20770A9D45CFCF7FCF563D6456A277DBEF78A02637CA2
310
43B90A490AEAB94F72244481D24819A6C0E59B606BFA4B3025981DBB48EAB701D97BF19C577CC77F2D1B6C55A9EF3C732474C0B727303F625995056C3B02963D9EAC146BE78EC5FCEC7FA999EBC5EACBAAE41B12D27B4D2C0BBA49F244E2ECDC81B76B502F113D8F5EE8FB1BE3111CDD4FC2AA9B844CAB1288B68AB90A7CDC
310
1C166AB0D3DC5310625FCC14E779BFD0709F8890A629C9292B1B2DED31A4B0DA928CEE135085754027E3018A397D4D5427D15BD1330B677DC8934285AC3DF45A9EB68FF8F2B8FC0A509AFEECFD0FF2DE25CC6047F7214B195F07EFEB9A094D800F7BFAE8FED187B78EA8A3A400F115961BCAD1215E47C966530AF0EE8128FE
310
58CEBB996A8964FFA529A046635D9353B0336A8F700DDF46271A024E70B0B37C9DE01847591E54DED53D54202AB947E4076556AC49C6CA5C9E1226B7F1A7B1BE15DEED62C41B91E1B3E9AFAAA735036547343A925075041DF0A9979E893B391F8FCFA6967B3EFB644DCF6E5CEBFAE272625DCC6FAF3FB93793C5F90CE1EF57
310
407342756B10D1C489E8953CD1617E5CEECAD6F4EF8914CE5D5D504E5C3F1F9736DA62CFC11E00BCDDB8CC8A9466349744C1F75EBDA4DF09BA8A9E8C7A7E9991989E20E5DBDD6A6003664ED8F7A04A8DBE0DF6EAD9B9AA858342E47399053949D2C146EDB85DE4B176BB0965FBAC19BD19AA918E27FA50C1D22402E144464C
310
59462568E704B6E71915404CB72B8FF4EDE184DDAF753F284990D2C6926782963815403548A70C657FDEF80D2D9CEAA2AE4C1C76F60BFE74219A06527D6582DF6412526107381E55E353090704D085B52408D0933C4ED159D79BDA71BB4BC506F4831350EB6F979CD22D69BF7AC49B91A2C0A9DDA3D5CA36AD20FC478E37E6
310
1844E2352865EBCB6EA275A652E3836BE04EFB400BF1A2556F515F1FBB35B2AB35BD889C744FFA1004B5544B121E57F70215746DD2F5E2C1412B602CBF19455AC6C8E5E9922C4E01E65215385004546899059180EAFCF7A707CE7017CD8CDB0410789AB32C63B91E5CEBBBACB17AC6CD347A022D5075FD106377347AAABA7E
310
7D11590744509B44E205134DC1290F06580320F78E537D3D73540E06CB970B431F185308AD40BBD794D6D77003C5A36E8EAA54BA64597CD8F83BD552A080A365F7FF06504B0304140006080000CC70623B000000000000000000000000350000006662782F39464131463745442D413632322D343644302D413938332D3331
310
353338454246344243312F76657274696365732E62696E504B0304140006080800CC70623BF270F1330600000004000000360000006662782F39464131463745442D413632322D343644302D413938332D3331353338454246344243312F747269616E676C65732E62696E636660600000504B0304140006080000CC70623B
310
000000000000000000000000370000006662782F39464131463745442D413632322D343644302D413938332D3331353338454246344243312F617474726962757465732E62696E504B0304140006080800CC70623B08DA0BD19000000041010000360000006662782F39464131463745442D413632322D343644302D413938
310
332D3331353338454246344243312F6469726563746F72792E786D6C858F410AC3201045AF22B36F53E9A60B35CBEEBAE80D244E44489C6234F4F835464A48035D0DF398FF9F8AF63D0E6CC63039F212F8F9020C7D47C6792B21C5FE7403D62A1188E2E60C98D7234A5830286103A55745067B9D86B8A3CF9C7F90C11DE607
310
FB144396D7B6A82D282E9A152AD114D5EF2CB866EEE831B8EEA07A7BB5A8D7D61A2BAAEB7FD5F70921FF497D00504B0304140006080800CC70623B0D6EF93BFE000000A00100003B0000006662782F39464131463745442D413632322D343644302D413938332D3331353338454246344243312F7265736F75726365732F63
310
6F72652E786D6C8D50596E833010BD0A9ADFCA60B334011947A8694ED00B586642AC041B79A97AFC9A40A5F6AF3F33A3B7689E1E3F7DCD8FEC139DD7D6F4C0720A191A65476DA61E62B892236427C19DB5E1970C322367EC618541F0C9D9B8EC90B226A009093576C41D94DE63804C3DD2D18357379C652E63480A7FCF17A9
310
EE72C29CE5894E3AC17D702940B63D59270887DE46A7D0F36263058F518FBB468FE9A7BE6A7420864373B8D4873369AA8691FA421B3294352543C5CAF65C0F6FEF43CB8BD52C78D0F34F46E550061C419494B6843142CB0F5677F4B52BEB177AEC28E5C52AFF638ACBF84F53D42654E51E77B379102C05791282176B5F693D
310
CB4C7BED567C03504B010214000A0000080000CC70623B3DEE336E79000000790000001B00000000000000000000000000000000006175746F6465736B2D64657369676E2D7061636B6167652E786D6C504B01021400140006080800CC70623BD486FD9CA0000000F40000001300000000000000000000000000B20000005B
310
436F6E74656E745F54797065735D2E786D6C504B01021400140006080800CC70623B1EC5D7A3EB0000007C010000080000000000000000000000000083010000636F72652E786D6C504B01021400140006080800CC70623B55019EA25F0000007C000000070000000000000000000000000094020000636E782E786D6C504B
310
01021400140006080800CC70623B8C9102E971010000D40300000C00000000000000000000000000180300006662782F636F72652E786D6C504B01021400140006080800CC70623BFFEA85907E0000009D0000000B00000000000000000000000000B30400006662782F636E782E786D6C504B01021400140006080800CC70
310
623B4FEEA4082C0100001202000031000000000000000000000000005A0500006662782F39464131463745442D413632322D343644302D413938332D3331353338454246344243312F636F72652E786D6C504B01021400140006080800CC70623BAD7543B64E010000330300003000000000000000000000000000D5060000
310
6662782F39464131463745442D413632322D343644302D413938332D3331353338454246344243312F636E782E786D6C504B01021400140006080800CC70623B16AB87BA640500003C1000003400000000000000000000000000710800006662782F39464131463745442D413632322D343644302D413938332D3331353338
310
454246344243312F6F626A656374732E786D6C504B01021400140006080000CC70623B0000000000000000000000003500000000000000000000000000270E00006662782F39464131463745442D413632322D343644302D413938332D3331353338454246344243312F76657274696365732E62696E504B01021400140006
310
080800CC70623BF270F133060000000400000036000000000000000000000000007A0E00006662782F39464131463745442D413632322D343644302D413938332D3331353338454246344243312F747269616E676C65732E62696E504B01021400140006080000CC70623B0000000000000000000000003700000000000000
310
000000000000D40E00006662782F39464131463745442D413632322D343644302D413938332D3331353338454246344243312F617474726962757465732E62696E504B01021400140006080800CC70623B08DA0BD190000000410100003600000000000000000000000000290F00006662782F39464131463745442D413632
310
322D343644302D413938332D3331353338454246344243312F6469726563746F72792E786D6C504B01021400140006080800CC70623B0D6EF93BFE000000A00100003B000000000000000000000000000D1000006662782F39464131463745442D413632322D343644302D413938332D3331353338454246344243312F7265
310
736F75726365732F636F72652E786D6C504B0506000000000E000E0080040000641100000000
  0
XRECORD
  5
175
102
{ACAD_REACTORS
330
173
102
}
330
173
100
AcDbXrecord
280
     1
270
     1
271
     1
  0
XRECORD
  5
174
102
{ACAD_REACTORS
330
173
102
}
330
173
100
AcDbXrecord
280
     1
270
     1
271
     1
  0
XRECORD
  5
1FB
102
{ACAD_REACTORS
330
173
102
}
330
173
100
AcDbXrecord
280
     1
 70
     0
 90
1673772943
  1
ECE7A1D2-D628-4531-984C-D00F80459256
310
504B03040A0000080000CC70623B3DEE336E79000000790000001B0000006175746F6465736B2D64657369676E2D7061636B6167652E786D6C3C3F786D6C2076657273696F6E3D22312E302220656E636F64696E673D227574662D3822203F3E3C666F726D6174733E3C666F726D61743E687474703A2F2F736368656D612E
310
6175746F6465736B2E636F6D2F64657369676E2D7061636B6167652F323030393C2F666F726D61743E3C2F666F726D6174733E504B0304140006080800CC70623BD486FD9CA0000000F4000000130000005B436F6E74656E745F54797065735D2E786D6C7D8EC10E82300C865F65E91D8A1E8C310C0EEA1BF002731658846E
310
D98AC1B77784ABF1D8FE5FBFBF75BBCE937A534CCEB38643598122B6FEE978D0B0485F9C41B54DDD7D022595594E1A469170414C76A4D9A4D207E29CF43ECE46F218070CC6BECC4078ACAA135ACF422C856C0E68EA1BF5669944DDD7BCDE7B1F8E415D77AECB980613C2E4AC91FC167A2B244592486606FC29C8FD7F045B9A
310
EF7053A7E60B504B0304140006080800CC70623BD9DDAED0EC0000007C01000008000000636F72652E786D6C8D90416EC3201045AF82665B61836D9CD8C2444DD39CA01740405C94182C03558F5F9C3852BBEB6A467FFE9B197D7EF89E6EE8CB2CC17A37002D0820E394D7D68D03A478C17B4007C117EFE32F1B20272733C0
310
2A83E0E3E2D3BC49CABB685CCCAAF3DA6CA20CC14440EA969B0182FA34932C648AD911AEC52CD5558EA6A0CF2EC329598D1E47ACCEFBECC59A050463A7EA5833865FEBDD0E37353BE3EE8DBDE3F6786A48D375FBF6CC78B9C282473B3DEFABC5C86834888A900E538A49F5419B9EB47DD5BC907D4F082F57FB1F28CDFA9F50
310
B22ED6D5F6EE030B20687EE43E10BC5CB3C8E51E54AE6B6EE207504B0304140006080800CC70623B55019EA25F0000007C00000007000000636E782E786D6C4DCB3B0E80201045D1AD90E915ED2CF8AC45050C11660C8261F98AB1B07AC9C97D42D718D865D3E909258CFD00CCE24AC6E326A164D74DC0B4128928FF326038
310
472BA13128B1252AC747C6BAB984FC68F0B87FE8960A5C09FE86CFB69FBA01504B0304140006080800CC70623BA24EB22D72010000D40300000C0000006662782F636F72652E786D6CC5535B6E833010BC8AE5DF0A6C5E49888CA3A6694ED00B38E05014B091B1518EDFE511A5A9D228FD2A1F60CDEC7A67C6986DCE4D8D7A
310
69BA4AAB0C073EC548AA5C17952A33ECECD15B61B4E1CC686DBF9561A44423333CC098B3D268D7CE50AE9595CA02AA74216750749DB418E5352C32DCE59FB211BE70162ABA93DF8AFC244AE9073ED050C759670D0840D390E18DF9F1706664C23973AE2A66B62A605A75ACA4C13C4976E1364A12EF355A2EBD384AF65EFA96
310
BC7B8BED2EA6719AAE16FB8491A199335B351775B991C2CA02F390D2D40B028F861F41BCA68B7518BFD0D59A524686F29B26D7164F36B94AD9289CE54E6D1DE6010819891F6E21228B3AD1831EC219194284CF98F06DD01008846CC5A1BEF83801D4CBDC6A1303536877A57A513B0953A94FC707FDBE6064EA84A9E3E6E0FA
310
EE8CF0E9198F7784A316AA0413C2C2F2E0ECA0934D1AE6D05A69BCDE9E91D2A611F573361E38FC1375157F5752AE6B6DFE4B11990F88CCBF0719EE23FF02504B0304140006080800CC70623B408A7D3B7C0000009D0000000B0000006662782F636E782E786D6C4DCCD10A83201886E15B91FFDC552A92A0064DBC8F581632
310
D3703A76F9ABD1C18E3E78F878E5F0D9027ABBFCF2292AE86E2D20171F69F6715550CB827B40839639A5F2770314A7CD293819B45C73AAFB45B35BA61ACAA1C1C7E7855C58C15BC331339661262CC762340413D68D77DA5B42298546CBE6573AF60CEB2F504B0304140006080800CC70623B449FB9BD290100001202000031
310
0000006662782F36394639363044362D344446342D343946362D394244322D3234314243333846323333332F636F72652E786D6C8D515B6EC32010BC0AE22B55850D98B871848994463E412FE002495162B07854397EA176A4F62F3F2C9A9D991D587EB84F37F0AD7D30CEF6905418026DA553C65E7A98E219ED203808EE9D
310
8B7F6810D871D23D2C3014FCE25D9A57483A1BB58D19B54EE9151C43D0110279CB971E06F9A5A7B11A53CC8C70ADE6515EC78BAE4895DB992778883E0700CB907242D17643D7E2538BD869608875438BBAE38922CAC8F1BDD90DB4691A5E2F42C153326A951B95E398B3D1FE599322163C9AE9115F7A3D46ADA0A018778810
310
84E907617BDCEE297BC5BB3DC6BC2EF47FA234AB2745C9D8D8D035EE220B50105E2F0DC1954B9FB747187D9F9D8FA0CCDB042D5FA0C015C65B42DF78BD10F3F3B363CB56C7109DCFDFBBB97E662ED92EB62D13BC2E1BCAE5777DB9966D8A1F504B0304140006080800CC70623BAD7543B64E01000033030000300000006662
310
782F36394639363044362D344446342D343946362D394244322D3234314243333846323333332F636E782E786D6CD593CD6EC32010845F0571AD6CE3D48AD20813A9873E410FBD12D82434182C7EAAE6EDBB2424CD25871E7B41D6EC30B3FA84F9E67BB2E40B4234DE8DB46F1925E094D7C6ED479AD3AE5951B2113C789FEE
310
6C943839C1488B4C05DF079FE72A69D8C96C13AAD6B8631503449F83828872B949AC57D26200B826A308D316B4064D6E46FCDA41C05550DC9E483A00797BFD207EFB092A45DE9514C1BBD22178396BD39D891265658C238DEA00936C654E5E433CB65A26D9F6EDB5EBC14EBF49A45CB856E66048291F6939A9A81BB5C89177
310
38143CA680F4AA299D66A042CEB3354A2684DC9D8D178FE0D9B8B41CAAD720F880EE7EF93C0C18769E099ECC04D5A102C8049A8A05632F4DDF376CF1DE0F6BB65C2F8627B65A33C6BB62177CEBBDAD973006829F89F22E814B54F4BC2BE347F8AA8F681390B50FA73F804400B5F542E796F19FF974E7F78DB802FE05E20750
310
4B0304140006080800CC70623B8D05915C650500003B100000340000006662782F36394639363044362D344446342D343946362D394244322D3234314243333846323333332F6F626A656374732E786D6CAD575B6FA33814FE2B887D06429276DA1565D4266D158D3A339A6846FB502932E050B66023DB74D2FDF5FB190C01
310
9276B2973C046C8ECFF53B17071F77456EBD502133CEAE6CDF9DD81665314F32965ED995DA3A17B6F5310C04E7AA47665B8C14F4CAD6DB7618A48257A5D94AE89654B91AEDDEDDFC61C998326A5B714EA4BCB265FC440BE2924AF184CA6737218AB8E976E7FA6E4338649B0A523E8D98964450A6A029F619B8588D52FE7039
310
B1BD30F0F4F730D0FF866AF6369557DB33949F31A9088B0F848DD8CCFCF9F2767A76E99CCDE733677E3EF59D9BBB9BA5E37F984D16E78BC5E5F5ED25044B25C0C96822E8D60EEFE11B91C581D77CEA34368A1F5329E68CD1B8B61F16D63A1B8E092D294B10C78C4A48EB593D192E7DED9BDEE7995E1B91FDEDD3ACEA9FE831
310
6A756F9F7D4D79F4274C90A7A04248AA51D5F8C718DAE06FB2F75AC4796EBE65D22A88A22223B995679120E2D50E41AA49C260C046A35368846B0BECD0DFF3EBEB8AD4F835768F69B9ADF25C43D30E6B646F807FAA64AD59F61715C7A54127C4AACA98BA3006A9D792DAE165E0D59B61A01FB3A9F9D838D2DAE62445C86166
310
F37564E842E7DE6A69879FEEA2DD5AE7E371E1A5E025154AC307D06A03D73EB5978C58FFA4C8E9033066E0F3BD53BEC1F39F91BE7B55103791EDE6BBB991A2046172CB4581D8B893FA674DDA17A77B3B7C413D1B511FD2743BFF8A38F03A658705E3ADF8015C3A3417FF3D7E439FF591DA0B5F18BC20C1B8981957AE6392A3
310
F43C640C01D1A0B4728E2DD4F26DB4B3C3152A252A3B4E913CEC1C72F012782FF88EFF8637AA552DBEF76408E8A8DE9E50F9E1CB3A2DA0DB1B6039A893B56063DC5B3E3FFB5F72E67AB9FEB4AEC496C4F4C1149625DD662C53E89D7BF0F6151A046260D1337DFDC94502430F83B0EE07A130A224BCAD7DAE1D9FB6CD422FF6
310
920702629C4BB9AE79C12F243C6432A6794E18E5552BA56B431AAB5D91317302B2B071E86C3A42B1A02F999E24061403B5D0EB639195DA655DD3EBEAB4FB862DDF579F014AD0E73C22F99E28DA57FB98E75C6CA2D74D53086D600F4786E0FE3144B771A8A7B900F03594DB8A633CBC49B2EDB69228BB479CF863B5E807AAAB
310
23872F6DFEB4129B949CA33823F58830E86D65621E10047D9DB34D862E8EAC3C2ABC2F7B2C40D67CDFE01F5545B92105AF983AC54D93D69E56FB8E797F88913F898A9FEC705D3F9D1B54EC8426FB500D40A03BD0119B06E1B95DDC7EB8F6975367793EBD70E66733DFB9BC982F9CE564727731999F5D4ECFCE3B8D6A4DC2A0
310
6D50FD148437D110834A64C6CDDF57FBACB5C307A2A477DFE4939736CFEF2B175371E0E10CF0DD1D5C15654E0BCA14D1E87DD02FF93782A162C0A3D95F1524A52770F972BF1EE9809D13CE7DD599467F8ECE9ADD85CE85A34CD45355448C64F9E8A031DC2D596ACC6E5DD93D9B82DE2EF5CAF81363A8E47996A0DE24564A79
310
4115AACE09C55E14540231FDA13C319787134EBF34E3A022514E5B4D9E0826E25C02D5805B15ABE1BEF51B26383D445DD9E875EE33FE4C22DA16427D65A3BCA92CA6D28DD01DF5DC53330704308475351050232CCD31583787BA75774AFB06E5070DD0C8EF484E19968C5D83BA5B90B244D31E54D55A372320FE4786B7EA58
310
44E135AA5467CB7EA333A61683CC6A8C3257034C10CF46F40EF9F5BE59BE5BD30C3C72D235E95D10345C1D45445A5F0BB47E46A5EBE5570F9380B5FA629579952296A773720405982B9DE04011506178964401AA8BDF1FBF0A8EAB6861DD6580C0E38217056766716DAEB2D6FA0917D3E4116581EADB879C4E7CFFB11EFACD
310
3D641311495D92C8676CB409A72D18610D803CE8A626049E8EC1887CB5B44CC39883690DDA8399B4B9855B481E7D71D4A9D22F96E5BB73BF5793020C02137BF837504B0304140006080000CC70623B000000000000000000000000350000006662782F36394639363044362D344446342D343946362D394244322D32343142
310
43333846323333332F76657274696365732E62696E504B0304140006080800CC70623BF270F1330600000004000000360000006662782F36394639363044362D344446342D343946362D394244322D3234314243333846323333332F747269616E676C65732E62696E636660600000504B0304140006080000CC70623B0000
310
00000000000000000000370000006662782F36394639363044362D344446342D343946362D394244322D3234314243333846323333332F617474726962757465732E62696E504B0304140006080800CC70623B08DA0BD19000000041010000360000006662782F36394639363044362D344446342D343946362D394244322D
310
3234314243333846323333332F6469726563746F72792E786D6C858F410AC3201045AF22B36F53E9A60B35CBEEBAE80D244E44489C6234F4F835464A48035D0DF398FF9F8AF63D0E6CC63039F212F8F9020C7D47C6792B21C5FE7403D62A1188E2E60C98D7234A5830286103A55745067B9D86B8A3CF9C7F90C11DE607FB14
310
4396D7B6A82D282E9A152AD114D5EF2CB866EEE831B8EEA07A7BB5A8D7D61A2BAAEB7FD5F70921FF497D00504B0304140006080800CC70623BCA768048FE000000A00100003B0000006662782F36394639363044362D344446342D343946362D394244322D3234314243333846323333332F7265736F75726365732F636F72
310
652E786D6C8D50596E833010BD0A9ADFCA60D600328E9AA639412F609909B1126CE4A5EAF16B0295DABFFECC8CDEA2797AECF8353F924FB44E193D409E5248504B332A3D0D10FC95B4901C39B3C6F85F3248B49871801506CE266BC2B243D2688FDA47549B11775038871E12F988C7004EDE7016A9083E2ADC3D5D84BC8B09
310
D33C8D74D471E6BC8D0192EDC93A815B742658898E651BCB59086ADC356A8C3FD555A1055ED7E7E254D615792D0F075295F585746FF53B694EE78A565DD736979A65AB9933AFE69F8CD2A2F038022F28ED489E135A7CE4554F9BBEA85E68DB53CAB255FEC71496F19FA6A0B42F8B3DEE6673C0F318E4497096AD7DC5F52C33
310
EEB55BFE0D504B010214000A0000080000CC70623B3DEE336E79000000790000001B00000000000000000000000000000000006175746F6465736B2D64657369676E2D7061636B6167652E786D6C504B01021400140006080800CC70623BD486FD9CA0000000F40000001300000000000000000000000000B20000005B436F
310
6E74656E745F54797065735D2E786D6C504B01021400140006080800CC70623BD9DDAED0EC0000007C010000080000000000000000000000000083010000636F72652E786D6C504B01021400140006080800CC70623B55019EA25F0000007C000000070000000000000000000000000095020000636E782E786D6C504B0102
310
1400140006080800CC70623BA24EB22D72010000D40300000C00000000000000000000000000190300006662782F636F72652E786D6C504B01021400140006080800CC70623B408A7D3B7C0000009D0000000B00000000000000000000000000B50400006662782F636E782E786D6C504B01021400140006080800CC70623B
310
449FB9BD290100001202000031000000000000000000000000005A0500006662782F36394639363044362D344446342D343946362D394244322D3234314243333846323333332F636F72652E786D6C504B01021400140006080800CC70623BAD7543B64E010000330300003000000000000000000000000000D20600006662
310
782F36394639363044362D344446342D343946362D394244322D3234314243333846323333332F636E782E786D6C504B01021400140006080800CC70623B8D05915C650500003B10000034000000000000000000000000006E0800006662782F36394639363044362D344446342D343946362D394244322D32343142433338
310
46323333332F6F626A656374732E786D6C504B01021400140006080000CC70623B0000000000000000000000003500000000000000000000000000250E00006662782F36394639363044362D344446342D343946362D394244322D3234314243333846323333332F76657274696365732E62696E504B010214001400060808
310
00CC70623BF270F13306000000040000003600000000000000000000000000780E00006662782F36394639363044362D344446342D343946362D394244322D3234314243333846323333332F747269616E676C65732E62696E504B01021400140006080000CC70623B00000000000000000000000037000000000000000000
310
00000000D20E00006662782F36394639363044362D344446342D343946362D394244322D3234314243333846323333332F617474726962757465732E62696E504B01021400140006080800CC70623B08DA0BD190000000410100003600000000000000000000000000270F00006662782F36394639363044362D344446342D
310
343946362D394244322D3234314243333846323333332F6469726563746F72792E786D6C504B01021400140006080800CC70623BCA768048FE000000A00100003B000000000000000000000000000B1000006662782F36394639363044362D344446342D343946362D394244322D3234314243333846323333332F7265736F
310
75726365732F636F72652E786D6C504B0506000000000E000E0080040000621100000000
  0
XRECORD
  5
176
102
{ACAD_REACTORS
330
173
102
}
330
173
100
AcDbXrecord
280
     1
270
     1
271
     1
  0
XRECORD
  5
177
102
{ACAD_REACTORS
330
173
102
}
330
173
100
AcDbXrecord
280
     1
270
     1
271
     1
  0
XRECORD
  5
5CF7
102
{ACAD_REACTORS
330
5CF6
102
}
330
5CF6
100
AcDbXrecord
280
     1
102
DISPLAYNAME
  1
Imperial24
102
FLAGS
 90
        0
  0
XRECORD
  5
5CF3
102
{ACAD_REACTORS
330
5CF2
102
}
330
5CF2
100
AcDbXrecord
280
     1
102
DISPLAYNAME
  1
Metric50
102
FLAGS
 90
        0
  0
CELLSTYLEMAP
  5
5CE8
102
{ACAD_REACTORS
330
162
102
}
330
162
100
AcDbCellStyleMap
 90
        3
300
CELLSTYLE
  1
TABLEFORMAT_BEGIN
 90
        5
170
     1
 91
        0
 92
    32768
 62
   257
 93
        1
300
CONTENTFORMAT
  1
CONTENTFORMAT_BEGIN
 90
        0
 91
        0
 92
      512
 93
        0
300

 40
0.0
140
1.0
 94
        5
 62
     0
340
11
144
6.0
309
CONTENTFORMAT_END
171
     1
301
MARGIN
  1
CELLMARGIN_BEGIN
 40
1.5
 40
1.5
 40
1.5
 40
1.5
 40
4.5
 40
4.5
309
CELLMARGIN_END
 94
        6
 95
        1
302
GRIDFORMAT
  1
GRIDFORMAT_BEGIN
 90
        0
 91
        1
 62
     0
 92
       -2
340
14
 93
        0
 40
1.125
309
GRIDFORMAT_END
 95
        2
302
GRIDFORMAT
  1
GRIDFORMAT_BEGIN
 90
        0
 91
        1
 62
     0
 92
       -2
340
14
 93
        0
 40
1.125
309
GRIDFORMAT_END
 95
        4
302
GRIDFORMAT
  1
GRIDFORMAT_BEGIN
 90
        0
 91
        1
 62
     0
 92
       -2
340
14
 93
        0
 40
1.125
309
GRIDFORMAT_END
 95
        8
302
GRIDFORMAT
  1
GRIDFORMAT_BEGIN
 90
        0
 91
        1
 62
     0
 92
       -2
340
14
 93
        0
 40
1.125
309
GRIDFORMAT_END
 95
       16
302
GRIDFORMAT
  1
GRIDFORMAT_BEGIN
 90
        0
 91
        1
 62
     0
 92
       -2
340
14
 93
        0
 40
1.125
309
GRIDFORMAT_END
 95
       32
302
GRIDFORMAT
  1
GRIDFORMAT_BEGIN
 90
        0
 91
        1
 62
     0
 92
       -2
340
14
 93
        0
 40
1.125
309
GRIDFORMAT_END
309
TABLEFORMAT_END
  1
CELLSTYLE_BEGIN
 90
        1
 91
        1
300
_TITLE
309
CELLSTYLE_END
300
CELLSTYLE
  1
TABLEFORMAT_BEGIN
 90
        5
170
     1
 91
        0
 92
        0
 62
   257
 93
        1
300
CONTENTFORMAT
  1
CONTENTFORMAT_BEGIN
 90
        0
 91
        0
 92
      512
 93
        0
300

 40
0.0
140
1.0
 94
        5
 62
     0
340
11
144
4.5
309
CONTENTFORMAT_END
171
     1
301
MARGIN
  1
CELLMARGIN_BEGIN
 40
1.5
 40
1.5
 40
1.5
 40
1.5
 40
4.5
 40
4.5
309
CELLMARGIN_END
 94
        6
 95
        1
302
GRIDFORMAT
  1
GRIDFORMAT_BEGIN
 90
        0
 91
        1
 62
     0
 92
       -2
340
14
 93
        0
 40
1.125
309
GRIDFORMAT_END
 95
        2
302
GRIDFORMAT
  1
GRIDFORMAT_BEGIN
 90
        0
 91
        1
 62
     0
 92
       -2
340
14
 93
        0
 40
1.125
309
GRIDFORMAT_END
 95
        4
302
GRIDFORMAT
  1
GRIDFORMAT_BEGIN
 90
        0
 91
        1
 62
     0
 92
       -2
340
14
 93
        0
 40
1.125
309
GRIDFORMAT_END
 95
        8
302
GRIDFORMAT
  1
GRIDFORMAT_BEGIN
 90
        0
 91
        1
 62
     0
 92
       -2
340
14
 93
        0
 40
1.125
309
GRIDFORMAT_END
 95
       16
302
GRIDFORMAT
  1
GRIDFORMAT_BEGIN
 90
        0
 91
        1
 62
     0
 92
       -2
340
14
 93
        0
 40
1.125
309
GRIDFORMAT_END
 95
       32
302
GRIDFORMAT
  1
GRIDFORMAT_BEGIN
 90
        0
 91
        1
 62
     0
 92
       -2
340
14
 93
        0
 40
1.125
309
GRIDFORMAT_END
309
TABLEFORMAT_END
  1
CELLSTYLE_BEGIN
 90
        2
 91
        1
300
_HEADER
309
CELLSTYLE_END
300
CELLSTYLE
  1
TABLEFORMAT_BEGIN
 90
        5
170
     1
 91
        0
 92
        0
 62
   257
 93
        1
300
CONTENTFORMAT
  1
CONTENTFORMAT_BEGIN
 90
        0
 91
        0
 92
      512
 93
        0
300

 40
0.0
140
1.0
 94
        2
 62
     0
340
11
144
4.5
309
CONTENTFORMAT_END
171
     1
301
MARGIN
  1
CELLMARGIN_BEGIN
 40
1.5
 40
1.5
 40
1.5
 40
1.5
 40
4.5
 40
4.5
309
CELLMARGIN_END
 94
        6
 95
        1
302
GRIDFORMAT
  1
GRIDFORMAT_BEGIN
 90
        0
 91
        1
 62
     0
 92
       -2
340
14
 93
        0
 40
1.125
309
GRIDFORMAT_END
 95
        2
302
GRIDFORMAT
  1
GRIDFORMAT_BEGIN
 90
        0
 91
        1
 62
     0
 92
       -2
340
14
 93
        0
 40
1.125
309
GRIDFORMAT_END
 95
        4
302
GRIDFORMAT
  1
GRIDFORMAT_BEGIN
 90
        0
 91
        1
 62
     0
 92
       -2
340
14
 93
        0
 40
1.125
309
GRIDFORMAT_END
 95
        8
302
GRIDFORMAT
  1
GRIDFORMAT_BEGIN
 90
        0
 91
        1
 62
     0
 92
       -2
340
14
 93
        0
 40
1.125
309
GRIDFORMAT_END
 95
       16
302
GRIDFORMAT
  1
GRIDFORMAT_BEGIN
 90
        0
 91
        1
 62
     0
 92
       -2
340
14
 93
        0
 40
1.125
309
GRIDFORMAT_END
 95
       32
302
GRIDFORMAT
  1
GRIDFORMAT_BEGIN
 90
        0
 91
        1
 62
     0
 92
       -2
340
14
 93
        0
 40
1.125
309
GRIDFORMAT_END
309
TABLEFORMAT_END
  1
CELLSTYLE_BEGIN
 90
        3
 91
        2
300
_DATA
309
CELLSTYLE_END
  0
ENDSEC
  0
SECTION
  2
ACDSDATA
 70
     2
 71
     8
  0
ACDSSCHEMA
 90
        0
  1
AcDb_Thumbnail_Schema
  2
AcDbDs::ID
280
    10
 91
        8
  2
Thumbnail_Data
280
    15
 91
        0
101
ACDSRECORD
 95
        0
 90
        1
  2
AcDbDs::TreatedAsObjectData
280
     1
291
     1
101
ACDSRECORD
 95
        0
 90
        2
  2
AcDbDs::Legacy
280
     1
291
     1
101
ACDSRECORD
  1
AcDbDs::ID
 90
        3
  2
AcDs:Indexable
280
     1
291
     1
101
ACDSRECORD
  1
AcDbDs::ID
 90
        4
  2
AcDbDs::HandleAttribute
280
     7
282
     1
  0
ACDSSCHEMA
 90
        1
  1
AcDbDs::TreatedAsObjectDataSchema
  2
AcDbDs::TreatedAsObjectData
280
     1
 91
        0
  0
ACDSSCHEMA
 90
        2
  1
AcDbDs::LegacySchema
  2
AcDbDs::Legacy
280
     1
 91
        0
  0
ACDSSCHEMA
 90
        3
  1
AcDbDs::IndexedPropertySchema
  2
AcDs:Indexable
280
     1
 91
        0
  0
ACDSSCHEMA
 90
        4
  1
AcDbDs::HandleAttributeSchema
  2
AcDbDs::HandleAttribute
280
     7
 91
        1
284
     1
  0
ACDSRECORD
 90
        0
  2
AcDbDs::ID
280
    10
320
D3
  2
Thumbnail_Data
280
    15
 94
     1814
310
89504E470D0A1A0A0000000D4948445200000100000000B5080300000087DCD12600000300504C5445FFFFFFFFFFFFFFFFFF0000000000000000000000000000000000000000000000000000330000660000990000CC0000FF0033000033330033660033990033CC0033FF0066000066330066660066990066CC0066FF0099
310
000099330099660099990099CC0099FF00CC0000CC3300CC6600CC9900CCCC00CCFF00FF0000FF3300FF6600FF9900FFCC00FFFF3300003300333300663300993300CC3300FF3333003333333333663333993333CC3333FF3366003366333366663366993366CC3366FF3399003399333399663399993399CC3399FF33CC00
310
33CC3333CC6633CC9933CCCC33CCFF33FF0033FF3333FF6633FF9933FFCC33FFFF6600006600336600666600996600CC6600FF6633006633336633666633996633CC6633FF6666006666336666666666996666CC6666FF6699006699336699666699996699CC6699FF66CC0066CC3366CC6666CC9966CCCC66CCFF66FF0066
310
FF3366FF6666FF9966FFCC66FFFF9900009900339900669900999900CC9900FF9933009933339933669933999933CC9933FF9966009966339966669966999966CC9966FF9999009999339999669999999999CC9999FF99CC0099CC3399CC6699CC9999CCCC99CCFF99FF0099FF3399FF6699FF9999FFCC99FFFFCC0000CC00
310
33CC0066CC0099CC00CCCC00FFCC3300CC3333CC3366CC3399CC33CCCC33FFCC6600CC6633CC6666CC6699CC66CCCC66FFCC9900CC9933CC9966CC9999CC99CCCC99FFCCCC00CCCC33CCCC66CCCC99CCCCCCCCCCFFCCFF00CCFF33CCFF66CCFF99CCFFCCCCFFFFFF0000FF0033FF0066FF0099FF00CCFF00FFFF3300FF3333
310
FF3366FF3399FF33CCFF33FFFF6600FF6633FF6666FF6699FF66CCFF66FFFF9900FF9933FF9966FF9999FF99CCFF99FFFFCC00FFCC33FFCC66FFCC99FFCCCCFFCCFFFFFF00FFFF33FFFF66FFFF99FFFFCCFFFFFF0000000D0D0D1A1A1A2828283535354343435050505D5D5D6B6B6B787878868686939393A1A1A1AEAEAEBB
310
BBBBC9C9C9D6D6D6E4E4E4F1F1F1FFFFFF000000000000000000000000000000000000000000000000000000000000AD4AB4E4000002004944415478DAEDDDDB6EC2300C00D0FCFF67E611F523A6892146080D62CDDADA274F0545829EDAC609B7B22C97CC6329CB52320F0000000068EEAAA1C75B00812F38000000000000
310
0000000000000000000000000000000000003098030040B61AF0C7779B440000000000000000000000000000000070C2FD0000931E7CBCAD327DCF65678086E3F999D5EBA47A9BFD73002028C0739C470758C9EC1C00E314C855043BE7789FD33B8A05F070BB9614008F97BC0330FDAD97434540F7F9DD4ADFEF83A000BD8B
310
9B0AA0931FE10186899D380214C1764A9DB24101E0C035E05F3E7EB1EF8E50AFF56B0B605B05730174AE7F288095DC48110183044F00B07E76F18BE000A0FBC2970D207827384EF0E8ADF0F0CC52AD065F00CCED058ED308B59DFF952376047C1624D16AC01900CA8E35A0AE2E8CCF0E704FECED93FB2C0053977A2260AB22
310
38E92B3352E0005F37DAF753622B8D1080140007180000000000000000000000AC2D8701000000000000000000000000000000000000000000000000000000000000000080F8000500000000000000000000000000000000000000805C00364501000070B6FF130600604B80DE7F7FE42B82B5F148FE2A903002008414F83C
310
0282D4814F016A490E903E02D480BC8D50CDD808757EF331712B9C7235182BEC0100D8A20FC8BB21126CBC01906B00000000C025F3F806C83DBE00466F1D300DAE496B0000000049454E44AE42608290AA01000000C02173FB059892B71F18E1944037CE5EF30000000049454E44AE426082154C1F00A90193DF057A0008B5
310
137781F3890987C27D00F46C79FAEC31B381BB365757467AD99E82D5B9CFA8EE2322643410AA2F1819165C0100A700863A41680D405E000000000020820000170000000000882000C0058C0184DF422330807DED20BFD6CFC502F08A0631196CBCEF0240FDFFF900544B949565A52D22F3B940BD742E5F56AB9D9F1C40D3C4
310
B992019D1A40B644F41280895DE00A80E544F06D00A701C01AB7C1F70010A7D2186E20345EFB0100003CCE061110010093EE0300007801D0B807747C993503C0BC22585F76D75C95F7C1BA3D7B00A790A0321B1267492FA8A3CA33DCBB00CBE2F1B46C5A899C95C2495CEE976B005C79C7824B342F8E4D0154B76EE06C27B5
310
CAE5177DBE796D7E01C86DA358FBA601E642D5BD1486AA2A7A0988C803F2DB26AA1D2CF7AF61015600F4A50E1500EACB73D3C5B545862E5CE00280F544F05D00893DAB92795C464152A9F80CFF0092E4F0B9AF79A714CFE7C2BD65CAD9207F70F6F2854E12136CDAF5E53517C1012020020000D00160EDD60760DD476A0308
310
D50000000000007E22B73F008FE0ED17E77527272CF0C7400000000049454E44AE426082
  0
ACDSRECORD
 90
        0
  2
AcDbDs::ID
280
    10
320
D7
  2
Thumbnail_Data
280
    15
 94
     1653
310
89504E470D0A1A0A0000000D4948445200000100000000B408030000004C80028300000300504C5445FFFFFF000000C8C8C80000000000000000000000000000000000000000000000000000330000660000990000CC0000FF0033000033330033660033990033CC0033FF0066000066330066660066990066CC0066FF0099
310
000099330099660099990099CC0099FF00CC0000CC3300CC6600CC9900CCCC00CCFF00FF0000FF3300FF6600FF9900FFCC00FFFF3300003300333300663300993300CC3300FF3333003333333333663333993333CC3333FF3366003366333366663366993366CC3366FF3399003399333399663399993399CC3399FF33CC00
310
33CC3333CC6633CC9933CCCC33CCFF33FF0033FF3333FF6633FF9933FFCC33FFFF6600006600336600666600996600CC6600FF6633006633336633666633996633CC6633FF6666006666336666666666996666CC6666FF6699006699336699666699996699CC6699FF66CC0066CC3366CC6666CC9966CCCC66CCFF66FF0066
310
FF3366FF6666FF9966FFCC66FFFF9900009900339900669900999900CC9900FF9933009933339933669933999933CC9933FF9966009966339966669966999966CC9966FF9999009999339999669999999999CC9999FF99CC0099CC3399CC6699CC9999CCCC99CCFF99FF0099FF3399FF6699FF9999FFCC99FFFFCC0000CC00
310
33CC0066CC0099CC00CCCC00FFCC3300CC3333CC3366CC3399CC33CCCC33FFCC6600CC6633CC6666CC6699CC66CCCC66FFCC9900CC9933CC9966CC9999CC99CCCC99FFCCCC00CCCC33CCCC66CCCC99CCCCCCCCCCFFCCFF00CCFF33CCFF66CCFF99CCFFCCCCFFFFFF0000FF0033FF0066FF0099FF00CCFF00FFFF3300FF3333
310
FF3366FF3399FF33CCFF33FFFF6600FF6633FF6666FF6699FF66CCFF66FFFF9900FF9933FF9966FF9999FF99CCFF99FFFFCC00FFCC33FFCC66FFCC99FFCCCCFFCCFFFFFF00FFFF33FFFF66FFFF99FFFFCCFFFFFF0000000D0D0D1A1A1A2828283535354343435050505D5D5D6B6B6B787878868686939393A1A1A1AEAEAEBB
310
BBBBC9C9C9D6D6D6E4E4E4F1F1F1FFFFFF000000000000000000000000000000000000000000000000000000000000B0E2D235000003304944415478DAED9D5972C4200C447DFF63EA333587C8E6C16C9E1D10F423A9A9C4A97CF0466AD1C278B62FE571B95C36E9010000000000F9B09FEF9FB1E6EB8300961D0050078008
310
AA034003000000AA0055802A80060000005481A745D0661B1F07709F90EF607F37056CF66C6F0EE0D9E00300293000405B1174A5F1FD01C88B200028839E8A000010C1A1008E408843A26B708C15C12A80BEE9310EC0DF2C6B6F7B5F81185C06E308D8C422C049C7C061153075004A4BE193375BAB0CDA796D540290AE0844
310
CAE07E4B5A5910C703E8B7142E01B84881C155404704DDAE03E80801401C80FC52B82580293646D00000B403C0F6F83D004A5EE06C21D89180C796D8EF97ED3F596B51F12782B61F473B9265F58648D412F9DF2BD82C00D89606B037030280EBAF81C4FA1170AE0107A1211A305604D3ACC00CB114060000C4AA405733E0D2
310
0BF424E0D20B5CABBFA817304D2F10FDB4BFF5C10BD8AA0076D76B47E4A70EA04BEB6874049400A2CC1FA7017801BC002B410000A011000E4DCD100154812E290000AAC0931E510F4034EB5621E351046B8747AC5570B906907AC53604BCA440A28B56CCDAB63501E40D21BB4EBF98F5B21190C85C1EF819868E1AD06D7BBC
310
0AC06AB35EB40A6407450A15A423A4B812AC1D2836D195205E0000344400400A00000000101641692F60C12299640A84B937F5842EEE11B2FCF10979076CDD08287749E276488FB680830313E9BFC5CF541817017D44F00E80911AD0AD0ADC8B00E92AD03AFB01C05218003444A63443555578592A9C7B81EA3AF9818B2B00
310
384E0F8403248947087FAF5C9CD20C25DBE4D966B0D5EE0FB05AEC4F0F608B8F4EE7CE38995DED5A78F2C07C5E20DD1CCF6F8728632210B2DAC52500586186E2DCB09B1727EA07DC8A00F12A70EE053EFA20D6F900D499BC6C9AF00278010090020000000010C1215EC0C3D9210F9F32F3DEA781CEAD01E91189D4EF6F0050
310
4981C3FBBB0130A80AC801A8C99E99D2274DE51DCDF002005D006A0BA1FC5FCD4CFCC9D23E52401E00FD000000401BC0401104C0F42930DBF83480350600D401BC218200200500000000208200200500000000AC2E82C7ED1D2BBE520601000000002005F0A53C7E015CC4C737A9251C56DA2B02A60000000049454E44AE42
310
6082
  0
ACDSRECORD
 90
        0
  2
AcDbDs::ID
280
    10
320
22
  2
Thumbnail_Data
280
    15
 94
     1425
310
89504E470D0A1A0A0000000D49484452000001000000006F08030000003479EE6F00000300504C5445212830FFFFFF2128300000000000000000000000000000000000000000000000000000330000660000990000CC0000FF0033000033330033660033990033CC0033FF0066000066330066660066990066CC0066FF0099
310
000099330099660099990099CC0099FF00CC0000CC3300CC6600CC9900CCCC00CCFF00FF0000FF3300FF6600FF9900FFCC00FFFF3300003300333300663300993300CC3300FF3333003333333333663333993333CC3333FF3366003366333366663366993366CC3366FF3399003399333399663399993399CC3399FF33CC00
310
33CC3333CC6633CC9933CCCC33CCFF33FF0033FF3333FF6633FF9933FFCC33FFFF6600006600336600666600996600CC6600FF6633006633336633666633996633CC6633FF6666006666336666666666996666CC6666FF6699006699336699666699996699CC6699FF66CC0066CC3366CC6666CC9966CCCC66CCFF66FF0066
310
FF3366FF6666FF9966FFCC66FFFF9900009900339900669900999900CC9900FF9933009933339933669933999933CC9933FF9966009966339966669966999966CC9966FF9999009999339999669999999999CC9999FF99CC0099CC3399CC6699CC9999CCCC99CCFF99FF0099FF3399FF6699FF9999FFCC99FFFFCC0000CC00
310
33CC0066CC0099CC00CCCC00FFCC3300CC3333CC3366CC3399CC33CCCC33FFCC6600CC6633CC6666CC6699CC66CCCC66FFCC9900CC9933CC9966CC9999CC99CCCC99FFCCCC00CCCC33CCCC66CCCC99CCCCCCCCCCFFCCFF00CCFF33CCFF66CCFF99CCFFCCCCFFFFFF0000FF0033FF0066FF0099FF00CCFF00FFFF3300FF3333
310
FF3366FF3399FF33CCFF33FFFF6600FF6633FF6666FF6699FF66CCFF66FFFF9900FF9933FF9966FF9999FF99CCFF99FFFFCC00FFCC33FFCC66FFCC99FFCCCCFFCCFFFFFF00FFFF33FFFF66FFFF99FFFFCCFFFFFF0000000D0D0D1A1A1A2828283535354343435050505D5D5D6B6B6B787878868686939393A1A1A1AEAEAEBB
310
BBBBC9C9C9D6D6D6E4E4E4F1F1F1FFFFFF0000000000000000000000000000000000000000000000000000000000002E4550F10000008A4944415478DAEDD7410E40301040D1DEFFBEB397860D122D119199F7120B65F5A583D6000000000000E005D10920800040D51920800040F12FC123010410002A6F815FF18C003E7F
310
0B08208000CCC4134000924FC7D3CAFE9EF405AE16FA4924DED8E300EB916D12DC0810C5036C3320EDBB60220040FAFFE4A7D7051000000000000000000000185900B269EBFAD37F454D0000000049454E44AE42608207107F05CC9BE058136975A5E4BA419A2A00002049FC6A8300DE059010CD9B007A6D234606505E2307
310
C7ED5D0002C84C20788ACC98053E4D116A65C28BE45E1754B37E37C407705F32CCFB9F9E0004200001084000C1010000000000FCDF03128FAC667CFAD6630000000049454E44AE426082D00A0000000049454E44AE42608240DB03FF7901226A0A006F2A836B67C0E086EB781300965A035E5805C2B72700A8039C0FDBF00A
310
8049CE03000806503C09060000005201E41E862403685704005201BC63758F0C0000003CB51D06401CC0D568795BB38500CEF3A5F719C13400CB67801A80793DF376A3A20079010000AB03E8FFFF0000C22741E97C7F7BF71FECEA0124E7E138800F71246A98476C21FA0000000049454E44AE426082E256C622C036F36F4E
310
B1107A80B114CD0069D514504FF9E01234A31020A983290A101697D0082084104208218410420821C404B00C7AD7420821841042C49301B7F934DC91BEEF8934F6DAC5E0BF9844BF22F8722BF1E72D6108BE61EA37DB1C14619E4E4502ECBB52A2A3BC0A845BCD8E1E40D6057E0001EDE95DA2E332240000000049454E44AE
310
426082C190450000000049454E44AE426082426082454E44AE426082
  0
ENDSEC
  0
EOF
